Subcategories

Tom Waits - Transmission Impossible (2015) [Bootleg]

Posted By: delpotro
Tom Waits - Transmission Impossible (2015) [Bootleg]

Tom Waits - Transmission Impossible (2015)
EAC Rip | FLAC (tracks+log+.cue) - 1,08 Gb | Scans - 7 Mb | 03:37:44
Blues Rock, Singer-Songwriter | Label: Eat To The Beat

This 3 CD set includes radio broadcasts transmitted during this initial period of Tom Waits career, and features complete live performances recorded in; 1975 at the studios of KRQS FM, Minneapolis, featuring just Tom alone at his piano; in December 1976 at Media Sound Studios - another in studio session during which, between numbers, Tom is interviewed by the station presenter; and in 1977, back in the big apple at the famous, My Father s Place venue, out on Long Island.
Tracklist:
CD1 - Minnepolis 1975
1-1 Emotional Weather Report
1-2 Eggs And Sausage (Intro)
1-3 Eggs And Sausage
1-4 Better Off Without A Wife
1-5 Semi Suite
1-6 Spare Parts
1-7 The Ghosts Of Saturday / The Heart Of Saturday Night
1-8 New Coat Of Paint
1-9 Warm Beer And Cold Women
1-10 Virginia Avenue
1-11 San Diego Serenade
1-12 Putnam County
1-13 Ol' 55
1-14 Mr. Siegal (from The Don Lane Show Australia 1981)
1-15 Tango Til They're Sore (from Late Night with David Letterman NYC 1986)
1-16 Time (from Late Night with David Letterman NYC 1986)

CD2 - New York 1976
2-1 Emotional Weather Report
2-2 A Sight For Sore Eyes
2-3 Step Right Up
2-4 Eggs And Sausage / Invitation To The Bues
2-5 Jitterbug Boy
2-6 Diamonds On My Windshield
2-7 San Diego Serenade
2-8 Tom Traubert's Blues
2-9 New Coat Of Paint
2-10 The Piano Has Been Drinking
2-11 I Can't Wait To Get Off Work

CD3 - New York 1977
3-1 Standin' On The Corner
3-2 I Never Talk To Strangers
3-3 Pasties And G-Strings
3-4 Invitation To The Blues
3-5 Jitterbug Boy
3-6 Step Right Up
3-7 I Wish I Was In New Orleans / Small Change
3-8 The Piano Has Been Drinking
3-9 Emotionak Weather Report
3-10 Muriel
3-11 Jack & Neal / California, Here I Come
3-12 Tom Traubert's Blues

Exact Audio Copy V1.3 from 2. September 2016

EAC extraction logfile from 14. August 2017, 18:58

Tom Waits / Transmission Impossible - CD1 - Minneapolis 1975

Used drive : SONY DVD RW AD-7280S Adapter: 1 ID: 1

Read mode : Secure
Utilize accurate stream : Yes
Defeat audio cache : Yes
Make use of C2 pointers : No

Read offset correction : 48
Overread into Lead-In and Lead-Out : No
Fill up missing offset samples with silence : Yes
Delete leading and trailing silent blocks : No
Null samples used in CRC calculations : Yes
Used interface : Native Win32 interface for Win NT & 2000
Gap handling : Appended to previous track

Used output format : User Defined Encoder
Selected bitrate : 1024 kBit/s
Quality : High
Add ID3 tag : No
Command line compressor : C:\Program Files (x86)\Exact Audio Copy\FLAC\FLAC.EXE
Additional command line options : -8 -e -p -V -T "ARTIST=%artist%" -T "TITLE=%title%" -T "ALBUM=%albumtitle%" -T "DATE=%year%" -T "TRACKNUMBER=%tracknr%" -T "GENRE=%genre%" -T "PERFORMER=%albuminterpret%" -T "COMPOSER=%composer%" %haslyrics%–tag-from-file=LYRICS="%lyricsfile%"%haslyrics% -T "ALBUMARTIST=%albumartist%" -T "DISCNUMBER=%cdnumber%" -T "TOTALDISCS=%totalcds%" -T "TOTALTRACKS=%numtracks%" -T "COMMENT=%comment%" %source% -o %dest%


TOC of the extracted CD

Track | Start | Length | Start sector | End sector
––––––––––––––––––––––––––––-
1 | 0:00.00 | 6:23.67 | 0 | 28791
2 | 6:23.67 | 5:50.37 | 28792 | 55078
3 | 12:14.29 | 3:04.00 | 55079 | 68878
4 | 15:18.29 | 4:46.10 | 68879 | 90338
5 | 20:04.39 | 6:27.35 | 90339 | 119398
6 | 26:31.74 | 8:10.17 | 119399 | 156165
7 | 34:42.16 | 8:24.24 | 156166 | 193989
8 | 43:06.40 | 2:24.21 | 193990 | 204810
9 | 45:30.61 | 5:47.59 | 204811 | 230894
10 | 51:18.45 | 2:47.52 | 230895 | 243471
11 | 54:06.22 | 4:25.69 | 243472 | 263415
12 | 58:32.16 | 6:37.59 | 263416 | 293249
13 | 65:10.00 | 3:30.16 | 293250 | 309015
14 | 68:40.16 | 3:31.06 | 309016 | 324846
15 | 72:11.22 | 3:17.50 | 324847 | 339671
16 | 75:28.72 | 2:25.03 | 339672 | 350549


Track 1

Filename G:\__New\_EAC rips\Tom Waits - Transmission Impossible (1975-77) [boot] (2015) 3cd flac\disc 1 'Round Midnight_ The Minneapolis Broadcast\01 - Emotional Weather Report.wav

Pre-gap length 0:00:02.00

Peak level 96.6 %
Extraction speed 2.7 X
Track quality 100.0 %
Test CRC 4E2804FD
Copy CRC 4E2804FD
Accurately ripped (confidence 9) [6CA91187] (AR v2)
Copy OK

Track 2

Filename G:\__New\_EAC rips\Tom Waits - Transmission Impossible (1975-77) [boot] (2015) 3cd flac\disc 1 'Round Midnight_ The Minneapolis Broadcast\02 - Eggs & Sausage (Intro).wav

Peak level 97.8 %
Extraction speed 3.1 X
Track quality 100.0 %
Test CRC 2E37DC3D
Copy CRC 2E37DC3D
Accurately ripped (confidence 9) [A63BF9AD] (AR v2)
Copy OK

Track 3

Filename G:\__New\_EAC rips\Tom Waits - Transmission Impossible (1975-77) [boot] (2015) 3cd flac\disc 1 'Round Midnight_ The Minneapolis Broadcast\03 - Eggs & Sausage.wav

Peak level 96.6 %
Extraction speed 3.1 X
Track quality 100.0 %
Test CRC 782BB2E2
Copy CRC 782BB2E2
Accurately ripped (confidence 9) [3AD072AB] (AR v2)
Copy OK

Track 4

Filename G:\__New\_EAC rips\Tom Waits - Transmission Impossible (1975-77) [boot] (2015) 3cd flac\disc 1 'Round Midnight_ The Minneapolis Broadcast\04 - Better off Without a Wife.wav

Peak level 100.0 %
Extraction speed 3.1 X
Track quality 99.9 %
Test CRC F2F68D3B
Copy CRC F2F68D3B
Accurately ripped (confidence 9) [5075DD64] (AR v2)
Copy OK

Track 5

Filename G:\__New\_EAC rips\Tom Waits - Transmission Impossible (1975-77) [boot] (2015) 3cd flac\disc 1 'Round Midnight_ The Minneapolis Broadcast\05 - Semi Suite.wav

Peak level 100.0 %
Extraction speed 3.8 X
Track quality 100.0 %
Test CRC 41C2ED61
Copy CRC 41C2ED61
Accurately ripped (confidence 9) [2B2D073C] (AR v2)
Copy OK

Track 6

Filename G:\__New\_EAC rips\Tom Waits - Transmission Impossible (1975-77) [boot] (2015) 3cd flac\disc 1 'Round Midnight_ The Minneapolis Broadcast\06 - Spare Parts.wav

Peak level 98.5 %
Extraction speed 4.3 X
Track quality 100.0 %
Test CRC 76C3DD2C
Copy CRC 76C3DD2C
Accurately ripped (confidence 9) [0838DD94] (AR v2)
Copy OK

Track 7

Filename G:\__New\_EAC rips\Tom Waits - Transmission Impossible (1975-77) [boot] (2015) 3cd flac\disc 1 'Round Midnight_ The Minneapolis Broadcast\07 - The Ghosts of Saturday Night , The Heart of Saturday Night.wav

Peak level 91.1 %
Extraction speed 4.3 X
Track quality 99.9 %
Test CRC 3D946381
Copy CRC 3D946381
Accurately ripped (confidence 9) [AF6D7F76] (AR v2)
Copy OK

Track 8

Filename G:\__New\_EAC rips\Tom Waits - Transmission Impossible (1975-77) [boot] (2015) 3cd flac\disc 1 'Round Midnight_ The Minneapolis Broadcast\08 - New Coat of Paint.wav

Peak level 92.4 %
Extraction speed 4.1 X
Track quality 100.0 %
Test CRC B1F5AF9D
Copy CRC B1F5AF9D
Accurately ripped (confidence 9) [EAA6D5AD] (AR v2)
Copy OK

Track 9

Filename G:\__New\_EAC rips\Tom Waits - Transmission Impossible (1975-77) [boot] (2015) 3cd flac\disc 1 'Round Midnight_ The Minneapolis Broadcast\09 - Warm Beer and Cold Women.wav

Peak level 91.4 %
Extraction speed 4.8 X
Track quality 100.0 %
Test CRC 5362A7D2
Copy CRC 5362A7D2
Accurately ripped (confidence 9) [88680640] (AR v2)
Copy OK

Track 10

Filename G:\__New\_EAC rips\Tom Waits - Transmission Impossible (1975-77) [boot] (2015) 3cd flac\disc 1 'Round Midnight_ The Minneapolis Broadcast\10 - Virginia Avenue.wav

Peak level 91.3 %
Extraction speed 4.5 X
Track quality 100.0 %
Test CRC CAED1F1C
Copy CRC CAED1F1C
Accurately ripped (confidence 9) [355CB3DC] (AR v2)
Copy OK

Track 11

Filename G:\__New\_EAC rips\Tom Waits - Transmission Impossible (1975-77) [boot] (2015) 3cd flac\disc 1 'Round Midnight_ The Minneapolis Broadcast\11 - San Diego Serenade.wav

Peak level 92.8 %
Extraction speed 4.4 X
Track quality 99.9 %
Test CRC 1A7EF4A5
Copy CRC 1A7EF4A5
Accurately ripped (confidence 9) [27CB71D1] (AR v2)
Copy OK

Track 12

Filename G:\__New\_EAC rips\Tom Waits - Transmission Impossible (1975-77) [boot] (2015) 3cd flac\disc 1 'Round Midnight_ The Minneapolis Broadcast\12 - Putnam County.wav

Peak level 92.1 %
Extraction speed 5.4 X
Track quality 100.0 %
Test CRC D73BCE00
Copy CRC D73BCE00
Accurately ripped (confidence 9) [019D1896] (AR v2)
Copy OK

Track 13

Filename G:\__New\_EAC rips\Tom Waits - Transmission Impossible (1975-77) [boot] (2015) 3cd flac\disc 1 'Round Midnight_ The Minneapolis Broadcast\13 - Ol' '55.wav

Peak level 93.0 %
Extraction speed 5.1 X
Track quality 100.0 %
Test CRC 0B2E7E07
Copy CRC 0B2E7E07
Accurately ripped (confidence 9) [F6F827B1] (AR v2)
Copy OK

Track 14

Filename G:\__New\_EAC rips\Tom Waits - Transmission Impossible (1975-77) [boot] (2015) 3cd flac\disc 1 'Round Midnight_ The Minneapolis Broadcast\14 - Mr Siegal (Don Lane Show 1981).wav

Peak level 98.8 %
Extraction speed 5.2 X
Track quality 100.0 %
Test CRC 99B906D3
Copy CRC 99B906D3
Accurately ripped (confidence 9) [00DC8CAF] (AR v2)
Copy OK

Track 15

Filename G:\__New\_EAC rips\Tom Waits - Transmission Impossible (1975-77) [boot] (2015) 3cd flac\disc 1 'Round Midnight_ The Minneapolis Broadcast\15 - Tango Till They're Sore (David Letterman Show 1986).wav

Peak level 90.3 %
Extraction speed 5.3 X
Track quality 100.0 %
Test CRC 4A1E10BE
Copy CRC 4A1E10BE
Accurately ripped (confidence 9) [6EB401E4] (AR v2)
Copy OK

Track 16

Filename G:\__New\_EAC rips\Tom Waits - Transmission Impossible (1975-77) [boot] (2015) 3cd flac\disc 1 'Round Midnight_ The Minneapolis Broadcast\16 - Time (David Letterman Show 1986).wav

Peak level 85.0 %
Extraction speed 5.0 X
Track quality 100.0 %
Test CRC 2FB56DEA
Copy CRC 2FB56DEA
Accurately ripped (confidence 9) [32002ACE] (AR v2)
Copy OK


All tracks accurately ripped

No errors occurred

End of status report

–– CUETools DB Plugin V2.1.6

[CTDB TOCID: p5qleBtiAnSSHQMb6BjInmriy6k-] found
Submit result: already submitted
Track | CTDB Status
1 | (33/33) Accurately ripped
2 | (33/33) Accurately ripped
3 | (33/33) Accurately ripped
4 | (33/33) Accurately ripped
5 | (33/33) Accurately ripped
6 | (33/33) Accurately ripped
7 | (33/33) Accurately ripped
8 | (33/33) Accurately ripped
9 | (33/33) Accurately ripped
10 | (33/33) Accurately ripped
11 | (33/33) Accurately ripped
12 | (33/33) Accurately ripped
13 | (33/33) Accurately ripped
14 | (33/33) Accurately ripped
15 | (33/33) Accurately ripped
16 | (33/33) Accurately ripped


==== Log checksum AF0DC977EDE27830002904182B05D2F0C5948C3242A1608BF8854E4BCFE608DA ====

Exact Audio Copy V1.3 from 2. September 2016

EAC extraction logfile from 14. August 2017, 20:18

Tom Waits / Transmission Impossible - CD2 - New York 1976

Used drive : SONY DVD RW AD-7280S Adapter: 1 ID: 1

Read mode : Secure
Utilize accurate stream : Yes
Defeat audio cache : Yes
Make use of C2 pointers : No

Read offset correction : 48
Overread into Lead-In and Lead-Out : No
Fill up missing offset samples with silence : Yes
Delete leading and trailing silent blocks : No
Null samples used in CRC calculations : Yes
Used interface : Native Win32 interface for Win NT & 2000
Gap handling : Appended to previous track

Used output format : User Defined Encoder
Selected bitrate : 1024 kBit/s
Quality : High
Add ID3 tag : No
Command line compressor : C:\Program Files (x86)\Exact Audio Copy\FLAC\FLAC.EXE
Additional command line options : -8 -e -p -V -T "ARTIST=%artist%" -T "TITLE=%title%" -T "ALBUM=%albumtitle%" -T "DATE=%year%" -T "TRACKNUMBER=%tracknr%" -T "GENRE=%genre%" -T "PERFORMER=%albuminterpret%" -T "COMPOSER=%composer%" %haslyrics%–tag-from-file=LYRICS="%lyricsfile%"%haslyrics% -T "ALBUMARTIST=%albumartist%" -T "DISCNUMBER=%cdnumber%" -T "TOTALDISCS=%totalcds%" -T "TOTALTRACKS=%numtracks%" -T "COMMENT=%comment%" %source% -o %dest%


TOC of the extracted CD

Track | Start | Length | Start sector | End sector
––––––––––––––––––––––––––––-
1 | 0:00.00 | 7:45.46 | 0 | 34920
2 | 7:45.46 | 3:20.57 | 34921 | 49977
3 | 11:06.28 | 6:45.11 | 49978 | 80363
4 | 17:51.39 | 4:48.13 | 80364 | 101976
5 | 22:39.52 | 6:35.72 | 101977 | 131673
6 | 29:15.49 | 3:59.58 | 131674 | 149656
7 | 33:15.32 | 4:32.19 | 149657 | 170075
8 | 37:47.51 | 8:58.21 | 170076 | 210446
9 | 46:45.72 | 6:01.24 | 210447 | 237545
10 | 52:47.21 | 5:12.11 | 237546 | 260956
11 | 57:59.32 | 4:05.38 | 260957 | 279369


Track 1

Filename G:\__New\_EAC rips\Tom Waits - Transmission Impossible (1975-77) [boot] (2015) 3cd flac\disc 2 Nighthawks on the Radio\01 - Emotional Weather Report.wav

Pre-gap length 0:00:02.00

Peak level 92.1 %
Extraction speed 2.7 X
Track quality 100.0 %
Test CRC 5D48E88A
Copy CRC 5D48E88A
Accurately ripped (confidence 4) [03FBABEA] (AR v2)
Copy OK

Track 2

Filename G:\__New\_EAC rips\Tom Waits - Transmission Impossible (1975-77) [boot] (2015) 3cd flac\disc 2 Nighthawks on the Radio\02 - A Sight For Sore Eyes.wav

Peak level 85.5 %
Extraction speed 2.8 X
Track quality 100.0 %
Test CRC 2108FC4B
Copy CRC 2108FC4B
Accurately ripped (confidence 4) [672C97D3] (AR v2)
Copy OK

Track 3

Filename G:\__New\_EAC rips\Tom Waits - Transmission Impossible (1975-77) [boot] (2015) 3cd flac\disc 2 Nighthawks on the Radio\03 - Step Right Up.wav

Peak level 86.8 %
Extraction speed 3.4 X
Track quality 100.0 %
Test CRC D455FEA0
Copy CRC D455FEA0
Accurately ripped (confidence 4) [E42A8CD3] (AR v2)
Copy OK

Track 4

Filename G:\__New\_EAC rips\Tom Waits - Transmission Impossible (1975-77) [boot] (2015) 3cd flac\disc 2 Nighthawks on the Radio\04 - Eggs and Sausage,Invitation To The Blues.wav

Peak level 92.2 %
Extraction speed 3.2 X
Track quality 99.9 %
Test CRC 0F66C7B6
Copy CRC 0F66C7B6
Accurately ripped (confidence 4) [7D983DE3] (AR v2)
Copy OK

Track 5

Filename G:\__New\_EAC rips\Tom Waits - Transmission Impossible (1975-77) [boot] (2015) 3cd flac\disc 2 Nighthawks on the Radio\05 - Jitterbug Boys.wav

Peak level 88.1 %
Extraction speed 3.9 X
Track quality 100.0 %
Test CRC ABFF4486
Copy CRC ABFF4486
Accurately ripped (confidence 4) [4374D9F7] (AR v2)
Copy OK

Track 6

Filename G:\__New\_EAC rips\Tom Waits - Transmission Impossible (1975-77) [boot] (2015) 3cd flac\disc 2 Nighthawks on the Radio\06 - Diamonds On My Windshield.wav

Peak level 92.4 %
Extraction speed 3.9 X
Track quality 100.0 %
Test CRC EE26C0B6
Copy CRC EE26C0B6
Accurately ripped (confidence 4) [DC0DEC50] (AR v2)
Copy OK

Track 7

Filename G:\__New\_EAC rips\Tom Waits - Transmission Impossible (1975-77) [boot] (2015) 3cd flac\disc 2 Nighthawks on the Radio\07 - San Diego Serenade.wav

Peak level 71.8 %
Extraction speed 3.8 X
Track quality 99.9 %
Test CRC E71FC62C
Copy CRC E71FC62C
Accurately ripped (confidence 4) [34595AD0] (AR v2)
Copy OK

Track 8

Filename G:\__New\_EAC rips\Tom Waits - Transmission Impossible (1975-77) [boot] (2015) 3cd flac\disc 2 Nighthawks on the Radio\08 - Tom Traubert's Blues.wav

Pre-gap length 0:00:02.22

Peak level 72.4 %
Extraction speed 4.7 X
Track quality 100.0 %
Test CRC 1D56F534
Copy CRC 1D56F534
Accurately ripped (confidence 4) [4D893D1E] (AR v2)
Copy OK

Track 9

Filename G:\__New\_EAC rips\Tom Waits - Transmission Impossible (1975-77) [boot] (2015) 3cd flac\disc 2 Nighthawks on the Radio\09 - New Coat Of Paint.wav

Peak level 89.5 %
Extraction speed 4.9 X
Track quality 100.0 %
Test CRC CB5945DF
Copy CRC CB5945DF
Accurately ripped (confidence 4) [C0A2AE5E] (AR v2)
Copy OK

Track 10

Filename G:\__New\_EAC rips\Tom Waits - Transmission Impossible (1975-77) [boot] (2015) 3cd flac\disc 2 Nighthawks on the Radio\10 - The Piano Has Been Drinking.wav

Peak level 92.1 %
Extraction speed 5.0 X
Track quality 100.0 %
Test CRC 0536550C
Copy CRC 0536550C
Accurately ripped (confidence 4) [62CC348C] (AR v2)
Copy OK

Track 11

Filename G:\__New\_EAC rips\Tom Waits - Transmission Impossible (1975-77) [boot] (2015) 3cd flac\disc 2 Nighthawks on the Radio\11 - I Can't Wait To Get Off Work.wav

Peak level 92.2 %
Extraction speed 5.0 X
Track quality 100.0 %
Test CRC 64CA462D
Copy CRC 64CA462D
Accurately ripped (confidence 4) [F9BAB88F] (AR v2)
Copy OK


All tracks accurately ripped

No errors occurred

End of status report

–– CUETools DB Plugin V2.1.6

[CTDB TOCID: x.L1GF0y3wi2RfOgBP8ddJAB95Q-] found
Submit result: x.L1GF0y3wi2RfOgBP8ddJAB95Q- has been confirmed
Track | CTDB Status
1 | (12/12) Accurately ripped
2 | (12/12) Accurately ripped
3 | (12/12) Accurately ripped
4 | (11/12) Accurately ripped
5 | (11/12) Accurately ripped
6 | (11/12) Accurately ripped
7 | (11/12) Accurately ripped
8 | (11/12) Accurately ripped
9 | (11/12) Accurately ripped
10 | (11/12) Accurately ripped
11 | (11/12) Accurately ripped


==== Log checksum F1FB4C96AB0420A9EE1368F33435095585E7D2E73E33D66114B137524C62583C ====

Exact Audio Copy V1.3 from 2. September 2016

EAC extraction logfile from 14. August 2017, 21:15

Tom Waits / Transmission Impossible - CD3 - New York 1977

Used drive : SONY DVD RW AD-7280S Adapter: 1 ID: 1

Read mode : Secure
Utilize accurate stream : Yes
Defeat audio cache : Yes
Make use of C2 pointers : No

Read offset correction : 48
Overread into Lead-In and Lead-Out : No
Fill up missing offset samples with silence : Yes
Delete leading and trailing silent blocks : No
Null samples used in CRC calculations : Yes
Used interface : Native Win32 interface for Win NT & 2000
Gap handling : Appended to previous track

Used output format : User Defined Encoder
Selected bitrate : 1024 kBit/s
Quality : High
Add ID3 tag : No
Command line compressor : C:\Program Files (x86)\Exact Audio Copy\FLAC\FLAC.EXE
Additional command line options : -8 -e -p -V -T "ARTIST=%artist%" -T "TITLE=%title%" -T "ALBUM=%albumtitle%" -T "DATE=%year%" -T "TRACKNUMBER=%tracknr%" -T "GENRE=%genre%" -T "PERFORMER=%albuminterpret%" -T "COMPOSER=%composer%" %haslyrics%–tag-from-file=LYRICS="%lyricsfile%"%haslyrics% -T "ALBUMARTIST=%albumartist%" -T "DISCNUMBER=%cdnumber%" -T "TOTALDISCS=%totalcds%" -T "TOTALTRACKS=%numtracks%" -T "COMMENT=%comment%" %source% -o %dest%


TOC of the extracted CD

Track | Start | Length | Start sector | End sector
––––––––––––––––––––––––––––-
1 | 0:00.00 | 6:44.10 | 0 | 30309
2 | 6:44.10 | 4:01.36 | 30310 | 48420
3 | 10:45.46 | 6:31.65 | 48421 | 77810
4 | 17:17.36 | 8:23.65 | 77811 | 115600
5 | 25:41.26 | 6:24.53 | 115601 | 144453
6 | 32:06.04 | 5:19.36 | 144454 | 168414
7 | 37:25.40 | 11:55.07 | 168415 | 222046
8 | 49:20.47 | 3:47.42 | 222047 | 239113
9 | 53:08.14 | 4:57.58 | 239114 | 261446
10 | 58:05.72 | 5:00.42 | 261447 | 283988
11 | 63:06.39 | 6:01.15 | 283989 | 311078
12 | 69:07.54 | 8:38.21 | 311079 | 349949


Track 1

Filename G:\__New\_EAC rips\Tom Waits - Transmission Impossible (1975-77) [boot] (2015) 3cd flac\disc 3 My Father's Place\01 - Standin' on the Corner.wav

Pre-gap length 0:00:02.00

Peak level 90.7 %
Extraction speed 2.8 X
Track quality 100.0 %
Test CRC 4CA844CA
Copy CRC 4CA844CA
Accurately ripped (confidence 8) [0C8DB762] (AR v2)
Copy OK

Track 2

Filename G:\__New\_EAC rips\Tom Waits - Transmission Impossible (1975-77) [boot] (2015) 3cd flac\disc 3 My Father's Place\02 - I Never Talk to Strangers.wav

Peak level 89.9 %
Extraction speed 2.9 X
Track quality 100.0 %
Test CRC F71FC4E9
Copy CRC F71FC4E9
Accurately ripped (confidence 8) [49B7AB4E] (AR v2)
Copy OK

Track 3

Filename G:\__New\_EAC rips\Tom Waits - Transmission Impossible (1975-77) [boot] (2015) 3cd flac\disc 3 My Father's Place\03 - Pasties and a G-String.wav

Peak level 93.9 %
Extraction speed 3.4 X
Track quality 100.0 %
Test CRC 4953E346
Copy CRC 4953E346
Accurately ripped (confidence 8) [63F15347] (AR v2)
Copy OK

Track 4

Filename G:\__New\_EAC rips\Tom Waits - Transmission Impossible (1975-77) [boot] (2015) 3cd flac\disc 3 My Father's Place\04 - Invitation to the Blues.wav

Peak level 91.4 %
Extraction speed 3.8 X
Track quality 100.0 %
Test CRC 4DA26F18
Copy CRC 4DA26F18
Accurately ripped (confidence 8) [12F8CFAE] (AR v2)
Copy OK

Track 5

Filename G:\__New\_EAC rips\Tom Waits - Transmission Impossible (1975-77) [boot] (2015) 3cd flac\disc 3 My Father's Place\05 - Jitterbug Boy.wav

Peak level 99.8 %
Extraction speed 4.1 X
Track quality 100.0 %
Test CRC E6124EA2
Copy CRC E6124EA2
Accurately ripped (confidence 8) [B462113F] (AR v2)
Copy OK

Track 6

Filename G:\__New\_EAC rips\Tom Waits - Transmission Impossible (1975-77) [boot] (2015) 3cd flac\disc 3 My Father's Place\06 - Step Right Up.wav

Peak level 92.1 %
Extraction speed 4.3 X
Track quality 100.0 %
Test CRC 95F7825E
Copy CRC 95F7825E
Accurately ripped (confidence 8) [C3E13B28] (AR v2)
Copy OK

Track 7

Filename G:\__New\_EAC rips\Tom Waits - Transmission Impossible (1975-77) [boot] (2015) 3cd flac\disc 3 My Father's Place\07 - I Wish I Was In New Orleans , Small Change.wav

Peak level 94.6 %
Extraction speed 4.7 X
Track quality 99.9 %
Test CRC 00D66DEC
Copy CRC 00D66DEC
Accurately ripped (confidence 8) [F552DB66] (AR v2)
Copy OK

Track 8

Filename G:\__New\_EAC rips\Tom Waits - Transmission Impossible (1975-77) [boot] (2015) 3cd flac\disc 3 My Father's Place\08 - The Piano Has Been Drinking (Not Me).wav

Peak level 87.2 %
Extraction speed 4.7 X
Track quality 100.0 %
Test CRC E196C2FF
Copy CRC E196C2FF
Accurately ripped (confidence 8) [1601B35E] (AR v2)
Copy OK

Track 9

Filename G:\__New\_EAC rips\Tom Waits - Transmission Impossible (1975-77) [boot] (2015) 3cd flac\disc 3 My Father's Place\09 - Emotional Weather Report.wav

Peak level 92.5 %
Extraction speed 4.5 X
Track quality 99.9 %
Test CRC FCBDF0F0
Copy CRC FCBDF0F0
Accurately ripped (confidence 8) [7945085D] (AR v2)
Copy OK

Track 10

Filename G:\__New\_EAC rips\Tom Waits - Transmission Impossible (1975-77) [boot] (2015) 3cd flac\disc 3 My Father's Place\10 - Muriel.wav

Peak level 87.5 %
Extraction speed 5.1 X
Track quality 100.0 %
Test CRC 60FC0E14
Copy CRC 60FC0E14
Accurately ripped (confidence 8) [193056F5] (AR v2)
Copy OK

Track 11

Filename G:\__New\_EAC rips\Tom Waits - Transmission Impossible (1975-77) [boot] (2015) 3cd flac\disc 3 My Father's Place\11 - Jack & Neal , California, Here I Come.wav

Peak level 98.0 %
Extraction speed 5.0 X
Track quality 99.9 %
Test CRC 370C463A
Copy CRC 370C463A
Accurately ripped (confidence 8) [91F413C5] (AR v2)
Copy OK

Track 12

Filename G:\__New\_EAC rips\Tom Waits - Transmission Impossible (1975-77) [boot] (2015) 3cd flac\disc 3 My Father's Place\12 - Tom Traubert's Blues.wav

Peak level 87.9 %
Extraction speed 5.5 X
Track quality 99.9 %
Test CRC 6183D209
Copy CRC 6183D209
Accurately ripped (confidence 8) [91DFFA9A] (AR v2)
Copy OK


All tracks accurately ripped

No errors occurred

End of status report

–– CUETools DB Plugin V2.1.6

[CTDB TOCID: 53GWwV1maBvyGpu0JsJdzs2zJ90-] found
Submit result: 53GWwV1maBvyGpu0JsJdzs2zJ90- has been confirmed
Track | CTDB Status
1 | (26/26) Accurately ripped
2 | (26/26) Accurately ripped
3 | (26/26) Accurately ripped
4 | (26/26) Accurately ripped
5 | (26/26) Accurately ripped
6 | (26/26) Accurately ripped
7 | (26/26) Accurately ripped
8 | (26/26) Accurately ripped
9 | (26/26) Accurately ripped
10 | (26/26) Accurately ripped
11 | (26/26) Accurately ripped
12 | (26/26) Accurately ripped


==== Log checksum E494A96D8EFFD8CAF791D534275EC41C8221107634380DDB989DA40370BABCF8 ====


Tom Waits - Transmission Impossible (2015) [Bootleg]

Thanks to the Original ripper OhReally !