Subcategories
Tags
Language
Tags

Tommy Collins - This Is Tommy Collins & Words And Music Country Style (2017)

Posted By: delpotro
Tommy Collins - This Is Tommy Collins & Words And Music Country Style (2017)

Tommy Collins - This Is Tommy Collins & Words And Music Country Style (2017)
EAC Rip | FLAC (tracks+log+.cue) - 171 Mb | MP3 CBR 320 kbps - 143 Mb | Covers included | 00:53:59
Country | Label: Rural Routes

Two full albums from the man who was an important influence on California country giants Merle Haggard and Buck Owens! The first album is pure genius from the young Tommy Collins – an early figure on the Bakersfield scene, and an artist who almost single-handedly shaped the sound of the west coast scene with his Capitol Records material included here! Collins had a wonderful way of updating older hillbilly modes – traces of Texas and Arkansas, moved over to postwar Cali – where things got tightened up, became a bit more confident, and were given a razor-sharp sound by the excellent Capitol production. Every tune here is a classic – and many have a sense of double-entendre that rivals the hippest R&B work of the period, but with a very different sound overall – on titles that include "You Better Not Do That", "How Do I Say Goodbye", "It Tickles", "You Gotta Have A License", "Smooth Sailin", and "Whatcha Gonna Do Now". Words & Music Country Style features the wit, wisdom, and wild twang of the great Tommy Collins – brought together in a killer collection of early work for Capitol! The music here is the ultimate peak of the hillbilly generation – not the codified country of the Nashville scene to come, but much more rough-edged and wooley – with more than a few elements that could influence the sound of rock and roll as well! Titles include "The Feet Of The Traveler", "How Do I Say Goodbye", "Think It Over Boys", "Are You Ready To Go", and "All Of The Monkeys Ain't In The Zoo" –Dusty Groove
Tracklist:
This Is Tommy Collins (1959)
1. You Better Not Do That
2. I Always Get A Souvenir
3. Untied
4. How Do I Say Goodbye
5. I'll Be Gone
6. It Tickles
7. You Gotta Have A License
8. High On A Hilltop
9. Boob-I-Lak
10. Smooth Sailin'
11. Love-A-Me, S'il Vous Plait
12. Whatcha Gonna Do Now

Words And Music Country Style (1957)
13. All The Monkeys Ain't In The Zoo
14. Those Old Love Letters From You
15. A Man We All Ought To Know
16. The Feet Of The Traveler
17. I'll Always Speak Well Of You
18. Think It Over Boys
19. I Think Of You Yet
20. Are You Ready To Go?
21. Upon This Rock

Exact Audio Copy V1.3 from 2. September 2016

EAC extraction logfile from 18. August 2017, 16:30

Tommy Collins / This Is Tommy Collins / Words And Music Country Style

Used drive : TSSTcorpCDDVDW SH-224BB Adapter: 1 ID: 0

Read mode : Secure
Utilize accurate stream : Yes
Defeat audio cache : Yes
Make use of C2 pointers : No

Read offset correction : 6
Overread into Lead-In and Lead-Out : No
Fill up missing offset samples with silence : Yes
Delete leading and trailing silent blocks : No
Null samples used in CRC calculations : Yes
Used interface : Native Win32 interface for Win NT & 2000
Gap handling : Appended to previous track

Used output format : User Defined Encoder
Selected bitrate : 768 kBit/s
Quality : High
Add ID3 tag : No
Command line compressor : C:\Program Files (x86)\Exact Audio Copy\Flac\flac.exe
Additional command line options : -8 -V -T "ARTIST=%artist%" -T "TITLE=%title%" -T "ALBUM=%albumtitle%" -T "DATE=%year%" -T "TRACKNUMBER=%tracknr%" -T "TOTALTRACKS=%numtracks%" -T "GENRE=%genre%" -T "ALBUMARTIST=%albumartist%" -T "ALBUM ARTIST=%albumartist%" -T "COMMENT=EAC Secure Mode, Test & Copy, AccurateRip, FLAC -8" %source%


TOC of the extracted CD

Track | Start | Length | Start sector | End sector
––––––––––––––––––––––––––––-
1 | 0:00.00 | 2:28.29 | 0 | 11128
2 | 2:28.29 | 2:25.10 | 11129 | 22013
3 | 4:53.39 | 2:11.29 | 22014 | 31867
4 | 7:04.68 | 2:51.05 | 31868 | 44697
5 | 9:55.73 | 2:32.25 | 44698 | 56122
6 | 12:28.23 | 2:27.58 | 56123 | 67205
7 | 14:56.06 | 2:27.12 | 67206 | 78242
8 | 17:23.18 | 2:45.55 | 78243 | 90672
9 | 20:08.73 | 2:10.51 | 90673 | 100473
10 | 22:19.49 | 2:57.13 | 100474 | 113761
11 | 25:16.62 | 2:22.06 | 113762 | 124417
12 | 27:38.68 | 2:41.20 | 124418 | 136512
13 | 30:20.13 | 2:26.32 | 136513 | 147494
14 | 32:46.45 | 3:05.01 | 147495 | 161370
15 | 35:51.46 | 3:09.56 | 161371 | 175601
16 | 39:01.27 | 2:38.03 | 175602 | 187454
17 | 41:39.30 | 2:28.40 | 187455 | 198594
18 | 44:07.70 | 2:12.42 | 198595 | 208536
19 | 46:20.37 | 2:32.55 | 208537 | 219991
20 | 48:53.17 | 2:59.63 | 219992 | 233479
21 | 51:53.05 | 2:06.02 | 233480 | 242931


Track 1

Filename C:\Rips\Tommy Collins - This Is Tommy Collins (1959) & Words And Music Country Style (1957) [FLAC] (2on1 2017)\01 - You Better Not Do That.wav

Pre-gap length 0:00:02.00

Peak level 86.4 %
Extraction speed 1.3 X
Track quality 99.9 %
Test CRC BCC17B71
Copy CRC BCC17B71
Track not present in AccurateRip database
Copy OK

Track 2

Filename C:\Rips\Tommy Collins - This Is Tommy Collins (1959) & Words And Music Country Style (1957) [FLAC] (2on1 2017)\02 - I Always Get A Souvenir.wav

Peak level 79.4 %
Extraction speed 1.6 X
Track quality 100.0 %
Test CRC 4ACAB5CD
Copy CRC 4ACAB5CD
Track not present in AccurateRip database
Copy OK

Track 3

Filename C:\Rips\Tommy Collins - This Is Tommy Collins (1959) & Words And Music Country Style (1957) [FLAC] (2on1 2017)\03 - Untied.wav

Peak level 81.6 %
Extraction speed 1.7 X
Track quality 100.0 %
Test CRC 90AAC6ED
Copy CRC 90AAC6ED
Track not present in AccurateRip database
Copy OK

Track 4

Filename C:\Rips\Tommy Collins - This Is Tommy Collins (1959) & Words And Music Country Style (1957) [FLAC] (2on1 2017)\04 - How Do I Say Goodbye.wav

Peak level 91.3 %
Extraction speed 1.9 X
Track quality 100.0 %
Test CRC E5B5DDDB
Copy CRC E5B5DDDB
Track not present in AccurateRip database
Copy OK

Track 5

Filename C:\Rips\Tommy Collins - This Is Tommy Collins (1959) & Words And Music Country Style (1957) [FLAC] (2on1 2017)\05 - I'll Be Gone.wav

Peak level 89.6 %
Extraction speed 1.9 X
Track quality 100.0 %
Test CRC 2D897781
Copy CRC 2D897781
Track not present in AccurateRip database
Copy OK

Track 6

Filename C:\Rips\Tommy Collins - This Is Tommy Collins (1959) & Words And Music Country Style (1957) [FLAC] (2on1 2017)\06 - It Tickles.wav

Peak level 82.0 %
Extraction speed 2.0 X
Track quality 100.0 %
Test CRC 070B0DB6
Copy CRC 070B0DB6
Track not present in AccurateRip database
Copy OK

Track 7

Filename C:\Rips\Tommy Collins - This Is Tommy Collins (1959) & Words And Music Country Style (1957) [FLAC] (2on1 2017)\07 - You Gotta Have A License.wav

Peak level 82.0 %
Extraction speed 2.1 X
Track quality 100.0 %
Test CRC E9CD4C3E
Copy CRC E9CD4C3E
Track not present in AccurateRip database
Copy OK

Track 8

Filename C:\Rips\Tommy Collins - This Is Tommy Collins (1959) & Words And Music Country Style (1957) [FLAC] (2on1 2017)\08 - High On A Hilltop.wav

Peak level 96.1 %
Extraction speed 2.2 X
Track quality 100.0 %
Test CRC 1667ED3C
Copy CRC 1667ED3C
Track not present in AccurateRip database
Copy OK

Track 9

Filename C:\Rips\Tommy Collins - This Is Tommy Collins (1959) & Words And Music Country Style (1957) [FLAC] (2on1 2017)\09 - Boob-I-Lak.wav

Peak level 84.5 %
Extraction speed 2.2 X
Track quality 100.0 %
Test CRC FB016D5E
Copy CRC FB016D5E
Track not present in AccurateRip database
Copy OK

Track 10

Filename C:\Rips\Tommy Collins - This Is Tommy Collins (1959) & Words And Music Country Style (1957) [FLAC] (2on1 2017)\10 - Smooth Sailin'.wav

Peak level 75.8 %
Extraction speed 2.4 X
Track quality 100.0 %
Test CRC DC3AB19E
Copy CRC DC3AB19E
Track not present in AccurateRip database
Copy OK

Track 11

Filename C:\Rips\Tommy Collins - This Is Tommy Collins (1959) & Words And Music Country Style (1957) [FLAC] (2on1 2017)\11 - Love-A-Me, S'il Vous Plait.wav

Peak level 90.7 %
Extraction speed 1.7 X
Track quality 99.9 %
Test CRC 1B707D3E
Copy CRC 1B707D3E
Track not present in AccurateRip database
Copy OK

Track 12

Filename C:\Rips\Tommy Collins - This Is Tommy Collins (1959) & Words And Music Country Style (1957) [FLAC] (2on1 2017)\12 - Whatcha Gonna Do Now.wav

Peak level 93.6 %
Extraction speed 2.5 X
Track quality 100.0 %
Test CRC 4C790061
Copy CRC 4C790061
Track not present in AccurateRip database
Copy OK

Track 13

Filename C:\Rips\Tommy Collins - This Is Tommy Collins (1959) & Words And Music Country Style (1957) [FLAC] (2on1 2017)\13 - All The Monkeys Ain't In The Zoo.wav

Peak level 85.0 %
Extraction speed 1.8 X
Track quality 99.9 %
Test CRC 39EEA580
Copy CRC 39EEA580
Track not present in AccurateRip database
Copy OK

Track 14

Filename C:\Rips\Tommy Collins - This Is Tommy Collins (1959) & Words And Music Country Style (1957) [FLAC] (2on1 2017)\14 - Those Old Love Letters From You.wav

Peak level 83.8 %
Extraction speed 2.7 X
Track quality 100.0 %
Test CRC 99446344
Copy CRC 99446344
Track not present in AccurateRip database
Copy OK

Track 15

Filename C:\Rips\Tommy Collins - This Is Tommy Collins (1959) & Words And Music Country Style (1957) [FLAC] (2on1 2017)\15 - A Man We All Ought To Know.wav

Peak level 85.2 %
Extraction speed 2.8 X
Track quality 100.0 %
Test CRC 028DBE6E
Copy CRC 028DBE6E
Track not present in AccurateRip database
Copy OK

Track 16

Filename C:\Rips\Tommy Collins - This Is Tommy Collins (1959) & Words And Music Country Style (1957) [FLAC] (2on1 2017)\16 - The Feet Of The Traveler.wav

Peak level 87.0 %
Extraction speed 2.0 X
Track quality 99.9 %
Test CRC F988F399
Copy CRC F988F399
Track not present in AccurateRip database
Copy OK

Track 17

Filename C:\Rips\Tommy Collins - This Is Tommy Collins (1959) & Words And Music Country Style (1957) [FLAC] (2on1 2017)\17 - I'll Always Speak Well Of You.wav

Peak level 86.2 %
Extraction speed 2.8 X
Track quality 100.0 %
Test CRC A277B36F
Copy CRC A277B36F
Track not present in AccurateRip database
Copy OK

Track 18

Filename C:\Rips\Tommy Collins - This Is Tommy Collins (1959) & Words And Music Country Style (1957) [FLAC] (2on1 2017)\18 - Think It Over Boys.wav

Peak level 87.4 %
Extraction speed 2.8 X
Track quality 100.0 %
Test CRC ED53C91B
Copy CRC ED53C91B
Track not present in AccurateRip database
Copy OK

Track 19

Filename C:\Rips\Tommy Collins - This Is Tommy Collins (1959) & Words And Music Country Style (1957) [FLAC] (2on1 2017)\19 - I Think Of You Yet.wav

Peak level 80.9 %
Extraction speed 2.0 X
Track quality 99.9 %
Test CRC B6A6E149
Copy CRC B6A6E149
Track not present in AccurateRip database
Copy OK

Track 20

Filename C:\Rips\Tommy Collins - This Is Tommy Collins (1959) & Words And Music Country Style (1957) [FLAC] (2on1 2017)\20 - Are You Ready To Go.wav

Peak level 81.5 %
Extraction speed 3.1 X
Track quality 100.0 %
Test CRC E491AFC3
Copy CRC E491AFC3
Track not present in AccurateRip database
Copy OK

Track 21

Filename C:\Rips\Tommy Collins - This Is Tommy Collins (1959) & Words And Music Country Style (1957) [FLAC] (2on1 2017)\21 - Upon This Rock.wav

Peak level 85.0 %
Extraction speed 2.9 X
Track quality 100.0 %
Test CRC 9A4BF7AA
Copy CRC 9A4BF7AA
Track not present in AccurateRip database
Copy OK


None of the tracks are present in the AccurateRip database

No errors occurred

End of status report

–– CUETools DB Plugin V2.1.6

[CTDB TOCID: BEFcl.IoyKKD5e0b0BRYY0gJlyE-] disk not present in database
Submit result: BEFcl.IoyKKD5e0b0BRYY0gJlyE- has been uploaded


==== Log checksum C79461DCC7A4322F9213DA5B0241D7080591C5BF991DE2E5C4CBA79F29B9D2D9 ====

Thanks to the Original ripper !