Subcategories

Trio Chemirani - Dawâr (2015)

Posted By: aasana
Trio Chemirani - Dawâr (2015)

Trio Chemirani - Dawar (2015)
EAC Rip | FLAC (tracks+.cue) | 01:06:00 | 333,31 MB
World, Folk | Label: harmonia mundi

Amoureux des percussions persanes, le trio Chemirani – Djamchid Chemirani et ses deux fils Keyvan et Bijane – met en valeur ici toute la complexité et l’harmonie qu’offrent des instruments comme le zarb, le daf, l’udu et le bendir. Les voix percussives se mélangent jusqu’à ce qu’il devienne difficile pour l’auditeur d’identifier les six mains en jeu ; l’on prend alors du recul pour apprécier l’œuvre dans sa globalité, profiter de la poésie persane dans laquelle le trio a puisé et dont s’inspirent les rythmes traditionnels. La famille Chemirani alterne titres entièrement percussifs (Mochaéré, Kam Kam) et mélodies orientales au chant parlé (To Bandégui, Dawâr) pour un album qui laisse rêveur.

01. Trio Chemirani - Dawâr (2:56)
02. Trio Chemirani - Attar (6:15)
03. Trio Chemirani - To Bandégui (2:27)
04. Trio Chemirani - Mochaéré (2:59)
05. Trio Chemirani - Kam Kam (4:35)
06. Trio Chemirani - Shékasté (4:33)
07. Trio Chemirani - Sahar (1:49)
08. Trio Chemirani - Dar e Omid (7:18)
09. Trio Chemirani - Yâdé Saman (2:31)
10. Trio Chemirani - Adjab (2:56)
11. Trio Chemirani - Haft Rang (6:35)
12. Trio Chemirani - Ärézoust (3:21)
13. Trio Chemirani - Reng e Kyân (2:09)
14. Trio Chemirani - Reng e Elijah (5:10)
15. Trio Chemirani - Raqsé Dastan part 1 (2:28)
16. Trio Chemirani - Bâ namak part 2 (3:21)
17. Trio Chemirani - Rodâdad Kodjâst part 3 (2:24)
18. Trio Chemirani - Dawâr (2:12)

Exact Audio Copy V1.0 beta 4 from 7. December 2014

EAC extraction logfile from 13. May 2015, 10:09

Trio Chemirani / Dawar

Used drive : ATAPI iHBS112 2 Adapter: 1 ID: 0

Read mode : Secure
Utilize accurate stream : Yes
Defeat audio cache : Yes
Make use of C2 pointers : No

Read offset correction : 6
Overread into Lead-In and Lead-Out : No
Fill up missing offset samples with silence : Yes
Delete leading and trailing silent blocks : No
Null samples used in CRC calculations : Yes
Used interface : Native Win32 interface for Win NT & 2000
Gap handling : Appended to previous track

Used output format : User Defined Encoder
Selected bitrate : 1024 kBit/s
Quality : High
Add ID3 tag : No
Command line compressor : C:\Program Files\Exact Audio Copy\Flac\flac.exe
Additional command line options : -8 -V -T "ARTIST=%artist%" -T "TITLE=%title%" -T "ALBUM=%albumtitle%" -T "DATE=%year%" -T "TRACKNUMBER=%tracknr%" -T "TOTALTRACKS=%numtracks%" -T "GENRE=%genre%" -T "ALBUMARTIST=%albumartist%" -T "ALBUM ARTIST=%albumartist%" -T "COMPOSER=%composer%" -T "PERFORMER=%albuminterpret%" -T "DISCNUMBER=%cdnumber%" -T "TOTALDISCS=%totalcds%" -T "COMMENT=EAC Secure Mode, Test & Copy, AccurateRip, FLAC -8" %source%


TOC of the extracted CD

Track | Start | Length | Start sector | End sector
––––––––––––––––––––––––––––-
1 | 0:00.00 | 2:56.37 | 0 | 13236
2 | 2:56.37 | 6:14.42 | 13237 | 41328
3 | 9:11.04 | 2:27.24 | 41329 | 52377
4 | 11:38.28 | 2:59.37 | 52378 | 65839
5 | 14:37.65 | 4:35.33 | 65840 | 86497
6 | 19:13.23 | 4:32.65 | 86498 | 106962
7 | 23:46.13 | 1:48.70 | 106963 | 115132
8 | 25:35.08 | 7:18.14 | 115133 | 147996
9 | 32:53.22 | 2:31.03 | 147997 | 159324
10 | 35:24.25 | 2:56.36 | 159325 | 172560
11 | 38:20.61 | 6:35.32 | 172561 | 202217
12 | 44:56.18 | 3:20.43 | 202218 | 217260
13 | 48:16.61 | 2:08.44 | 217261 | 226904
14 | 50:25.30 | 5:09.65 | 226905 | 250144
15 | 55:35.20 | 2:27.67 | 250145 | 261236
16 | 58:03.12 | 3:21.16 | 261237 | 276327
17 | 61:24.28 | 2:24.12 | 276328 | 287139
18 | 63:48.40 | 2:12.25 | 287140 | 297064


Track 1

Filename P:\DL\Trio Chemirani - Dawar (2015) [FLAC]\01 - Dawar.wav

Pre-gap length 0:00:02.00

Peak level 100.0 %
Extraction speed 4.9 X
Track quality 100.0 %
Test CRC F232B211
Copy CRC F232B211
Accurately ripped (confidence 1) [220B8FCC] (AR v2)
Copy OK

Track 2

Filename P:\DL\Trio Chemirani - Dawar (2015) [FLAC]\02 - Attar.wav

Peak level 99.7 %
Extraction speed 6.0 X
Track quality 100.0 %
Test CRC 10C4990A
Copy CRC 10C4990A
Accurately ripped (confidence 1) [259B5380] (AR v2)
Copy OK

Track 3

Filename P:\DL\Trio Chemirani - Dawar (2015) [FLAC]\03 - Bandegui.wav

Peak level 99.5 %
Extraction speed 5.8 X
Track quality 100.0 %
Test CRC 4BD118EF
Copy CRC 4BD118EF
Accurately ripped (confidence 1) [0CFF5A16] (AR v2)
Copy OK

Track 4

Filename P:\DL\Trio Chemirani - Dawar (2015) [FLAC]\04 - Mochaere.wav

Peak level 100.0 %
Extraction speed 6.2 X
Track quality 100.0 %
Test CRC 67EEF7E9
Copy CRC 67EEF7E9
Accurately ripped (confidence 1) [C8AD0BD6] (AR v2)
Copy OK

Track 5

Filename P:\DL\Trio Chemirani - Dawar (2015) [FLAC]\05 - Kam kam.wav

Peak level 100.0 %
Extraction speed 6.9 X
Track quality 100.0 %
Test CRC 7C2C40C3
Copy CRC 7C2C40C3
Accurately ripped (confidence 1) [4F2FABFD] (AR v2)
Copy OK

Track 6

Filename P:\DL\Trio Chemirani - Dawar (2015) [FLAC]\06 - Shekaste.wav

Peak level 100.0 %
Extraction speed 6.4 X
Track quality 99.9 %
Test CRC 37D05A5E
Copy CRC 37D05A5E
Accurately ripped (confidence 1) [C8F80EA2] (AR v2)
Copy OK

Track 7

Filename P:\DL\Trio Chemirani - Dawar (2015) [FLAC]\07 - Sahar.wav

Peak level 100.0 %
Extraction speed 6.6 X
Track quality 100.0 %
Test CRC 8FA5E6F5
Copy CRC 8FA5E6F5
Accurately ripped (confidence 1) [3AC21EF4] (AR v2)
Copy OK

Track 8

Filename P:\DL\Trio Chemirani - Dawar (2015) [FLAC]\08 - Dar e Omid.wav

Peak level 100.0 %
Extraction speed 8.2 X
Track quality 100.0 %
Test CRC 61CE473A
Copy CRC 61CE473A
Accurately ripped (confidence 1) [3C276847] (AR v2)
Copy OK

Track 9

Filename P:\DL\Trio Chemirani - Dawar (2015) [FLAC]\09 - Yade Saman.wav

Peak level 99.8 %
Extraction speed 6.0 X
Track quality 99.9 %
Test CRC F2087A97
Copy CRC F2087A97
Accurately ripped (confidence 1) [B8432C49] (AR v2)
Copy OK

Track 10

Filename P:\DL\Trio Chemirani - Dawar (2015) [FLAC]\10 - Adjab.wav

Peak level 100.0 %
Extraction speed 8.2 X
Track quality 100.0 %
Test CRC 4CD0F1A7
Copy CRC 4CD0F1A7
Accurately ripped (confidence 1) [89897F4C] (AR v2)
Copy OK

Track 11

Filename P:\DL\Trio Chemirani - Dawar (2015) [FLAC]\11 - Haft Rang.wav

Peak level 100.0 %
Extraction speed 8.2 X
Track quality 99.9 %
Test CRC C0A4F177
Copy CRC C0A4F177
Accurately ripped (confidence 1) [5C21BA9E] (AR v2)
Copy OK

Track 12

Filename P:\DL\Trio Chemirani - Dawar (2015) [FLAC]\12 - Arezoust.wav

Peak level 99.9 %
Extraction speed 8.8 X
Track quality 100.0 %
Test CRC 5E8221CB
Copy CRC 5E8221CB
Accurately ripped (confidence 1) [EA8D7446] (AR v2)
Copy OK

Track 13

Filename P:\DL\Trio Chemirani - Dawar (2015) [FLAC]\13 - Reng e Kyan.wav

Peak level 99.9 %
Extraction speed 8.5 X
Track quality 100.0 %
Test CRC C4F24C46
Copy CRC C4F24C46
Accurately ripped (confidence 1) [29493B7D] (AR v2)
Copy OK

Track 14

Filename P:\DL\Trio Chemirani - Dawar (2015) [FLAC]\14 - Ren e Elijah.wav

Peak level 100.0 %
Extraction speed 9.7 X
Track quality 100.0 %
Test CRC C612F2D7
Copy CRC C612F2D7
Accurately ripped (confidence 1) [23284E69] (AR v2)
Copy OK

Track 15

Filename P:\DL\Trio Chemirani - Dawar (2015) [FLAC]\15 - Raqse Dastan part 1.wav

Peak level 99.5 %
Extraction speed 8.8 X
Track quality 100.0 %
Test CRC FA77ECE7
Copy CRC FA77ECE7
Accurately ripped (confidence 1) [B838A095] (AR v2)
Copy OK

Track 16

Filename P:\DL\Trio Chemirani - Dawar (2015) [FLAC]\16 - Ba namak part 2.wav

Peak level 100.0 %
Extraction speed 9.5 X
Track quality 100.0 %
Test CRC D936281D
Copy CRC D936281D
Accurately ripped (confidence 1) [E7300838] (AR v2)
Copy OK

Track 17

Filename P:\DL\Trio Chemirani - Dawar (2015) [FLAC]\17 - Rodadad Kodjast.wav

Peak level 99.9 %
Extraction speed 9.4 X
Track quality 100.0 %
Test CRC FFC556F1
Copy CRC FFC556F1
Accurately ripped (confidence 1) [1C7B96A7] (AR v2)
Copy OK

Track 18

Filename P:\DL\Trio Chemirani - Dawar (2015) [FLAC]\18 - Dawar.wav

Peak level 99.7 %
Extraction speed 9.1 X
Track quality 100.0 %
Test CRC 156E0949
Copy CRC 156E0949
Accurately ripped (confidence 1) [1AFB158C] (AR v2)
Copy OK


All tracks accurately ripped

No errors occurred

End of status report

–– CUETools DB Plugin V2.1.4

[CTDB TOCID: feMZl545pOnFSUzIjVVndhoZ90k-] disk not present in database
Submit result:


==== Log checksum 169CB7FE22B84EC15E4212DFE54245D17F20AE9EA55AEC943A7502879171A503 ====