Subcategories

VA - Digital Zandoli 2 (2017)

Posted By: aasana
VA - Digital Zandoli 2 (2017)

Various Artists - Digital Zandoli 2 (2017)
EAC Rip | FLAC (tracks+.cue+.log) | 56:21 min | 345 MB
afro cuban, world, funk, afrobeat, disco | Label: Heavenly Sweetness

2017 release. The follow up of the acclaimed first volume of this compilation series. New musical weapons for the dancefloor from the French West Indies Zouk scene. Really rare or unknown tracks ready to be discovered by tropical/electro heads. Compiled by Digger's Digest & Nicolas Skliris. The follow up of the acclaimed first volume of this compilation, a real discovery for many DJs and music lovers worldwide who didn't know that much about Zouk or DIY electronic music of the French West Indies. People are now speaking about Zandoli style for this kind of music. The selectors Julien Digger's Digest Achard and Nicolas Skliris (ex- Superfly records) continue the excavation of French Antillas vinyl from the 80's and the 90's and for this second volume, they found some really exciting new references which should be soon classics on the dancefloors.

Tracklist:
01. Coco,Fabert - Ban di fwan
02. Wach' Da - Confrontation (Instrumental)
03. Michel ALibo - Fou, jaloux
04. Osmose - Melodi
05. Juliane - Blanc e noir (Instrumental)
06. Champagn' - L'anmou aw
07. Jo Star - Demaré moin
08. Alex Rosa - Sistem
09. Patrick Nuissier - Pou qui ça
10. Vik'in - Tension la ka monté
11. Joyeux de Cocotier - Pina colada coco loco
12. Djeminay - Sun plash

Exact Audio Copy V1.3 from 2. September 2016

EAC extraction logfile from 2. March 2018, 17:32

Various Artists / Digital Zandoli 2

Used drive : HL-DT-STDVDRAM GP30NB20 Adapter: 1 ID: 1

Read mode : Secure
Utilize accurate stream : Yes
Defeat audio cache : Yes
Make use of C2 pointers : No

Read offset correction : 6
Overread into Lead-In and Lead-Out : No
Fill up missing offset samples with silence : Yes
Delete leading and trailing silent blocks : No
Null samples used in CRC calculations : Yes
Used interface : Native Win32 interface for Win NT & 2000
Gap handling : Appended to previous track

Used output format : User Defined Encoder
Selected bitrate : 1024 kBit/s
Quality : High
Add ID3 tag : No
Command line compressor : C:\Program Files (x86)\Exact Audio Copy\Flac\flac.exe
Additional command line options : -8 -e -p -V -T "ARTIST=%artist%" -T "TITLE=%title%" -T "ALBUM=%albumtitle%" -T "DATE=%year%" -T "TRACKNUMBER=%tracknr%" -T "GENRE=%genre%" -T "PERFORMER=%albuminterpret%" -T "COMPOSER=%composer%" %haslyrics%–tag-from-file=LYRICS="%lyricsfile%"%haslyrics% -T "ALBUMARTIST=%albumartist%" -T "DISCNUMBER=%cdnumber%" -T "TOTALDISCS=%totalcds%" -T "TOTALTRACKS=%numtracks%" -T "COMMENT=%comment%" %source% -o %dest%


TOC of the extracted CD

Track | Start | Length | Start sector | End sector
––––––––––––––––––––––––––––-
1 | 0:00.00 | 4:36.09 | 0 | 20708
2 | 4:36.09 | 3:24.27 | 20709 | 36035
3 | 8:00.36 | 4:02.01 | 36036 | 54186
4 | 12:02.37 | 3:48.49 | 54187 | 71335
5 | 15:51.11 | 4:21.01 | 71336 | 90911
6 | 20:12.12 | 5:34.02 | 90912 | 115963
7 | 25:46.14 | 5:27.23 | 115964 | 140511
8 | 31:13.37 | 4:01.69 | 140512 | 158655
9 | 35:15.31 | 6:38.30 | 158656 | 188535
10 | 41:53.61 | 4:51.69 | 188536 | 210429
11 | 46:45.55 | 6:16.01 | 210430 | 238630
12 | 53:01.56 | 2:53.35 | 238631 | 251640


Track 1

Filename C:\Users\PC\Desktop\VA-Digital Zandoli 2-CD-FLAC-2017\01 - Coco , Fabert - Ban Di Fwan.wav

Pre-gap length 0:00:02.00

Peak level 99.9 %
Extraction speed 1.1 X
Track quality 100.0 %
Test CRC 650F4FCE
Copy CRC 650F4FCE
Track not present in AccurateRip database
Copy OK

Track 2

Filename C:\Users\PC\Desktop\VA-Digital Zandoli 2-CD-FLAC-2017\02 - Wach'Da - Confrontation (instrumental).wav

Peak level 99.9 %
Extraction speed 1.2 X
Track quality 100.0 %
Test CRC 3BFC6872
Copy CRC 3BFC6872
Track not present in AccurateRip database
Copy OK

Track 3

Filename C:\Users\PC\Desktop\VA-Digital Zandoli 2-CD-FLAC-2017\03 - Michel Alibo - Fou, Jaloux.wav

Peak level 99.9 %
Extraction speed 1.2 X
Track quality 99.9 %
Test CRC A756B96D
Copy CRC A756B96D
Track not present in AccurateRip database
Copy OK

Track 4

Filename C:\Users\PC\Desktop\VA-Digital Zandoli 2-CD-FLAC-2017\04 - Osmose - Melodi.wav

Peak level 99.9 %
Extraction speed 1.4 X
Track quality 100.0 %
Test CRC 1811919D
Copy CRC 1811919D
Track not present in AccurateRip database
Copy OK

Track 5

Filename C:\Users\PC\Desktop\VA-Digital Zandoli 2-CD-FLAC-2017\05 - Juliane - Blanc E Noir.wav

Peak level 99.9 %
Extraction speed 1.6 X
Track quality 100.0 %
Test CRC 5EA17956
Copy CRC 5EA17956
Track not present in AccurateRip database
Copy OK

Track 6

Filename C:\Users\PC\Desktop\VA-Digital Zandoli 2-CD-FLAC-2017\06 - Champagn' - L'Anmou Aw.wav

Peak level 99.9 %
Extraction speed 1.7 X
Track quality 100.0 %
Test CRC 71EE7309
Copy CRC 71EE7309
Track not present in AccurateRip database
Copy OK

Track 7

Filename C:\Users\PC\Desktop\VA-Digital Zandoli 2-CD-FLAC-2017\07 - Jo Star - Demare Moin.wav

Peak level 99.9 %
Extraction speed 1.7 X
Track quality 99.9 %
Test CRC D43354BF
Copy CRC D43354BF
Track not present in AccurateRip database
Copy OK

Track 8

Filename C:\Users\PC\Desktop\VA-Digital Zandoli 2-CD-FLAC-2017\08 - Alex Rosa - Sistem.wav

Peak level 99.9 %
Extraction speed 1.9 X
Track quality 100.0 %
Test CRC 848D4C52
Copy CRC 848D4C52
Track not present in AccurateRip database
Copy OK

Track 9

Filename C:\Users\PC\Desktop\VA-Digital Zandoli 2-CD-FLAC-2017\09 - Patrick Nuissier - Pou Qui Ca.wav

Peak level 99.9 %
Extraction speed 1.9 X
Track quality 99.9 %
Test CRC 543CBFAE
Copy CRC 543CBFAE
Track not present in AccurateRip database
Copy OK

Track 10

Filename C:\Users\PC\Desktop\VA-Digital Zandoli 2-CD-FLAC-2017\10 - Vik'in - Tension La Ka Monte.wav

Peak level 99.9 %
Extraction speed 2.1 X
Track quality 100.0 %
Test CRC 81DF41CC
Copy CRC 81DF41CC
Track not present in AccurateRip database
Copy OK

Track 11

Filename C:\Users\PC\Desktop\VA-Digital Zandoli 2-CD-FLAC-2017\11 - Joyeux De Cocotier - Pina Colada Coco Loco.wav

Peak level 99.9 %
Extraction speed 2.2 X
Track quality 100.0 %
Test CRC 53C394EC
Copy CRC 53C394EC
Track not present in AccurateRip database
Copy OK

Track 12

Filename C:\Users\PC\Desktop\VA-Digital Zandoli 2-CD-FLAC-2017\12 - Djeminay - Sun Plash.wav

Peak level 99.9 %
Extraction speed 2.1 X
Track quality 100.0 %
Test CRC 909B151A
Copy CRC 909B151A
Track not present in AccurateRip database
Copy OK


None of the tracks are present in the AccurateRip database

No errors occurred

End of status report

–– CUETools DB Plugin V2.1.6

[CTDB TOCID: 5kcxN9FL4auTMDviJfsGqWxGMs0-] found
Submit result: 5kcxN9FL4auTMDviJfsGqWxGMs0- has been confirmed
Track | CTDB Status
1 | (2/2) Accurately ripped
2 | (2/2) Accurately ripped
3 | (2/2) Accurately ripped
4 | (2/2) Accurately ripped
5 | (2/2) Accurately ripped
6 | (2/2) Accurately ripped
7 | (2/2) Accurately ripped
8 | (2/2) Accurately ripped
9 | (2/2) Accurately ripped
10 | (2/2) Accurately ripped
11 | (2/2) Accurately ripped
12 | (2/2) Accurately ripped


==== Log checksum 50A63C22C4FA202DAADD7121833EED59E1060B469698250283C8F3139EFBE1D4 ====