Tags
Language
Tags

VA - The Marvelous Mrs. Maisel: Season 2 (Music From The Prime Original Series) (2018)

Posted By: aasana
VA - The Marvelous Mrs. Maisel: Season 2 (Music From The Prime Original Series) (2018)

Various Artists - The Marvelous Mrs. Maisel: Music From Season Two (2018)
EAC Rip | FLAC (tracks+.cue) | 00:42:28 | 201,93 MB
Soundtrack; Easy Listening; Jazz | Label: UME Direct

Amazon Prime Video’s acclaimed, award-winning show, “The Marvelous Mrs. Maisel,” transports viewers into the title character’s charming world through its authentic, detailed period set design and fashion, as well as with its carefully selected music. The winner of eight Emmy Awards, including one for Music Supervision, the series’ first season finds young newlywed Midge Maisel in 1958 New York, navigating her home life and her burgeoning stand-up comedy career. Universal Music Enterprises (UMe) has partnered with Prime Video to showcase the series’ inspired music with the global release of The Marvelous Mrs. Maisel: Season One (Music from the Prime Original Series). The release features timeless songs from the era featured prominently in key scenes during Season 1. Artists include Frank Sinatra, Barbara Streisand, Peggy Lee, Ella Fitzgerald, Nat King Cole, Julie London, Connie Francis and many more.

Tracklist:
3:23 | 01. Barbra Streisand - Just Leave Everything To Me (From "Hello Dolly!" Soundtrack)
2:36 | 02. Dean Martin - I'd Cry Like A Baby
3:42 | 03. Billie Holiday - Autumn In New York
2:26 | 04. Frank Sinatra, Keely Smith - How Are Ya' Fixed For Love?
3:20 | 05. Juliette Gréco - Coin de rue
2:17 | 06. Louis Armstrong - What A Wonderful World
3:55 | 07. Blossom Dearie - Some Other Time
3:04 | 08. Barbra Streisand - Happy Days Are Here Again
2:10 | 09. Louis Prima, The Witnesses - Five Months, Two Weeks, Two Days
1:34 | 10. Julie London - 'S Wonderful
2:41 | 11. Ella Fitzgerald - Old Mother Hubbard
2:05 | 12. Sarah Vaughan - I'm Gonna Live Till I Die
2:39 | 13. The Chordettes - Pink Shoe Laces
2:14 | 14. Patience & Prudence - Witchcraft
4:23 | 15. Deborah Kerr, Marni Nixon, Yul Brynner - Shall We Dance? (From "The King And I" Soundtrack)

Exact Audio Copy V1.3 from 2. September 2016

EAC extraction logfile from 28. August 2019, 14:11

Various Artists / The Marvelous Mrs. Maisel: Music From Season Two

Used drive : PIONEER BD-RW BDR-209D Adapter: 1 ID: 0

Read mode : Secure
Utilize accurate stream : Yes
Defeat audio cache : Yes
Make use of C2 pointers : No

Read offset correction : 667
Overread into Lead-In and Lead-Out : No
Fill up missing offset samples with silence : Yes
Delete leading and trailing silent blocks : No
Null samples used in CRC calculations : Yes
Used interface : Native Win32 interface for Win NT & 2000
Gap handling : Appended to previous track

Used output format : User Defined Encoder
Selected bitrate : 1024 kBit/s
Quality : High
Add ID3 tag : No
Command line compressor : Z:\eac\flac.exe
Additional command line options : -8 -V -T "ARTIST=%artist%" -T "TITLE=%title%" -T "ALBUM=%albumtitle%" -T "DATE=%year%" -T "TRACKNUMBER=%tracknr%" -T "GENRE=%genre%" -T "PERFORMER=%albuminterpret%" -T "COMPOSER=%composer%" %haslyrics%–tag-from-file=LYRICS="%lyricsfile%"%haslyrics% -T "ALBUMARTIST=%albumartist%" -T "DISCNUMBER=%cdnumber%" -T "TOTALDISCS=%totalcds%" -T "TOTALTRACKS=%numtracks%" -T "COMMENT=%comment%" %source% -o %dest%


TOC of the extracted CD

Track | Start | Length | Start sector | End sector
––––––––––––––––––––––––––––-
1 | 0:00.00 | 3:23.37 | 0 | 15261
2 | 3:23.37 | 2:35.71 | 15262 | 26957
3 | 5:59.33 | 3:42.27 | 26958 | 43634
4 | 9:41.60 | 2:25.68 | 43635 | 54577
5 | 12:07.53 | 3:19.56 | 54578 | 69558
6 | 15:27.34 | 2:17.37 | 69559 | 79870
7 | 17:44.71 | 3:55.32 | 79871 | 97527
8 | 21:40.28 | 3:04.28 | 97528 | 111355
9 | 24:44.56 | 2:09.43 | 111356 | 121073
10 | 26:54.24 | 1:33.48 | 121074 | 128096
11 | 28:27.72 | 2:40.48 | 128097 | 140144
12 | 31:08.45 | 2:05.00 | 140145 | 149519
13 | 33:13.45 | 2:38.49 | 149520 | 161418
14 | 35:52.19 | 2:13.62 | 161419 | 171455
15 | 38:06.06 | 4:22.65 | 171456 | 191170


Track 1

Filename Z:\eac\output\01 - Barbra Streisand - Just Leave Everything to Me.wav

Pre-gap length 0:00:02.00

Peak level 94.5 %
Extraction speed 1.4 X
Track quality 99.9 %
Test CRC 98F12E88
Copy CRC 98F12E88
Accurately ripped (confidence 2) [6AA54245] (AR v2)
Copy OK

Track 2

Filename Z:\eac\output\02 - Dean Martin - I'd Cry Like a Baby.wav

Peak level 98.8 %
Extraction speed 1.6 X
Track quality 100.0 %
Test CRC BA0A2473
Copy CRC BA0A2473
Accurately ripped (confidence 2) [9AD2ACA9] (AR v2)
Copy OK

Track 3

Filename Z:\eac\output\03 - Billie Holiday - Autumn in New York.wav

Peak level 90.5 %
Extraction speed 1.8 X
Track quality 100.0 %
Test CRC 52DFBBFD
Copy CRC 52DFBBFD
Accurately ripped (confidence 2) [9EE53DF5] (AR v2)
Copy OK

Track 4

Filename Z:\eac\output\04 - Frank Sinatra & Keely Smith - How Are Ya' Fixed for Love?.wav

Peak level 96.8 %
Extraction speed 1.8 X
Track quality 100.0 %
Test CRC 19830A5B
Copy CRC 19830A5B
Accurately ripped (confidence 2) [66D518B1] (AR v2)
Copy OK

Track 5

Filename Z:\eac\output\05 - Juliette Gréco - Coin de rue.wav

Peak level 79.6 %
Extraction speed 2.0 X
Track quality 100.0 %
Test CRC 35657D8E
Copy CRC 35657D8E
Accurately ripped (confidence 2) [1B41BBC6] (AR v2)
Copy OK

Track 6

Filename Z:\eac\output\06 - Louis Armstrong - What a Wonderful World.wav

Peak level 77.5 %
Extraction speed 2.0 X
Track quality 100.0 %
Test CRC F6F36246
Copy CRC F6F36246
Accurately ripped (confidence 2) [EA072371] (AR v2)
Copy OK

Track 7

Filename Z:\eac\output\07 - Blossom Dearie - Some Other Time.wav

Peak level 100.0 %
Extraction speed 2.3 X
Track quality 100.0 %
Test CRC B482861C
Copy CRC B482861C
Accurately ripped (confidence 2) [8DB3D199] (AR v2)
Copy OK

Track 8

Filename Z:\eac\output\08 - Barbra Streisand - Happy Days Are Here Again.wav

Peak level 100.0 %
Extraction speed 2.3 X
Track quality 100.0 %
Test CRC E1BB7F1A
Copy CRC E1BB7F1A
Accurately ripped (confidence 2) [ED14830C] (AR v2)
Copy OK

Track 9

Filename Z:\eac\output\09 - Louis Prima & The Witnesses - Five Months, Two Weeks, Two Days.wav

Peak level 100.0 %
Extraction speed 2.2 X
Track quality 100.0 %
Test CRC E0C16D94
Copy CRC E0C16D94
Accurately ripped (confidence 2) [6D1038B9] (AR v2)
Copy OK

Track 10

Filename Z:\eac\output\10 - Julie London - 'S Wonderful.wav

Peak level 75.2 %
Extraction speed 2.0 X
Track quality 100.0 %
Test CRC 8F32229A
Copy CRC 8F32229A
Accurately ripped (confidence 2) [ABF8FE58] (AR v2)
Copy OK

Track 11

Filename Z:\eac\output\11 - Ella Fitzgerald - Old Mother Hubbard.wav

Peak level 70.8 %
Extraction speed 2.1 X
Track quality 99.9 %
Test CRC 3BC6A188
Copy CRC 3BC6A188
Accurately ripped (confidence 2) [3E306AA2] (AR v2)
Copy OK

Track 12

Filename Z:\eac\output\12 - Sarah Vaughan - I'm Gonna Live Till I Die.wav

Peak level 91.9 %
Extraction speed 2.4 X
Track quality 100.0 %
Test CRC 3D0E171F
Copy CRC 3D0E171F
Accurately ripped (confidence 2) [9202A4F4] (AR v2)
Copy OK

Track 13

Filename Z:\eac\output\13 - The Chordettes - Pink Shoe Laces.wav

Peak level 69.9 %
Extraction speed 2.6 X
Track quality 100.0 %
Test CRC 26CC17B3
Copy CRC 26CC17B3
Accurately ripped (confidence 2) [7E26BD84] (AR v2)
Copy OK

Track 14

Filename Z:\eac\output\14 - Patience & Prudence - Witchcraft.wav

Peak level 75.5 %
Extraction speed 2.5 X
Track quality 100.0 %
Test CRC 75CF3C9E
Copy CRC 75CF3C9E
Accurately ripped (confidence 2) [DA54A2F4] (AR v2)
Copy OK

Track 15

Filename Z:\eac\output\15 - Deborah Kerr, Marni Nixon & Yul Brynner - Shall We Dance?.wav

Peak level 93.8 %
Extraction speed 2.9 X
Track quality 100.0 %
Test CRC 79668C68
Copy CRC 79668C68
Accurately ripped (confidence 2) [69DC8E44] (AR v2)
Copy OK


All tracks accurately ripped

No errors occurred

End of status report

–– CUETools DB Plugin V2.1.6

[CTDB TOCID: d0BxKhqEQvp.lRxS5UaqE47uScg-] found
Submit result: d0BxKhqEQvp.lRxS5UaqE47uScg- has been confirmed
Track | CTDB Status
1 | (12/12) Accurately ripped
2 | (12/12) Accurately ripped
3 | (12/12) Accurately ripped
4 | (12/12) Accurately ripped
5 | (12/12) Accurately ripped
6 | (12/12) Accurately ripped
7 | (12/12) Accurately ripped
8 | (12/12) Accurately ripped
9 | (12/12) Accurately ripped
10 | (12/12) Accurately ripped
11 | (12/12) Accurately ripped
12 | (12/12) Accurately ripped
13 | (12/12) Accurately ripped
14 | (12/12) Accurately ripped
15 | (12/12) Accurately ripped


==== Log checksum 59CE4201EFED59205C0A7ABE1921705BB3FA9799F4F320FA80A115CF5A6D0B67 ====