Subcategories

VA - 100x Vive la France (2013)

Posted By: delpotro
VA - 100x Vive la France (2013)

VA - 100x Vive la France (2013)
EAC Rip | FLAC (tracks+log+.cue) | 05:29:02 | 1,85 Gb
Pop, Chanson | Label: Universal Music

On 100 X Vive la France there are 100 tracks that perfectly reflect the feeling of 50 years of French music. From veterans such as Charles Trenet, Henri Salvador, Yves Montand and Catherine Sauvage to more recent artists such as In-Grid, Renaud and others. The tracks are arranged chronologically on the CDs and are thus a nice overview of half a century French music.
Tracklist:
CD1
01. Charles Trenet - La Mer
02. Henri Salvador - Maladie d'Amour
03. Juliette Gréco - Sous Le Ciel De Paris
04. Catherine Sauvage - Paris Canaille
05. Mouloudji - Un Jour Tu Verras
06. Boris Vian - Le Déserteur
07. Boris Vian & Magali Noël - Fais-Moi Mal Johnny
08. Lucienne Delyle - Les Roses Blanches
09. Jacques Brel - Ne Me Quitte Pas
10. Sacha Distel - Oui Oui Oui Oui
11. Melina Mercouri - Les Enfants Du Pirée
12. Marcel Amont - Bleu Blanc Blond
13. Soeur Sourire - Dominique
14. Claude François - Belles Belles Belles
15. Yves Montand - Les Feuilles Mortes '62
16. Jacqueline François - La Valse Des Lilas
17. Adamo - Tombe La Neige
18. Isabelle Aubret - C'est Beau La Vie
19. Barbara - Au Bois De Saint-Amand
20. Gilbert Bécaud - Nathalie

CD2
01. Léo Ferré - Ni Dieu Ni Maître
02. Gillian Hills - Tut Tut Tut Tut
03. Hervé Vilard - Capri C'est Fini
04. Lucille Starr - The French Song (Quand Le Soleil Dit Bonjour Aux Montagnes)
05. Christophe - Aline
06. Liesbeth List - Va-t'En Loin
07. Eileen - Ces Bottes Sont Faites Pour Marcher
08. Michel Legrand - Elle A Elle A Pas
09. Marc Aryan - Si J'Étais Le Fils d'Un Roi
10. Stone - Seul
11. Nino Ferrer - Le Téléfon
12. Ramses Shaffy - Sammy
13. Claude François - Comme d'Habitude
14. Nicoletta - Il Est Mort Le Soleil
15. Hugues Aufray - Adieu Monsieur Le Professeur
16. Françoise Hardy - Comment Te Dire Adieu
17. Yves Montand - À Bicyclette
18. Serge Reggiani - Et Puis
19. Jacques Dutronc - Il Est Cinq Heures Paris s'Éveille
20. Georges Moustaki - Le Métèque

CD3
01. Frida Boccara - Un Jour Un Enfant
02. Jane Birkin & Serge Gainsbourg - Je t'Aime Moi Non Plus
03. Lenny Kuhr - Le Troubadour
04. Rika Zaraï - Alors Je Chante
05. David Alexandre Winter - Oh Lady Mary
06. Fairport Convention - Si Tu Dois Partir
07. Enrico Macias - La Romance
08. Marc Hamilton - Comme J'ai Toujours Envie d'Aimer
09. Michel Delpech - Pour Un Flirt
10. Poppys - Non Non Rien n'A Changé
11. Poppys - Isabelle Je t'Aime
12. Jimmy Frey - Une Rose Pour Sandra
13. Vicky Leandros - Après Toi
14. Mort Shuman - Le Lac Majeur
15. Pierre Groscolas - Lady Lay
16. Serge Lama - Je Suis Malade
17. Dalida & Alain Delon - Paroles Paroles
18. Michel Sardou - La Marche En Avant
19. Serge Gainsbourg - Je Suis Venu Te Dire Que Je m'En Vais
20. Anne-Marie David - Tu Te Reconnaîtras

CD4
01. C Jérôme - C'est Moi
02. Michel Delpech - Le Chasseur (Les Oies Sauvages)
03. Mike Brant - C'est Comme Ça Que Je t'Aime
04. Jean-Michel Caradec - Ma Petite Fille De Rêve
05. Gérard Lenorman - La Ballade Des Gens Heureux
06. Alain Barrière & Noëlle Cordier - Tu t'En Vas
07. Catherine Ferry - 1 2 3
08. Nana Mouskouri - Quand Tu Chantes
09. Nicole Rieu - Je m'Envole
10. Grace Jones - La Vie En Rose
11. Marie Myriam - L'Oiseau Et l'Enfant
12. Yves Duteil - Tarentelle
13. Plastic Bertrand - Ça Plane Pour Moi
14. Jacques Brel - Voir Un Ami Pleurer
15. Michèle Torr - Emmène-Moi Danser Ce Soir
16. Francis Lalanne - La Maison Du Bonheur
17. Michel Sardou - Les Lacs Du Connemara
18. Jo Lemaire & Flouze - Je Suis Venue Te Dire Que Je m'En Vais
19. Renaud - Dès Que Le Vent Soufflera
20. Viktor Lazlo - Pleurer Des Rivières

CD5
01. Desireless - Voyage Voyage
02. Sandra Kim - J'aime La Vie
03. Patricia Kaas - Mademoiselle Chante Le Blues
04. Patricia Kaas - Mon Mec À Moi
05. François Feldman - Les Valses De Vienne
06. Pauline Ester - Oui Je l'Adore
07. Alain Bashung - Osez Joséphine
08. Khaled - Aïcha
09. Manau - La Tribu De Dana
10. In-Grid - Tu Es Foutu
11. Calogero - En Apesanteur
12. Mickey 3D - Respire
13. Chimène Badi - Entre Nous
14. Florent Pagny - Ma Liberté De Penser
15. Benjamin Biolay - Chaise À Tokyo
16. Kate Ryan - Ella Elle l'A
17. Ben L'Oncle Soul - Soulman
18. Berry - Les Passagers
19. Scarlett Johansson & Lulu Gainsbourg - Bonnie And Clyde
20. Berry - Si Souvent

Exact Audio Copy V1.0 beta 3 from 29. August 2011

EAC extraction logfile from 16. September 2013, 22:21

Various Artists / 100x Vive La France (2013) CD1

Used drive : hp CDDVDW TS-L633N Adapter: 0 ID: 1

Read mode : Secure
Utilize accurate stream : Yes
Defeat audio cache : Yes
Make use of C2 pointers : No

Read offset correction : 6
Overread into Lead-In and Lead-Out : No
Fill up missing offset samples with silence : Yes
Delete leading and trailing silent blocks : No
Null samples used in CRC calculations : Yes
Used interface : Native Win32 interface for Win NT & 2000
Gap handling : Appended to previous track

Used output format : User Defined Encoder
Selected bitrate : 1024 kBit/s
Quality : High
Add ID3 tag : No
Command line compressor : C:\Program Files (x86)\Exact Audio Copy\Flac\flac.exe
Additional command line options : -8 -V -T "ARTIST=%artist%" -T "TITLE=%title%" -T "ALBUM=%albumtitle%" -T "DATE=%year%" -T "TRACKNUMBER=%tracknr%" -T "GENRE=%genre%" -T "PERFORMER=%albuminterpret%" -T "COMPOSER=%composer%" %haslyrics%–tag-from-file=LYRICS="%lyricsfile%"%haslyrics% -T "ALBUMARTIST=%albumartist%" -T "DISCNUMBER=%cdnumber%" -T "TOTALDISCS=%totalcds%" -T "TOTALTRACKS=%numtracks%" -T "COMMENT=%comment%" %source% -o %dest%


TOC of the extracted CD

Track | Start | Length | Start sector | End sector
––––––––––––––––––––––––––––-
1 | 0:00.00 | 3:22.41 | 0 | 15190
2 | 3:22.41 | 1:51.53 | 15191 | 23568
3 | 5:14.19 | 3:18.60 | 23569 | 38478
4 | 8:33.04 | 3:26.00 | 38479 | 53928
5 | 11:59.04 | 3:30.45 | 53929 | 69723
6 | 15:29.49 | 3:07.05 | 69724 | 83753
7 | 18:36.54 | 2:23.21 | 83754 | 94499
8 | 21:00.00 | 3:39.07 | 94500 | 110931
9 | 24:39.07 | 3:50.36 | 110932 | 128217
10 | 28:29.43 | 2:28.51 | 128218 | 139368
11 | 30:58.19 | 2:40.25 | 139369 | 151393
12 | 33:38.44 | 2:33.33 | 151394 | 162901
13 | 36:12.02 | 2:54.48 | 162902 | 175999
14 | 39:06.50 | 2:12.37 | 176000 | 185936
15 | 41:19.12 | 3:07.62 | 185937 | 200023
16 | 44:26.74 | 2:56.41 | 200024 | 213264
17 | 47:23.40 | 2:57.67 | 213265 | 226606
18 | 50:21.32 | 2:41.19 | 226607 | 238700
19 | 53:02.51 | 1:30.42 | 238701 | 245492
20 | 54:33.18 | 4:03.48 | 245493 | 263765


Track 1

Filename E:\CDRips\01 - Charles Trenet - La Mer [1946].wav

Pre-gap length 0:00:02.00

Peak level 61.4 %
Extraction speed 2.0 X
Track quality 100.0 %
Test CRC F75A7FAF
Copy CRC F75A7FAF
Track not present in AccurateRip database
Copy OK

Track 2

Filename E:\CDRips\02 - Henri Salvador - Maladie d'Amour [1947].wav

Pre-gap length 0:00:02.00

Peak level 68.9 %
Extraction speed 1.9 X
Track quality 100.0 %
Test CRC C65FD367
Copy CRC C65FD367
Track not present in AccurateRip database
Copy OK

Track 3

Filename E:\CDRips\03 - Juliette Gréco - Sous Le Ciel De Paris [1951].wav

Pre-gap length 0:00:02.00

Peak level 65.9 %
Extraction speed 2.3 X
Track quality 100.0 %
Test CRC 4B9EC5AF
Copy CRC 4B9EC5AF
Track not present in AccurateRip database
Copy OK

Track 4

Filename E:\CDRips\04 - Catherine Sauvage - Paris Canaille [1953].wav

Pre-gap length 0:00:02.00

Peak level 68.7 %
Extraction speed 2.5 X
Track quality 100.0 %
Test CRC CC220F33
Copy CRC CC220F33
Track not present in AccurateRip database
Copy OK

Track 5

Filename E:\CDRips\05 - Mouloudji - Un Jour Tu Verras [1953].wav

Pre-gap length 0:00:02.00

Peak level 62.4 %
Extraction speed 2.7 X
Track quality 100.0 %
Test CRC 66D747BE
Copy CRC 66D747BE
Track not present in AccurateRip database
Copy OK

Track 6

Filename E:\CDRips\06 - Boris Vian - Le Déserteur [1956].wav

Pre-gap length 0:00:02.00

Peak level 64.4 %
Extraction speed 2.7 X
Track quality 100.0 %
Test CRC 50A5B3C5
Copy CRC 50A5B3C5
Track not present in AccurateRip database
Copy OK

Track 7

Filename E:\CDRips\07 - Boris Vian & Magali Noël - Fais-Moi Mal Johnny [1956].wav

Pre-gap length 0:00:02.00

Peak level 94.4 %
Extraction speed 2.7 X
Track quality 100.0 %
Test CRC 0AA7A7F8
Copy CRC 0AA7A7F8
Track not present in AccurateRip database
Copy OK

Track 8

Filename E:\CDRips\08 - Lucienne Delyle - Les Roses Blanches [1959].wav

Pre-gap length 0:00:02.00

Peak level 50.3 %
Extraction speed 2.4 X
Track quality 99.9 %
Test CRC 38A44727
Copy CRC 38A44727
Track not present in AccurateRip database
Copy OK

Track 9

Filename E:\CDRips\09 - Jacques Brel - Ne Me Quitte Pas [1959].wav

Pre-gap length 0:00:02.00

Peak level 65.7 %
Extraction speed 3.2 X
Track quality 100.0 %
Test CRC A38C9C49
Copy CRC A38C9C49
Track not present in AccurateRip database
Copy OK

Track 10

Filename E:\CDRips\10 - Sacha Distel - Oui Oui Oui Oui [1959].wav

Pre-gap length 0:00:02.00

Peak level 67.2 %
Extraction speed 3.0 X
Track quality 100.0 %
Test CRC B800513D
Copy CRC B800513D
Track not present in AccurateRip database
Copy OK

Track 11

Filename E:\CDRips\11 - Melina Mercouri - Les Enfants Du Pirée [1960].wav

Pre-gap length 0:00:02.00

Peak level 72.1 %
Extraction speed 2.4 X
Track quality 99.9 %
Test CRC E4651AEF
Copy CRC E4651AEF
Track not present in AccurateRip database
Copy OK

Track 12

Filename E:\CDRips\12 - Marcel Amont - Bleu Blanc Blond [1960].wav

Pre-gap length 0:00:02.00

Peak level 70.0 %
Extraction speed 3.2 X
Track quality 100.0 %
Test CRC 99819CB9
Copy CRC 99819CB9
Track not present in AccurateRip database
Copy OK

Track 13

Filename E:\CDRips\13 - Soeur Sourire - Dominique [1962].wav

Pre-gap length 0:00:02.00

Peak level 66.7 %
Extraction speed 2.6 X
Track quality 99.9 %
Test CRC 7EAC2A7C
Copy CRC 7EAC2A7C
Track not present in AccurateRip database
Copy OK

Track 14

Filename E:\CDRips\14 - Claude François - Belles Belles Belles [1962].wav

Pre-gap length 0:00:02.00

Peak level 94.4 %
Extraction speed 2.3 X
Track quality 99.9 %
Test CRC B5925C62
Copy CRC B5925C62
Track not present in AccurateRip database
Copy OK

Track 15

Filename E:\CDRips\15 - Yves Montand - Les Feuilles Mortes '62 [1962].wav

Pre-gap length 0:00:02.00

Peak level 63.1 %
Extraction speed 3.6 X
Track quality 100.0 %
Test CRC F9F62BB4
Copy CRC F9F62BB4
Track not present in AccurateRip database
Copy OK

Track 16

Filename E:\CDRips\16 - Jacqueline François - La Valse Des Lilas [1962].wav

Pre-gap length 0:00:02.00

Peak level 54.4 %
Extraction speed 3.6 X
Track quality 100.0 %
Test CRC 78B0EE34
Copy CRC 78B0EE34
Track not present in AccurateRip database
Copy OK

Track 17

Filename E:\CDRips\17 - Adamo - Tombe La Neige [1963].wav

Pre-gap length 0:00:02.00

Peak level 82.7 %
Extraction speed 3.7 X
Track quality 100.0 %
Test CRC 5021E5E5
Copy CRC 5021E5E5
Track not present in AccurateRip database
Copy OK

Track 18

Filename E:\CDRips\18 - Isabelle Aubret - C'est Beau La Vie [1963].wav

Pre-gap length 0:00:02.00

Peak level 63.7 %
Extraction speed 3.5 X
Track quality 100.0 %
Test CRC 95402E3E
Copy CRC 95402E3E
Track not present in AccurateRip database
Copy OK

Track 19

Filename E:\CDRips\19 - Barbara - Au Bois De Saint-Amand [1964].wav

Pre-gap length 0:00:02.00

Peak level 57.8 %
Extraction speed 2.3 X
Track quality 100.0 %
Test CRC FF5F04BB
Copy CRC FF5F04BB
Track not present in AccurateRip database
Copy OK

Track 20

Filename E:\CDRips\20 - Gilbert Bécaud - Nathalie [1964].wav

Pre-gap length 0:00:02.00

Peak level 94.4 %
Extraction speed 2.7 X
Track quality 100.0 %
Test CRC D8DA413D
Copy CRC D8DA413D
Track not present in AccurateRip database
Copy OK


None of the tracks are present in the AccurateRip database

No errors occurred

End of status report

–– CUETools DB Plugin V2.1.3

[CTDB TOCID: 9qQRqE6d3fAVAVmik1UcKItPoLI-] disk not present in database, Submit result: 9qQRqE6d3fAVAVmik1UcKItPoLI- has been uploaded


==== Log checksum 17BD31BE068A4C0B6E647F7740DDE82663E786EA3C31F62550397BA3E3BEADB6 ====

Exact Audio Copy V1.0 beta 3 from 29. August 2011

EAC extraction logfile from 16. September 2013, 23:11

Various Artists / 100x Vive La France (2013) CD2

Used drive : hp CDDVDW TS-L633N Adapter: 0 ID: 1

Read mode : Secure
Utilize accurate stream : Yes
Defeat audio cache : Yes
Make use of C2 pointers : No

Read offset correction : 6
Overread into Lead-In and Lead-Out : No
Fill up missing offset samples with silence : Yes
Delete leading and trailing silent blocks : No
Null samples used in CRC calculations : Yes
Used interface : Native Win32 interface for Win NT & 2000
Gap handling : Appended to previous track

Used output format : User Defined Encoder
Selected bitrate : 1024 kBit/s
Quality : High
Add ID3 tag : No
Command line compressor : C:\Program Files (x86)\Exact Audio Copy\Flac\flac.exe
Additional command line options : -8 -V -T "ARTIST=%artist%" -T "TITLE=%title%" -T "ALBUM=%albumtitle%" -T "DATE=%year%" -T "TRACKNUMBER=%tracknr%" -T "GENRE=%genre%" -T "PERFORMER=%albuminterpret%" -T "COMPOSER=%composer%" %haslyrics%–tag-from-file=LYRICS="%lyricsfile%"%haslyrics% -T "ALBUMARTIST=%albumartist%" -T "DISCNUMBER=%cdnumber%" -T "TOTALDISCS=%totalcds%" -T "TOTALTRACKS=%numtracks%" -T "COMMENT=%comment%" %source% -o %dest%


TOC of the extracted CD

Track | Start | Length | Start sector | End sector
––––––––––––––––––––––––––––-
1 | 0:00.00 | 3:38.25 | 0 | 16374
2 | 3:38.25 | 2:01.07 | 16375 | 25456
3 | 5:39.32 | 3:34.31 | 25457 | 41537
4 | 9:13.63 | 2:52.12 | 41538 | 54449
5 | 12:06.00 | 2:51.60 | 54450 | 67334
6 | 14:57.60 | 2:38.53 | 67335 | 79237
7 | 17:36.38 | 2:32.71 | 79238 | 90708
8 | 20:09.34 | 2:44.40 | 90709 | 103048
9 | 22:53.74 | 3:09.08 | 103049 | 117231
10 | 26:03.07 | 2:24.48 | 117232 | 128079
11 | 28:27.55 | 2:49.54 | 128080 | 140808
12 | 31:17.34 | 2:20.08 | 140809 | 151316
13 | 33:37.42 | 4:10.43 | 151317 | 170109
14 | 37:48.10 | 3:14.29 | 170110 | 184688
15 | 41:02.39 | 3:46.57 | 184689 | 201695
16 | 44:49.21 | 2:26.43 | 201696 | 212688
17 | 47:15.64 | 2:44.00 | 212689 | 224988
18 | 49:59.64 | 3:35.68 | 224989 | 241181
19 | 53:35.57 | 2:55.37 | 241182 | 254343
20 | 56:31.19 | 2:30.36 | 254344 | 265629


Track 1

Filename E:\CDRips\01 - Léo Ferré - Ni Dieu Ni Maître [1965].wav

Pre-gap length 0:00:02.00

Peak level 78.4 %
Extraction speed 2.1 X
Track quality 100.0 %
Test CRC A1C995D0
Copy CRC A1C995D0
Track not present in AccurateRip database
Copy OK

Track 2

Filename E:\CDRips\02 - Gillian Hills - Tut Tut Tut Tut [1965].wav

Pre-gap length 0:00:02.00

Peak level 73.4 %
Extraction speed 2.0 X
Track quality 100.0 %
Test CRC DA226B88
Copy CRC DA226B88
Track not present in AccurateRip database
Copy OK

Track 3

Filename E:\CDRips\03 - Hervé Vilard - Capri C'est Fini [1965].wav

Pre-gap length 0:00:02.00

Peak level 74.7 %
Extraction speed 2.4 X
Track quality 100.0 %
Test CRC 57B8BDA8
Copy CRC 57B8BDA8
Track not present in AccurateRip database
Copy OK

Track 4

Filename E:\CDRips\04 - Lucille Starr - The French Song (Quand Le Soleil Dit Bonjour Aux Montagnes) [1964].wav

Pre-gap length 0:00:02.00

Peak level 63.2 %
Extraction speed 2.4 X
Track quality 100.0 %
Test CRC EEFF1734
Copy CRC EEFF1734
Track not present in AccurateRip database
Copy OK

Track 5

Filename E:\CDRips\05 - Christophe - Aline [1965].wav

Pre-gap length 0:00:02.00

Peak level 64.7 %
Extraction speed 2.6 X
Track quality 100.0 %
Test CRC 38440BF1
Copy CRC 38440BF1
Track not present in AccurateRip database
Copy OK

Track 6

Filename E:\CDRips\06 - Liesbeth List - Va-t'En Loin [1965].wav

Pre-gap length 0:00:02.00

Peak level 68.3 %
Extraction speed 2.0 X
Track quality 99.9 %
Test CRC 740A4FAE
Copy CRC 740A4FAE
Track not present in AccurateRip database
Copy OK

Track 7

Filename E:\CDRips\07 - Eileen - Ces Bottes Sont Faites Pour Marcher [1965].wav

Pre-gap length 0:00:02.00

Peak level 65.2 %
Extraction speed 2.7 X
Track quality 100.0 %
Test CRC 1D436075
Copy CRC 1D436075
Track not present in AccurateRip database
Copy OK

Track 8

Filename E:\CDRips\08 - Michel Legrand - Elle A Elle A Pas [1965].wav

Pre-gap length 0:00:02.00

Peak level 64.8 %
Extraction speed 2.9 X
Track quality 100.0 %
Test CRC 4B9AED84
Copy CRC 4B9AED84
Track not present in AccurateRip database
Copy OK

Track 9

Filename E:\CDRips\09 - Marc Aryan - Si J'Étais Le Fils d'Un Roi [1964].wav

Pre-gap length 0:00:02.00

Peak level 64.7 %
Extraction speed 3.0 X
Track quality 100.0 %
Test CRC DFB5F5E0
Copy CRC DFB5F5E0
Track not present in AccurateRip database
Copy OK

Track 10

Filename E:\CDRips\10 - Stone - Seul [1966].wav

Pre-gap length 0:00:02.00

Peak level 62.9 %
Extraction speed 3.0 X
Track quality 100.0 %
Test CRC 32BAFAE6
Copy CRC 32BAFAE6
Track not present in AccurateRip database
Copy OK

Track 11

Filename E:\CDRips\11 - Nino Ferrer - Le Téléfon [1967].wav

Pre-gap length 0:00:02.00

Peak level 94.4 %
Extraction speed 3.2 X
Track quality 100.0 %
Test CRC DAD0223F
Copy CRC DAD0223F
Track not present in AccurateRip database
Copy OK

Track 12

Filename E:\CDRips\12 - Ramses Shaffy - Sammy [1966].wav

Pre-gap length 0:00:02.00

Peak level 77.7 %
Extraction speed 2.2 X
Track quality 99.9 %
Test CRC F8776E11
Copy CRC F8776E11
Track not present in AccurateRip database
Copy OK

Track 13

Filename E:\CDRips\13 - Claude François - Comme d'Habitude [1967].wav

Pre-gap length 0:00:02.00

Peak level 67.3 %
Extraction speed 3.6 X
Track quality 100.0 %
Test CRC E98E0F66
Copy CRC E98E0F66
Track not present in AccurateRip database
Copy OK

Track 14

Filename E:\CDRips\14 - Nicoletta - Il Est Mort Le Soleil [1967].wav

Pre-gap length 0:00:02.00

Peak level 71.6 %
Extraction speed 3.5 X
Track quality 100.0 %
Test CRC C52A1A33
Copy CRC C52A1A33
Track not present in AccurateRip database
Copy OK

Track 15

Filename E:\CDRips\15 - Hugues Aufray - Adieu Monsieur Le Professeur [1968].wav

Pre-gap length 0:00:02.00

Peak level 63.3 %
Extraction speed 3.0 X
Track quality 99.9 %
Test CRC BD4A56EE
Copy CRC BD4A56EE
Track not present in AccurateRip database
Copy OK

Track 16

Filename E:\CDRips\16 - Françoise Hardy - Comment Te Dire Adieu [1968].wav

Pre-gap length 0:00:02.00

Peak level 74.2 %
Extraction speed 3.5 X
Track quality 100.0 %
Test CRC FA413F96
Copy CRC FA413F96
Track not present in AccurateRip database
Copy OK

Track 17

Filename E:\CDRips\17 - Yves Montand - À Bicyclette [1968].wav

Pre-gap length 0:00:02.00

Peak level 65.4 %
Extraction speed 2.8 X
Track quality 99.9 %
Test CRC CF85278C
Copy CRC CF85278C
Track not present in AccurateRip database
Copy OK

Track 18

Filename E:\CDRips\18 - Serge Reggiani - Et Puis [1968].wav

Pre-gap length 0:00:02.00

Peak level 70.4 %
Extraction speed 3.9 X
Track quality 100.0 %
Test CRC AA1459A4
Copy CRC AA1459A4
Track not present in AccurateRip database
Copy OK

Track 19

Filename E:\CDRips\19 - Jacques Dutronc - Il Est Cinq Heures Paris s'Éveille [1967].wav

Pre-gap length 0:00:02.00

Peak level 62.8 %
Extraction speed 3.9 X
Track quality 100.0 %
Test CRC 18EA47E2
Copy CRC 18EA47E2
Track not present in AccurateRip database
Copy OK

Track 20

Filename E:\CDRips\20 - Georges Moustaki - Le Métèque [1969].wav

Pre-gap length 0:00:02.00

Peak level 60.8 %
Extraction speed 3.8 X
Track quality 100.0 %
Test CRC 56867C15
Copy CRC 56867C15
Track not present in AccurateRip database
Copy OK


None of the tracks are present in the AccurateRip database

No errors occurred

End of status report

–– CUETools DB Plugin V2.1.3

[CTDB TOCID: qS0vWOVAwwdpV_QRXn.20p9NNtc-] disk not present in database, Submit result: qS0vWOVAwwdpV_QRXn.20p9NNtc- has been uploaded


==== Log checksum 5D0E1AC03E80A53D06FE1EFFB5F23D1EBF199A3C34C39CE9ABCB4395CE88CBE6 ====

Exact Audio Copy V1.0 beta 3 from 29. August 2011

EAC extraction logfile from 17. September 2013, 6:48

Various Artists / 100x Vive La France (2013) CD3

Used drive : hp CDDVDW TS-L633N Adapter: 0 ID: 1

Read mode : Secure
Utilize accurate stream : Yes
Defeat audio cache : Yes
Make use of C2 pointers : No

Read offset correction : 6
Overread into Lead-In and Lead-Out : No
Fill up missing offset samples with silence : Yes
Delete leading and trailing silent blocks : No
Null samples used in CRC calculations : Yes
Used interface : Native Win32 interface for Win NT & 2000
Gap handling : Appended to previous track

Used output format : User Defined Encoder
Selected bitrate : 1024 kBit/s
Quality : High
Add ID3 tag : No
Command line compressor : C:\Program Files (x86)\Exact Audio Copy\Flac\flac.exe
Additional command line options : -8 -V -T "ARTIST=%artist%" -T "TITLE=%title%" -T "ALBUM=%albumtitle%" -T "DATE=%year%" -T "TRACKNUMBER=%tracknr%" -T "GENRE=%genre%" -T "PERFORMER=%albuminterpret%" -T "COMPOSER=%composer%" %haslyrics%–tag-from-file=LYRICS="%lyricsfile%"%haslyrics% -T "ALBUMARTIST=%albumartist%" -T "DISCNUMBER=%cdnumber%" -T "TOTALDISCS=%totalcds%" -T "TOTALTRACKS=%numtracks%" -T "COMMENT=%comment%" %source% -o %dest%


TOC of the extracted CD

Track | Start | Length | Start sector | End sector
––––––––––––––––––––––––––––-
1 | 0:00.00 | 2:43.42 | 0 | 12266
2 | 2:43.42 | 4:22.12 | 12267 | 31928
3 | 7:05.54 | 3:28.55 | 31929 | 47583
4 | 10:34.34 | 3:02.15 | 47584 | 61248
5 | 13:36.49 | 2:53.37 | 61249 | 74260
6 | 16:30.11 | 2:22.00 | 74261 | 84910
7 | 18:52.11 | 3:20.67 | 84911 | 99977
8 | 22:13.03 | 3:17.31 | 99978 | 114783
9 | 25:30.34 | 3:23.13 | 114784 | 130021
10 | 28:53.47 | 3:10.05 | 130022 | 144276
11 | 32:03.52 | 3:14.40 | 144277 | 158866
12 | 35:18.17 | 3:06.22 | 158867 | 172838
13 | 38:24.39 | 3:31.69 | 172839 | 188732
14 | 41:56.33 | 5:21.64 | 188733 | 212871
15 | 47:18.22 | 2:51.57 | 212872 | 225753
16 | 50:10.04 | 4:11.51 | 225754 | 244629
17 | 54:21.55 | 4:05.35 | 244630 | 263039
18 | 58:27.15 | 4:12.72 | 263040 | 282011
19 | 62:40.12 | 3:20.34 | 282012 | 297045
20 | 66:00.46 | 2:39.65 | 297046 | 309035


Track 1

Filename E:\CDRips\01 - Frida Boccara - Un Jour Un Enfant [1969].wav

Pre-gap length 0:00:02.00

Peak level 61.9 %
Extraction speed 1.0 X
Track quality 100.0 %
Test CRC 304CFF2E
Copy CRC 304CFF2E
Track not present in AccurateRip database
Copy OK

Track 2

Filename E:\CDRips\02 - Jane Birkin & Serge Gainsbourg - Je t'Aime Moi Non Plus [1968].wav

Pre-gap length 0:00:02.00

Peak level 75.0 %
Extraction speed 1.2 X
Track quality 100.0 %
Test CRC C8E6438F
Copy CRC C8E6438F
Track not present in AccurateRip database
Copy OK

Track 3

Filename E:\CDRips\03 - Lenny Kuhr - Le Troubadour [1969].wav

Pre-gap length 0:00:02.00

Peak level 76.3 %
Extraction speed 1.2 X
Track quality 100.0 %
Test CRC 28045D62
Copy CRC 28045D62
Track not present in AccurateRip database
Copy OK

Track 4

Filename E:\CDRips\04 - Rika Zaraï - Alors Je Chante [1969].wav

Pre-gap length 0:00:02.00

Peak level 66.8 %
Extraction speed 1.3 X
Track quality 100.0 %
Test CRC 1FCB19FB
Copy CRC 1FCB19FB
Track not present in AccurateRip database
Copy OK

Track 5

Filename E:\CDRips\05 - David Alexandre Winter - Oh Lady Mary [1968].wav

Pre-gap length 0:00:02.00

Peak level 62.3 %
Extraction speed 1.3 X
Track quality 100.0 %
Test CRC 1948D960
Copy CRC 1948D960
Track not present in AccurateRip database
Copy OK

Track 6

Filename E:\CDRips\06 - Fairport Convention - Si Tu Dois Partir [1969].wav

Pre-gap length 0:00:02.00

Peak level 77.6 %
Extraction speed 1.3 X
Track quality 100.0 %
Test CRC 4908C225
Copy CRC 4908C225
Track not present in AccurateRip database
Copy OK

Track 7

Filename E:\CDRips\07 - Enrico Macias - La Romance [1970].wav

Pre-gap length 0:00:02.00

Peak level 78.0 %
Extraction speed 1.5 X
Track quality 100.0 %
Test CRC 9D71C307
Copy CRC 9D71C307
Track not present in AccurateRip database
Copy OK

Track 8

Filename E:\CDRips\08 - Marc Hamilton - Comme J'ai Toujours Envie d'Aimer [1970].wav

Pre-gap length 0:00:02.00

Peak level 62.9 %
Extraction speed 1.5 X
Track quality 100.0 %
Test CRC 8337E8BC
Copy CRC 8337E8BC
Track not present in AccurateRip database
Copy OK

Track 9

Filename E:\CDRips\09 - Michel Delpech - Pour Un Flirt [1971].wav

Pre-gap length 0:00:02.00

Peak level 73.8 %
Extraction speed 1.4 X
Track quality 99.9 %
Test CRC 4144DC72
Copy CRC 4144DC72
Track not present in AccurateRip database
Copy OK

Track 10

Filename E:\CDRips\10 - Poppys - Non Non Rien n'A Changé [1971].wav

Pre-gap length 0:00:02.00

Peak level 78.8 %
Extraction speed 1.7 X
Track quality 100.0 %
Test CRC 1247A825
Copy CRC 1247A825
Track not present in AccurateRip database
Copy OK

Track 11

Filename E:\CDRips\11 - Poppys - Isabelle Je t'Aime [1971].wav

Pre-gap length 0:00:02.00

Peak level 74.5 %
Extraction speed 1.5 X
Track quality 99.9 %
Test CRC B0F5C8A5
Copy CRC B0F5C8A5
Track not present in AccurateRip database
Copy OK

Track 12

Filename E:\CDRips\12 - Jimmy Frey - Une Rose Pour Sandra [1971].wav

Pre-gap length 0:00:02.00

Peak level 63.8 %
Extraction speed 1.8 X
Track quality 100.0 %
Test CRC 20AD2A77
Copy CRC 20AD2A77
Track not present in AccurateRip database
Copy OK

Track 13

Filename E:\CDRips\13 - Vicky Leandros - Après Toi [1972].wav

Pre-gap length 0:00:02.00

Peak level 79.9 %
Extraction speed 1.9 X
Track quality 100.0 %
Test CRC 75A37A62
Copy CRC 75A37A62
Track not present in AccurateRip database
Copy OK

Track 14

Filename E:\CDRips\14 - Mort Shuman - Le Lac Majeur [1972].wav

Pre-gap length 0:00:02.00

Peak level 76.8 %
Extraction speed 2.0 X
Track quality 100.0 %
Test CRC B6E9F78B
Copy CRC B6E9F78B
Track not present in AccurateRip database
Copy OK

Track 15

Filename E:\CDRips\15 - Pierre Groscolas - Lady Lay [1973].wav

Pre-gap length 0:00:02.00

Peak level 77.2 %
Extraction speed 1.9 X
Track quality 100.0 %
Test CRC 63526B2B
Copy CRC 63526B2B
Track not present in AccurateRip database
Copy OK

Track 16

Filename E:\CDRips\16 - Serge Lama - Je Suis Malade [1973].wav

Pre-gap length 0:00:02.00

Peak level 65.1 %
Extraction speed 1.9 X
Track quality 99.9 %
Test CRC 25911DCB
Copy CRC 25911DCB
Track not present in AccurateRip database
Copy OK

Track 17

Filename E:\CDRips\17 - Dalida & Alain Delon - Paroles Paroles [1973].wav

Pre-gap length 0:00:02.00

Peak level 68.3 %
Extraction speed 2.2 X
Track quality 100.0 %
Test CRC 6E18BE13
Copy CRC 6E18BE13
Track not present in AccurateRip database
Copy OK

Track 18

Filename E:\CDRips\18 - Michel Sardou - La Marche En Avant [1973].wav

Pre-gap length 0:00:02.00

Peak level 88.9 %
Extraction speed 1.9 X
Track quality 99.9 %
Test CRC E2BF1F33
Copy CRC E2BF1F33
Track not present in AccurateRip database
Copy OK

Track 19

Filename E:\CDRips\19 - Serge Gainsbourg - Je Suis Venu Te Dire Que Je m'En Vais [1973].wav

Pre-gap length 0:00:02.00

Peak level 62.3 %
Extraction speed 2.2 X
Track quality 100.0 %
Test CRC ED1C09D9
Copy CRC ED1C09D9
Track not present in AccurateRip database
Copy OK

Track 20

Filename E:\CDRips\20 - Anne-Marie David - Tu Te Reconnaîtras [1973].wav

Pre-gap length 0:00:02.00

Peak level 75.3 %
Extraction speed 2.1 X
Track quality 100.0 %
Test CRC 195DA55F
Copy CRC 195DA55F
Track not present in AccurateRip database
Copy OK


None of the tracks are present in the AccurateRip database

No errors occurred

End of status report

–– CUETools DB Plugin V2.1.3

[CTDB TOCID: eJVXDNLRBMz5EGR0LiuMXAScMME-] disk not present in database, Submit result: eJVXDNLRBMz5EGR0LiuMXAScMME- has been uploaded


==== Log checksum 9A9175F4AF607CF5BE45D77161461793101B89F8236AC78238651FFB01F33705 ====

Exact Audio Copy V1.0 beta 3 from 29. August 2011

EAC extraction logfile from 18. September 2013, 19:08

Various Artists / 100x Vive La France (2013) CD4

Used drive : hp CDDVDW TS-L633N Adapter: 0 ID: 1

Read mode : Secure
Utilize accurate stream : Yes
Defeat audio cache : Yes
Make use of C2 pointers : No

Read offset correction : 6
Overread into Lead-In and Lead-Out : No
Fill up missing offset samples with silence : Yes
Delete leading and trailing silent blocks : No
Null samples used in CRC calculations : Yes
Used interface : Native Win32 interface for Win NT & 2000
Gap handling : Appended to previous track

Used output format : User Defined Encoder
Selected bitrate : 1024 kBit/s
Quality : High
Add ID3 tag : No
Command line compressor : C:\Program Files (x86)\Exact Audio Copy\Flac\flac.exe
Additional command line options : -8 -V -T "ARTIST=%artist%" -T "TITLE=%title%" -T "ALBUM=%albumtitle%" -T "DATE=%year%" -T "TRACKNUMBER=%tracknr%" -T "GENRE=%genre%" -T "PERFORMER=%albuminterpret%" -T "COMPOSER=%composer%" %haslyrics%–tag-from-file=LYRICS="%lyricsfile%"%haslyrics% -T "ALBUMARTIST=%albumartist%" -T "DISCNUMBER=%cdnumber%" -T "TOTALDISCS=%totalcds%" -T "TOTALTRACKS=%numtracks%" -T "COMMENT=%comment%" %source% -o %dest%


TOC of the extracted CD

Track | Start | Length | Start sector | End sector
––––––––––––––––––––––––––––-
1 | 0:00.00 | 2:52.05 | 0 | 12904
2 | 2:52.05 | 3:01.64 | 12905 | 26543
3 | 5:53.69 | 3:19.22 | 26544 | 41490
4 | 9:13.16 | 2:43.48 | 41491 | 53763
5 | 11:56.64 | 3:35.47 | 53764 | 69935
6 | 15:32.36 | 4:21.28 | 69936 | 89538
7 | 19:53.64 | 2:28.19 | 89539 | 100657
8 | 22:22.08 | 2:28.45 | 100658 | 111802
9 | 24:50.53 | 3:13.26 | 111803 | 126303
10 | 28:04.04 | 3:34.41 | 126304 | 142394
11 | 31:38.45 | 3:05.13 | 142395 | 156282
12 | 34:43.58 | 1:55.37 | 156283 | 164944
13 | 36:39.20 | 2:56.28 | 164945 | 178172
14 | 39:35.48 | 3:52.20 | 178173 | 195592
15 | 43:27.68 | 3:04.41 | 195593 | 209433
16 | 46:32.34 | 4:13.16 | 209434 | 228424
17 | 50:45.50 | 5:59.52 | 228425 | 255401
18 | 56:45.27 | 3:39.05 | 255402 | 271831
19 | 60:24.32 | 4:22.27 | 271832 | 291508
20 | 64:46.59 | 3:46.09 | 291509 | 308467


Track 1

Filename E:\CDRips\01 - C Jérôme - C'est Moi [1974].wav

Pre-gap length 0:00:02.00

Peak level 70.7 %
Extraction speed 2.0 X
Track quality 100.0 %
Test CRC 7625234B
Copy CRC 7625234B
Track not present in AccurateRip database
Copy OK

Track 2

Filename E:\CDRips\02 - Michel Delpech - Le Chasseur (Les Oies Sauvages) [1974].wav

Pre-gap length 0:00:02.00

Peak level 69.4 %
Extraction speed 2.2 X
Track quality 100.0 %
Test CRC 091EF83E
Copy CRC 091EF83E
Track not present in AccurateRip database
Copy OK

Track 3

Filename E:\CDRips\03 - Mike Brant - C'est Comme Ça Que Je t'Aime [1974].wav

Pre-gap length 0:00:02.00

Peak level 54.3 %
Extraction speed 2.4 X
Track quality 100.0 %
Test CRC 88E14B82
Copy CRC 88E14B82
Track not present in AccurateRip database
Copy OK

Track 4

Filename E:\CDRips\04 - Jean-Michel Caradec - Ma Petite Fille De Rêve [1974].wav

Pre-gap length 0:00:02.00

Peak level 72.3 %
Extraction speed 1.8 X
Track quality 99.9 %
Test CRC A6613941
Copy CRC A6613941
Track not present in AccurateRip database
Copy OK

Track 5

Filename E:\CDRips\05 - Gérard Lenorman - La Ballade Des Gens Heureux [1975].wav

Pre-gap length 0:00:02.00

Peak level 71.3 %
Extraction speed 2.6 X
Track quality 100.0 %
Test CRC DBAB8635
Copy CRC DBAB8635
Track not present in AccurateRip database
Copy OK

Track 6

Filename E:\CDRips\06 - Alain Barrière & Noëlle Cordier - Tu t'En Vas [1974].wav

Pre-gap length 0:00:02.00

Peak level 69.2 %
Extraction speed 2.9 X
Track quality 100.0 %
Test CRC 901163DF
Copy CRC 901163DF
Track not present in AccurateRip database
Copy OK

Track 7

Filename E:\CDRips\07 - Catherine Ferry - 1 2 3 [1976].wav

Pre-gap length 0:00:02.00

Peak level 81.6 %
Extraction speed 2.7 X
Track quality 100.0 %
Test CRC C3062AFE
Copy CRC C3062AFE
Track not present in AccurateRip database
Copy OK

Track 8

Filename E:\CDRips\08 - Nana Mouskouri - Quand Tu Chantes [1976].wav

Pre-gap length 0:00:02.00

Peak level 78.6 %
Extraction speed 2.8 X
Track quality 100.0 %
Test CRC 8418843F
Copy CRC 8418843F
Track not present in AccurateRip database
Copy OK

Track 9

Filename E:\CDRips\09 - Nicole Rieu - Je m'Envole [1976].wav

Pre-gap length 0:00:02.00

Peak level 72.5 %
Extraction speed 3.0 X
Track quality 100.0 %
Test CRC D81062B8
Copy CRC D81062B8
Track not present in AccurateRip database
Copy OK

Track 10

Filename E:\CDRips\10 - Grace Jones - La Vie En Rose [1977].wav

Pre-gap length 0:00:02.00

Peak level 82.0 %
Extraction speed 3.2 X
Track quality 100.0 %
Test CRC 7B8C4AC6
Copy CRC 7B8C4AC6
Track not present in AccurateRip database
Copy OK

Track 11

Filename E:\CDRips\11 - Marie Myriam - L'Oiseau Et l'Enfant [1977].wav

Pre-gap length 0:00:02.00

Peak level 92.6 %
Extraction speed 3.3 X
Track quality 100.0 %
Test CRC 89E6BD04
Copy CRC 89E6BD04
Track not present in AccurateRip database
Copy OK

Track 12

Filename E:\CDRips\12 - Yves Duteil - Tarentelle [1977].wav

Pre-gap length 0:00:02.00

Peak level 70.8 %
Extraction speed 2.1 X
Track quality 99.9 %
Test CRC 0CEA797A
Copy CRC 0CEA797A
Track not present in AccurateRip database
Copy OK

Track 13

Filename E:\CDRips\13 - Plastic Bertrand - Ça Plane Pour Moi [1977].wav

Pre-gap length 0:00:02.00

Peak level 87.8 %
Extraction speed 3.4 X
Track quality 100.0 %
Test CRC 26433AA9
Copy CRC 26433AA9
Track not present in AccurateRip database
Copy OK

Track 14

Filename E:\CDRips\14 - Jacques Brel - Voir Un Ami Pleurer [1977].wav

Pre-gap length 0:00:02.00

Peak level 61.9 %
Extraction speed 3.6 X
Track quality 100.0 %
Test CRC F4088764
Copy CRC F4088764
Track not present in AccurateRip database
Copy OK

Track 15

Filename E:\CDRips\15 - Michèle Torr - Emmène-Moi Danser Ce Soir [1978].wav

Pre-gap length 0:00:02.00

Peak level 56.0 %
Extraction speed 3.6 X
Track quality 100.0 %
Test CRC 9BCEB3B6
Copy CRC 9BCEB3B6
Track not present in AccurateRip database
Copy OK

Track 16

Filename E:\CDRips\16 - Francis Lalanne - La Maison Du Bonheur [1979].wav

Pre-gap length 0:00:02.00

Peak level 48.7 %
Extraction speed 3.8 X
Track quality 100.0 %
Test CRC 71B52A3A
Copy CRC 71B52A3A
Track not present in AccurateRip database
Copy OK

Track 17

Filename E:\CDRips\17 - Michel Sardou - Les Lacs Du Connemara [1981].wav

Pre-gap length 0:00:02.00

Peak level 83.3 %
Extraction speed 4.2 X
Track quality 100.0 %
Test CRC ACD9DE87
Copy CRC ACD9DE87
Track not present in AccurateRip database
Copy OK

Track 18

Filename E:\CDRips\18 - Jo Lemaire & Flouze - Je Suis Venue Te Dire Que Je m'En Vais [1981].wav

Pre-gap length 0:00:02.00

Peak level 60.7 %
Extraction speed 4.0 X
Track quality 100.0 %
Test CRC DEFCFF92
Copy CRC DEFCFF92
Track not present in AccurateRip database
Copy OK

Track 19

Filename E:\CDRips\19 - Renaud - Dès Que Le Vent Soufflera [1983].wav

Pre-gap length 0:00:02.00

Peak level 69.1 %
Extraction speed 4.3 X
Track quality 100.0 %
Test CRC 69BB24AE
Copy CRC 69BB24AE
Track not present in AccurateRip database
Copy OK

Track 20

Filename E:\CDRips\20 - Viktor Lazlo - Pleurer Des Rivières [1985].wav

Pre-gap length 0:00:02.00

Peak level 69.6 %
Extraction speed 3.4 X
Track quality 99.9 %
Test CRC 19108DB6
Copy CRC 19108DB6
Track not present in AccurateRip database
Copy OK


None of the tracks are present in the AccurateRip database

No errors occurred

End of status report

–– CUETools DB Plugin V2.1.3

[CTDB TOCID: gF6yNN.EWPmRUwe9YHq.5Gh9K.Y-] disk not present in database, Submit result: gF6yNN.EWPmRUwe9YHq.5Gh9K.Y- has been uploaded


==== Log checksum C3DC3EF19CA8A76B21B4558F43DB2A141792223CD1CDEEEB698DD4B54ED853C8 ====

Exact Audio Copy V1.0 beta 3 from 29. August 2011

EAC extraction logfile from 18. September 2013, 22:05

Various Artists / 100x Vive La France (2013) CD5

Used drive : hp CDDVDW TS-L633N Adapter: 0 ID: 1

Read mode : Secure
Utilize accurate stream : Yes
Defeat audio cache : Yes
Make use of C2 pointers : No

Read offset correction : 6
Overread into Lead-In and Lead-Out : No
Fill up missing offset samples with silence : Yes
Delete leading and trailing silent blocks : No
Null samples used in CRC calculations : Yes
Used interface : Native Win32 interface for Win NT & 2000
Gap handling : Appended to previous track

Used output format : User Defined Encoder
Selected bitrate : 1024 kBit/s
Quality : High
Add ID3 tag : No
Command line compressor : C:\Program Files (x86)\Exact Audio Copy\Flac\flac.exe
Additional command line options : -8 -V -T "ARTIST=%artist%" -T "TITLE=%title%" -T "ALBUM=%albumtitle%" -T "DATE=%year%" -T "TRACKNUMBER=%tracknr%" -T "GENRE=%genre%" -T "PERFORMER=%albuminterpret%" -T "COMPOSER=%composer%" %haslyrics%–tag-from-file=LYRICS="%lyricsfile%"%haslyrics% -T "ALBUMARTIST=%albumartist%" -T "DISCNUMBER=%cdnumber%" -T "TOTALDISCS=%totalcds%" -T "TOTALTRACKS=%numtracks%" -T "COMMENT=%comment%" %source% -o %dest%


TOC of the extracted CD

Track | Start | Length | Start sector | End sector
––––––––––––––––––––––––––––-
1 | 0:00.00 | 4:21.18 | 0 | 19592
2 | 4:21.18 | 3:05.51 | 19593 | 33518
3 | 7:26.69 | 3:47.16 | 33519 | 50559
4 | 11:14.10 | 4:09.58 | 50560 | 69292
5 | 15:23.68 | 4:02.16 | 69293 | 87458
6 | 19:26.09 | 3:29.17 | 87459 | 103150
7 | 22:55.26 | 2:58.29 | 103151 | 116529
8 | 25:53.55 | 4:13.51 | 116530 | 135555
9 | 30:07.31 | 3:47.41 | 135556 | 152621
10 | 33:54.72 | 3:38.37 | 152622 | 169008
11 | 37:33.34 | 3:24.14 | 169009 | 184322
12 | 40:57.48 | 3:43.11 | 184323 | 201058
13 | 44:40.59 | 3:19.01 | 201059 | 215984
14 | 47:59.60 | 3:24.44 | 215985 | 231328
15 | 51:24.29 | 4:51.64 | 231329 | 253217
16 | 56:16.18 | 3:02.16 | 253218 | 266883
17 | 59:18.34 | 3:42.43 | 266884 | 283576
18 | 63:01.02 | 2:52.48 | 283577 | 296524
19 | 65:53.50 | 4:31.46 | 296525 | 316895
20 | 70:25.21 | 3:45.47 | 316896 | 333817


Track 1

Filename E:\CDRips\01 - Desireless - Voyage Voyage [1986].wav

Pre-gap length 0:00:02.00

Peak level 79.2 %
Extraction speed 1.0 X
Track quality 99.9 %
Test CRC 67D03C21
Copy CRC 67D03C21
Track not present in AccurateRip database
Copy OK

Track 2

Filename E:\CDRips\02 - Sandra Kim - J'aime La Vie [1986].wav

Pre-gap length 0:00:02.00

Peak level 68.9 %
Extraction speed 1.2 X
Track quality 100.0 %
Test CRC 09485AF5
Copy CRC 09485AF5
Track not present in AccurateRip database
Copy OK

Track 3

Filename E:\CDRips\03 - Patricia Kaas - Mademoiselle Chante Le Blues [1987].wav

Pre-gap length 0:00:02.00

Peak level 82.3 %
Extraction speed 1.3 X
Track quality 100.0 %
Test CRC 7981CBD0
Copy CRC 7981CBD0
Track not present in AccurateRip database
Copy OK

Track 4

Filename E:\CDRips\04 - Patricia Kaas - Mon Mec À Moi [1988].wav

Pre-gap length 0:00:02.00

Peak level 60.7 %
Extraction speed 1.5 X
Track quality 100.0 %
Test CRC CBB9E586
Copy CRC CBB9E586
Track not present in AccurateRip database
Copy OK

Track 5

Filename E:\CDRips\05 - François Feldman - Les Valses De Vienne [1989].wav

Pre-gap length 0:00:02.00

Peak level 58.9 %
Extraction speed 1.5 X
Track quality 100.0 %
Test CRC 54D12A5C
Copy CRC 54D12A5C
Track not present in AccurateRip database
Copy OK

Track 6

Filename E:\CDRips\06 - Pauline Ester - Oui Je l'Adore [1989].wav

Pre-gap length 0:00:02.00

Peak level 72.7 %
Extraction speed 1.6 X
Track quality 100.0 %
Test CRC F42C7A52
Copy CRC F42C7A52
Track not present in AccurateRip database
Copy OK

Track 7

Filename E:\CDRips\07 - Alain Bashung - Osez Joséphine [1991].wav

Pre-gap length 0:00:02.00

Peak level 67.7 %
Extraction speed 1.6 X
Track quality 100.0 %
Test CRC F79B764D
Copy CRC F79B764D
Track not present in AccurateRip database
Copy OK

Track 8

Filename E:\CDRips\08 - Khaled - Aïcha [1996].wav

Pre-gap length 0:00:02.00

Peak level 94.3 %
Extraction speed 1.8 X
Track quality 100.0 %
Test CRC CE3ACC93
Copy CRC CE3ACC93
Track not present in AccurateRip database
Copy OK

Track 9

Filename E:\CDRips\09 - Manau - La Tribu De Dana [1998].wav

Pre-gap length 0:00:02.00

Peak level 79.0 %
Extraction speed 1.8 X
Track quality 100.0 %
Test CRC B100D92F
Copy CRC B100D92F
Track not present in AccurateRip database
Copy OK

Track 10

Filename E:\CDRips\10 - In-Grid - Tu Es Foutu [2001].wav

Pre-gap length 0:00:02.00

Peak level 66.0 %
Extraction speed 1.9 X
Track quality 100.0 %
Test CRC 7BD7161C
Copy CRC 7BD7161C
Track not present in AccurateRip database
Copy OK

Track 11

Filename E:\CDRips\11 - Calogero - En Apesanteur [2002].wav

Pre-gap length 0:00:02.00

Peak level 59.0 %
Extraction speed 1.6 X
Track quality 99.9 %
Test CRC 931E2EF8
Copy CRC 931E2EF8
Track not present in AccurateRip database
Copy OK

Track 12

Filename E:\CDRips\12 - Mickey 3D - Respire [2002].wav

Pre-gap length 0:00:02.00

Peak level 94.4 %
Extraction speed 2.0 X
Track quality 100.0 %
Test CRC 470458BE
Copy CRC 470458BE
Track not present in AccurateRip database
Copy OK

Track 13

Filename E:\CDRips\13 - Chimène Badi - Entre Nous [2003].wav

Pre-gap length 0:00:02.00

Peak level 65.0 %
Extraction speed 2.0 X
Track quality 100.0 %
Test CRC A42EF1F5
Copy CRC A42EF1F5
Track not present in AccurateRip database
Copy OK

Track 14

Filename E:\CDRips\14 - Florent Pagny - Ma Liberté De Penser [2003].wav

Pre-gap length 0:00:02.00

Peak level 79.0 %
Extraction speed 2.1 X
Track quality 100.0 %
Test CRC 240CA272
Copy CRC 240CA272
Track not present in AccurateRip database
Copy OK

Track 15

Filename E:\CDRips\15 - Benjamin Biolay - Chaise À Tokyo [2003].wav

Pre-gap length 0:00:02.00

Peak level 67.3 %
Extraction speed 2.0 X
Track quality 99.9 %
Test CRC 3F5EDCF3
Copy CRC 3F5EDCF3
Track not present in AccurateRip database
Copy OK

Track 16

Filename E:\CDRips\16 - Kate Ryan - Ella Elle l'A [2008].wav

Pre-gap length 0:00:02.00

Peak level 60.1 %
Extraction speed 2.1 X
Track quality 100.0 %
Test CRC 704FB4F8
Copy CRC 704FB4F8
Track not present in AccurateRip database
Copy OK

Track 17

Filename E:\CDRips\17 - Ben L'Oncle Soul - Soulman [2010].wav

Pre-gap length 0:00:02.00

Peak level 89.6 %
Extraction speed 2.3 X
Track quality 100.0 %
Test CRC 90FE8633
Copy CRC 90FE8633
Track not present in AccurateRip database
Copy OK

Track 18

Filename E:\CDRips\18 - Berry - Les Passagers [2012].wav

Pre-gap length 0:00:02.00

Peak level 86.3 %
Extraction speed 1.9 X
Track quality 99.9 %
Test CRC 64CD2597
Copy CRC 64CD2597
Track not present in AccurateRip database
Copy OK

Track 19

Filename E:\CDRips\19 - Scarlett Johansson & Lulu Gainsbourg - Bonnie And Clyde [2011].wav

Pre-gap length 0:00:02.00

Peak level 85.8 %
Extraction speed 2.4 X
Track quality 100.0 %
Test CRC 6D72B4B5
Copy CRC 6D72B4B5
Track not present in AccurateRip database
Copy OK

Track 20

Filename E:\CDRips\20 - Berry - Si Souvent [2012].wav

Pre-gap length 0:00:02.00

Peak level 80.6 %
Extraction speed 2.4 X
Track quality 100.0 %
Test CRC 622206A2
Copy CRC 622206A2
Track not present in AccurateRip database
Copy OK


None of the tracks are present in the AccurateRip database

No errors occurred

End of status report

–– CUETools DB Plugin V2.1.3

[CTDB TOCID: l123cZCWLaHQb2MGH6qqRHLAq8g-] disk not present in database, Submit result: l123cZCWLaHQb2MGH6qqRHLAq8g- has been uploaded


==== Log checksum 97A9B8743C9F5A54FD4F0838B302C17B8395704D89725F1AFE80E0BD166AE0B0 ====

Thanks to the Original ripper StefMir !