Tags
Language
Tags
December 2022
Su Mo Tu We Th Fr Sa
27 28 29 30 1 2 3
4 5 6 7 8 9 10
11 12 13 14 15 16 17
18 19 20 21 22 23 24
25 26 27 28 29 30 31

VA - Blowing Free: Underground and Progressive Sounds Of 1972 (2022)

Posted By: delpotro
VA - Blowing Free: Underground and Progressive Sounds Of 1972 (2022)

VA - Blowing Free: Underground and Progressive Sounds Of 1972 (2022)
EAC Rip | FLAC (tracks+log+.cue) - 1,87 Gb | MP3 CBR 320 kbps - 725 Mb | 05:14:48
Progressive Rock, Psychedelic Rock | Label: Cherry Red Records, Esoteric Recordings

A New 4 CD Remastered Clamshell Various Artists Boxed Set Celebrating The Finest Sounds Of The So-Called "Underground" And Progressive Rock Music Of 1972. Five Hours Of Music Featuring Tracks By Atomic Rooster, Barclay James Harvest, Edgar Broughton Band, Caravan, Curved Air, Emerson Lake And Palmer, Family, Free, Gentle Giant, Hawkwind, Help Yourself, Khan, Lindisfarne, Man, Matching Mole, Nektar, Pretty Things, Procol Harum, Nektar, Rare Bird, Al Stewart, Ten Years After, Thin Lizzy, Uriah Heep, Van Der Graaf Generator, Vinegar Joe, Wishbone Ash, Yes And Many More. The next release in their series of compilations celebrating the so-called "underground" rock music - 'Blowing Free - Underground And Progressive Sounds Of 1972', is a 4CD clamshell box set which gathers together over five hours of music from 1972, a momentous year in rock music and one which would continue to see Progressive music in all it's forms become a dominating force with the album buying public. Much of this music appeared on the "progressive" imprints of major record labels such as EMI's Harvest, Decca's Deram and Philips Records' Vertigo and the emerging independent labels such as Charisma, United Artists and Island Records and led to an increasied presence of underground album music on BBC Radio One with it's Sounds Of The Seventies and Top Gear programmes. On television the iconic series The Old Grey Whistle Test would be a major contributor to the success of many of these musicians.

1972 saw a wealth of imaginative artists continue to meld seemingly disparate musical genres and influences such as Jazz, Blues, Folk, Rock and Classical music on a host of wonderful albums, all of which appealed to an audience of students and followers of the “underground’ culture. Universities and Colleges were regular venues on the burgeoning live music circuit in the UK for these artists, most of whom earned loyal followings through regular concert performances both in Britain and in Europe. It was also a year when many of these performers gained commercial success with acts such as Family, Free, Hawkwind and Thin Lizzy enjoying singles chart success while Emerson, Lake And Palmer, Procol Harum, Ten Years After, Uriah heep, Wishbone Ash and Yes would enjoy considerable album chart success in the UK, USA and Europe.
Tracklist:
CD1
01. Emerson Lake & Palmer - Hoedown (3:46)
02. Atomic Rooster - Time Take My Life (6:02)
03. Edgar Broughton Band - Get Out of Bed (3:43)
04. Barclay James Harvest - Medicine Man (4:29)
05. Curved Air - Marie Antoinette (6:22)
06. Skin Alley - Serenade (3:44)
07. Open Road - Swamp Fever (3:40)
08. Lindisfarne - Dont Ask Me (3:32)
09. Al Stewart - Songs Out of Clay (4:17)
10. Mellow Candle - Sheep Season (5:02)
11. Rare Bird - Epic Forest (9:14)
12. Family - My Friend the Sun (4:21)
13. Nektar - Do You Believe in Magic (Single Version) (3:53)
14. Hawkwind - Seven By Seven (Single Version) (5:23)
15. Yes - And You and I (10:06)

CD2
01. Wishbone Ash - Time Was (9:47)
02. Jade Warrior - A Winters Tale (5:14)
03. Caravan - The Love in Your Eye (12:32)
04. Hawkwind - Brainstorm (11:33)
05. Van Der Graaf Generator - Theme One (2:56)
06. Help Yourself - Reaffirmation (12:36)
07. Family - Burlesque (4:05)
08. Matching Mole - O Caroline (5:08)
09. Procol Harum - Conquistor (4:17)
10. Bond and Brown - Lost Tribe (3:53)
11. Vinegar Joe - Speed Queen of Ventura (4:14)
12. Free - Wishing Well (3:40)

CD3
01. Uriah Heep - The Wizard (3:02)
02. Renaissance - Prologue (5:40)
03. Edgar Broughton Band - Chilly Morning Mama (4:34)
04. Help Yourself - American Mother (7:47)
05. Pretty Things - Love Is Good (6:52)
06. Rare Bird - Turn It All Around (4:44)
07. Wishbone Ash - Blowin Free (5:20)
08. Man - Bananas (9:27)
09. Dave Cousins - Blue Angels (9:51)
10. Vinegar Joe - See the World (Through My Eyes) (6:22)
11. Jade Warrior - Lady of the Lake (3:22)
12. Khan - Stranded (5:55)
13. Thin Lizzy - Whiskey in the Jar (5:44)

CD4
01. Dave Cousins - Two Weeks Last Summer (3:08)
02. Skin Alley - Nicks Seven (5:02)
03. Ten Years After - Choo Choo Mama (4:01)
04. Savoy Brown - Hellbound Train (9:12)
05. Pretty Things - Peter (1:27)
06. Pretty Things - Rip Off Train (3:20)
07. Matching Mole - Instant Kitten (5:01)
08. Gentle Giant - The Boys in the Band (4:35)
09. The Sensational Alex Harvey Band - Midnight Moses (4:27)
10. Pink Fairies - Walk Dont Run (9:13)
11. Jonesy - Ricochet (5:01)
12. Bombadil - When the City Sleeps (4:13)
13. Nektar - Desolation Valley (8:14)
14. Curved Air - Melinda More Or Less (3:27)
15. Khan - Hollow Stone (8:19)

Exact Audio Copy V1.2 from 12. August 2016

EAC extraction logfile from 25. June 2022, 14:06

Various Artists / Blowing Free CD1

Used drive : HL-DT-STDVD+-RW GU90N Adapter: 1 ID: 1

Read mode : Secure
Utilize accurate stream : Yes
Defeat audio cache : Yes
Make use of C2 pointers : No

Read offset correction : 102
Overread into Lead-In and Lead-Out : No
Fill up missing offset samples with silence : Yes
Delete leading and trailing silent blocks : No
Null samples used in CRC calculations : Yes
Used interface : Native Win32 interface for Win NT & 2000
Gap handling : Appended to previous track

Used output format : User Defined Encoder
Selected bitrate : 1024 kBit/s
Quality : High
Add ID3 tag : No
Command line compressor : C:\Program Files (x86)\Exact Audio Copy\Flac\flac.exe
Additional command line options : -8 -V -T "ARTIST=%artist%" -T "TITLE=%title%" -T "ALBUM=%albumtitle%" -T "DATE=%year%" -T "TRACKNUMBER=%tracknr%" -T "GENRE=%genre%" -T "PERFORMER=%albuminterpret%" -T "COMPOSER=%composer%" %haslyrics%–tag-from-file=LYRICS="%lyricsfile%"%haslyrics% -T "ALBUMARTIST=%albumartist%" -T "DISCNUMBER=%cdnumber%" -T "TOTALDISCS=%totalcds%" -T "TOTALTRACKS=%numtracks%" -T "COMMENT=%comment%" %source% -o %dest%


TOC of the extracted CD

Track | Start | Length | Start sector | End sector
––––––––––––––––––––––––––––-
1 | 0:00.00 | 3:46.35 | 0 | 16984
2 | 3:46.35 | 6:01.56 | 16985 | 44115
3 | 9:48.16 | 3:43.33 | 44116 | 60873
4 | 13:31.49 | 4:28.59 | 60874 | 81032
5 | 18:00.33 | 6:21.65 | 81033 | 109672
6 | 24:22.23 | 3:44.34 | 109673 | 126506
7 | 28:06.57 | 3:39.62 | 126507 | 142993
8 | 31:46.44 | 3:31.46 | 142994 | 158864
9 | 35:18.15 | 4:16.51 | 158865 | 178115
10 | 39:34.66 | 5:02.26 | 178116 | 200791
11 | 44:37.17 | 9:14.15 | 200792 | 242356
12 | 53:51.32 | 4:20.65 | 242357 | 261921
13 | 58:12.22 | 3:52.68 | 261922 | 279389
14 | 62:05.15 | 5:23.10 | 279390 | 303624
15 | 67:28.25 | 10:05.45 | 303625 | 349044


Track 1

Filename C:\Users\ian\Desktop\VA - Blowing Free - Underground and Progressive Sounds Of 1972 (2022) [FLAC] {4CD}\Blowing Free CD1\01 - Emerson Lake & Palmer - Hoedown.wav

Pre-gap length 0:00:02.00

Peak level 98.8 %
Extraction speed 1.2 X
Track quality 100.0 %
Test CRC 253F0EA4
Copy CRC 253F0EA4
Copy OK

Track 2

Filename C:\Users\ian\Desktop\VA - Blowing Free - Underground and Progressive Sounds Of 1972 (2022) [FLAC] {4CD}\Blowing Free CD1\02 - Atomic Rooster - Time Take My Life.wav

Peak level 98.8 %
Extraction speed 1.5 X
Track quality 100.0 %
Test CRC 453126AE
Copy CRC 453126AE
Copy OK

Track 3

Filename C:\Users\ian\Desktop\VA - Blowing Free - Underground and Progressive Sounds Of 1972 (2022) [FLAC] {4CD}\Blowing Free CD1\03 - Edgar Broughton Band - Get Out of Bed.wav

Peak level 98.8 %
Extraction speed 1.3 X
Track quality 99.9 %
Test CRC 13B907F4
Copy CRC 13B907F4
Copy OK

Track 4

Filename C:\Users\ian\Desktop\VA - Blowing Free - Underground and Progressive Sounds Of 1972 (2022) [FLAC] {4CD}\Blowing Free CD1\04 - Barclay James Harvest - Medicine Man.wav

Peak level 98.8 %
Extraction speed 1.6 X
Track quality 100.0 %
Test CRC 47613FA5
Copy CRC 47613FA5
Copy OK

Track 5

Filename C:\Users\ian\Desktop\VA - Blowing Free - Underground and Progressive Sounds Of 1972 (2022) [FLAC] {4CD}\Blowing Free CD1\05 - Curved Air - Marie Antoinette.wav

Peak level 98.8 %
Extraction speed 1.8 X
Track quality 100.0 %
Test CRC 43897FD9
Copy CRC 43897FD9
Copy OK

Track 6

Filename C:\Users\ian\Desktop\VA - Blowing Free - Underground and Progressive Sounds Of 1972 (2022) [FLAC] {4CD}\Blowing Free CD1\06 - Skin Alley - Serenade.wav

Peak level 98.8 %
Extraction speed 1.6 X
Track quality 99.9 %
Test CRC E6881570
Copy CRC E6881570
Copy OK

Track 7

Filename C:\Users\ian\Desktop\VA - Blowing Free - Underground and Progressive Sounds Of 1972 (2022) [FLAC] {4CD}\Blowing Free CD1\07 - Open Road - Swamp Fever.wav

Peak level 98.8 %
Extraction speed 1.8 X
Track quality 100.0 %
Test CRC F714E739
Copy CRC F714E739
Copy OK

Track 8

Filename C:\Users\ian\Desktop\VA - Blowing Free - Underground and Progressive Sounds Of 1972 (2022) [FLAC] {4CD}\Blowing Free CD1\08 - Lindisfarne - Dont Ask Me.wav

Peak level 98.8 %
Extraction speed 1.9 X
Track quality 100.0 %
Test CRC 5D2A6B51
Copy CRC 5D2A6B51
Copy OK

Track 9

Filename C:\Users\ian\Desktop\VA - Blowing Free - Underground and Progressive Sounds Of 1972 (2022) [FLAC] {4CD}\Blowing Free CD1\09 - Al Stewart - Songs Out of Clay.wav

Peak level 98.8 %
Extraction speed 2.1 X
Track quality 100.0 %
Test CRC 7FF66B66
Copy CRC 7FF66B66
Copy OK

Track 10

Filename C:\Users\ian\Desktop\VA - Blowing Free - Underground and Progressive Sounds Of 1972 (2022) [FLAC] {4CD}\Blowing Free CD1\10 - Mellow Candle - Sheep Season.wav

Peak level 98.8 %
Extraction speed 2.3 X
Track quality 100.0 %
Test CRC 12B4D08C
Copy CRC 12B4D08C
Copy OK

Track 11

Filename C:\Users\ian\Desktop\VA - Blowing Free - Underground and Progressive Sounds Of 1972 (2022) [FLAC] {4CD}\Blowing Free CD1\11 - Rare Bird - Epic Forest.wav

Peak level 98.8 %
Extraction speed 2.5 X
Track quality 100.0 %
Test CRC BF4A65D7
Copy CRC BF4A65D7
Copy OK

Track 12

Filename C:\Users\ian\Desktop\VA - Blowing Free - Underground and Progressive Sounds Of 1972 (2022) [FLAC] {4CD}\Blowing Free CD1\12 - Family - My Friend the Sun.wav

Peak level 98.8 %
Extraction speed 2.5 X
Track quality 100.0 %
Test CRC CE255F19
Copy CRC CE255F19
Copy OK

Track 13

Filename C:\Users\ian\Desktop\VA - Blowing Free - Underground and Progressive Sounds Of 1972 (2022) [FLAC] {4CD}\Blowing Free CD1\13 - Nektar - Do You Believe in Magic (Single Version).wav

Peak level 98.8 %
Extraction speed 2.5 X
Track quality 100.0 %
Test CRC EE7A350E
Copy CRC EE7A350E
Copy OK

Track 14

Filename C:\Users\ian\Desktop\VA - Blowing Free - Underground and Progressive Sounds Of 1972 (2022) [FLAC] {4CD}\Blowing Free CD1\14 - Hawkwind - Seven By Seven (Single Version).wav

Peak level 98.8 %
Extraction speed 2.7 X
Track quality 100.0 %
Test CRC 6CB3C009
Copy CRC 6CB3C009
Copy OK

Track 15

Filename C:\Users\ian\Desktop\VA - Blowing Free - Underground and Progressive Sounds Of 1972 (2022) [FLAC] {4CD}\Blowing Free CD1\15 - Yes - And You and I.wav

Peak level 98.8 %
Extraction speed 2.7 X
Track quality 100.0 %
Test CRC CEB5BC8C
Copy CRC CEB5BC8C
Copy OK

No errors occurred

End of status report

–– CUETools DB Plugin V2.1.6

[CTDB TOCID: xGCItkuh6.b97b92vuqGDmPqXwk-] found
Submit result: xGCItkuh6.b97b92vuqGDmPqXwk- has been confirmed
Track | CTDB Status
1 | (1/1) Accurately ripped
2 | (1/1) Accurately ripped
3 | (1/1) Accurately ripped
4 | (1/1) Accurately ripped
5 | (1/1) Accurately ripped
6 | (1/1) Accurately ripped
7 | (1/1) Accurately ripped
8 | (1/1) Accurately ripped
9 | (1/1) Accurately ripped
10 | (1/1) Accurately ripped
11 | (1/1) Accurately ripped
12 | (1/1) Accurately ripped
13 | (1/1) Accurately ripped
14 | (1/1) Accurately ripped
15 | (1/1) Accurately ripped


==== Log checksum FD8D4FBD5B3A55A7107555326DE64812F9DBCF7FADA51B2304E1BE058A62F06D ====

––-

Exact Audio Copy V1.2 from 12. August 2016

EAC extraction logfile from 25. June 2022, 15:29

Various Artists / Blowing Free CD2

Used drive : HL-DT-STDVD+-RW GU90N Adapter: 1 ID: 1

Read mode : Secure
Utilize accurate stream : Yes
Defeat audio cache : Yes
Make use of C2 pointers : No

Read offset correction : 102
Overread into Lead-In and Lead-Out : No
Fill up missing offset samples with silence : Yes
Delete leading and trailing silent blocks : No
Null samples used in CRC calculations : Yes
Used interface : Native Win32 interface for Win NT & 2000
Gap handling : Appended to previous track

Used output format : User Defined Encoder
Selected bitrate : 1024 kBit/s
Quality : High
Add ID3 tag : No
Command line compressor : C:\Program Files (x86)\Exact Audio Copy\Flac\flac.exe
Additional command line options : -8 -V -T "ARTIST=%artist%" -T "TITLE=%title%" -T "ALBUM=%albumtitle%" -T "DATE=%year%" -T "TRACKNUMBER=%tracknr%" -T "GENRE=%genre%" -T "PERFORMER=%albuminterpret%" -T "COMPOSER=%composer%" %haslyrics%–tag-from-file=LYRICS="%lyricsfile%"%haslyrics% -T "ALBUMARTIST=%albumartist%" -T "DISCNUMBER=%cdnumber%" -T "TOTALDISCS=%totalcds%" -T "TOTALTRACKS=%numtracks%" -T "COMMENT=%comment%" %source% -o %dest%


TOC of the extracted CD

Track | Start | Length | Start sector | End sector
––––––––––––––––––––––––––––-
1 | 0:00.00 | 9:46.50 | 0 | 43999
2 | 9:46.50 | 5:13.74 | 44000 | 67548
3 | 15:00.49 | 12:32.07 | 67549 | 123955
4 | 27:32.56 | 11:33.21 | 123956 | 175951
5 | 39:06.02 | 2:55.53 | 175952 | 189129
6 | 42:01.55 | 12:36.13 | 189130 | 245842
7 | 54:37.68 | 4:04.38 | 245843 | 264180
8 | 58:42.31 | 5:07.44 | 264181 | 287249
9 | 63:50.00 | 4:16.55 | 287250 | 306504
10 | 68:06.55 | 3:53.17 | 306505 | 323996
11 | 71:59.72 | 4:14.06 | 323997 | 343052
12 | 76:14.03 | 3:39.65 | 343053 | 359542


Track 1

Filename C:\Users\ian\Desktop\VA - Blowing Free - Underground and Progressive Sounds Of 1972 (2022) [FLAC] {4CD}\Blowing Free CD2\01 - Wishbone Ash - Time Was.wav

Pre-gap length 0:00:02.00

Peak level 98.8 %
Extraction speed 1.5 X
Track quality 100.0 %
Test CRC 007E5A32
Copy CRC 007E5A32
Copy OK

Track 2

Filename C:\Users\ian\Desktop\VA - Blowing Free - Underground and Progressive Sounds Of 1972 (2022) [FLAC] {4CD}\Blowing Free CD2\02 - Jade Warrior - A Winters Tale.wav

Peak level 92.4 %
Extraction speed 1.6 X
Track quality 100.0 %
Test CRC 20F59C5F
Copy CRC 20F59C5F
Copy OK

Track 3

Filename C:\Users\ian\Desktop\VA - Blowing Free - Underground and Progressive Sounds Of 1972 (2022) [FLAC] {4CD}\Blowing Free CD2\03 - Caravan - The Love in Your Eye.wav

Peak level 98.8 %
Extraction speed 1.9 X
Track quality 100.0 %
Test CRC 3C31CD2F
Copy CRC 3C31CD2F
Copy OK

Track 4

Filename C:\Users\ian\Desktop\VA - Blowing Free - Underground and Progressive Sounds Of 1972 (2022) [FLAC] {4CD}\Blowing Free CD2\04 - Hawkwind - Brainstorm.wav

Peak level 98.8 %
Extraction speed 2.2 X
Track quality 100.0 %
Test CRC 4A53B154
Copy CRC 4A53B154
Copy OK

Track 5

Filename C:\Users\ian\Desktop\VA - Blowing Free - Underground and Progressive Sounds Of 1972 (2022) [FLAC] {4CD}\Blowing Free CD2\05 - Van Der Graaf Generator - Theme One.wav

Peak level 98.8 %
Extraction speed 2.1 X
Track quality 100.0 %
Test CRC BCEFEA50
Copy CRC BCEFEA50
Copy OK

Track 6

Filename C:\Users\ian\Desktop\VA - Blowing Free - Underground and Progressive Sounds Of 1972 (2022) [FLAC] {4CD}\Blowing Free CD2\06 - Help Yourself - Reaffirmation.wav

Peak level 98.8 %
Extraction speed 2.5 X
Track quality 100.0 %
Test CRC 9C680BE4
Copy CRC 9C680BE4
Copy OK

Track 7

Filename C:\Users\ian\Desktop\VA - Blowing Free - Underground and Progressive Sounds Of 1972 (2022) [FLAC] {4CD}\Blowing Free CD2\07 - Family - Burlesque.wav

Peak level 98.8 %
Extraction speed 2.5 X
Track quality 100.0 %
Test CRC 909FEEE6
Copy CRC 909FEEE6
Copy OK

Track 8

Filename C:\Users\ian\Desktop\VA - Blowing Free - Underground and Progressive Sounds Of 1972 (2022) [FLAC] {4CD}\Blowing Free CD2\08 - Matching Mole - O Caroline.wav

Peak level 64.5 %
Extraction speed 2.6 X
Track quality 100.0 %
Test CRC 0C9A9576
Copy CRC 0C9A9576
Copy OK

Track 9

Filename C:\Users\ian\Desktop\VA - Blowing Free - Underground and Progressive Sounds Of 1972 (2022) [FLAC] {4CD}\Blowing Free CD2\09 - Procol Harum - Conquistor.wav

Peak level 98.8 %
Extraction speed 2.6 X
Track quality 100.0 %
Test CRC AA6E131E
Copy CRC AA6E131E
Copy OK

Track 10

Filename C:\Users\ian\Desktop\VA - Blowing Free - Underground and Progressive Sounds Of 1972 (2022) [FLAC] {4CD}\Blowing Free CD2\10 - Bond and Brown - Lost Tribe.wav

Peak level 98.8 %
Extraction speed 2.6 X
Track quality 100.0 %
Test CRC 1FBC040C
Copy CRC 1FBC040C
Copy OK

Track 11

Filename C:\Users\ian\Desktop\VA - Blowing Free - Underground and Progressive Sounds Of 1972 (2022) [FLAC] {4CD}\Blowing Free CD2\11 - Vinegar Joe - Speed Queen of Ventura.wav

Peak level 98.8 %
Extraction speed 2.7 X
Track quality 100.0 %
Test CRC 34CB2BB9
Copy CRC 34CB2BB9
Copy OK

Track 12

Filename C:\Users\ian\Desktop\VA - Blowing Free - Underground and Progressive Sounds Of 1972 (2022) [FLAC] {4CD}\Blowing Free CD2\12 - Free - Wishing Well.wav

Peak level 98.8 %
Extraction speed 2.7 X
Track quality 100.0 %
Test CRC 5CF9DBFB
Copy CRC 5CF9DBFB
Copy OK

No errors occurred

End of status report

–– CUETools DB Plugin V2.1.6

[CTDB TOCID: 5aUbmw5J0bMGde1tjs0H6OWI90M-] found
Submit result: 5aUbmw5J0bMGde1tjs0H6OWI90M- has been confirmed
Track | CTDB Status
1 | (1/1) Accurately ripped
2 | (1/1) Accurately ripped
3 | (1/1) Accurately ripped
4 | (1/1) Accurately ripped
5 | (1/1) Accurately ripped
6 | (1/1) Accurately ripped
7 | (1/1) Accurately ripped
8 | (1/1) Accurately ripped
9 | (1/1) Accurately ripped
10 | (1/1) Accurately ripped
11 | (1/1) Accurately ripped
12 | (1/1) Accurately ripped


==== Log checksum 195637242BBAE3B0916A897F65DC1076A14594A2509F9A76D6A30B5E7E5C5E1D ====


––-

Exact Audio Copy V1.2 from 12. August 2016

EAC extraction logfile from 25. June 2022, 17:02

Various Artists / Blowing Free CD3

Used drive : HL-DT-STDVD+-RW GU90N Adapter: 1 ID: 1

Read mode : Secure
Utilize accurate stream : Yes
Defeat audio cache : Yes
Make use of C2 pointers : No

Read offset correction : 102
Overread into Lead-In and Lead-Out : No
Fill up missing offset samples with silence : Yes
Delete leading and trailing silent blocks : No
Null samples used in CRC calculations : Yes
Used interface : Native Win32 interface for Win NT & 2000
Gap handling : Appended to previous track

Used output format : User Defined Encoder
Selected bitrate : 1024 kBit/s
Quality : High
Add ID3 tag : No
Command line compressor : C:\Program Files (x86)\Exact Audio Copy\Flac\flac.exe
Additional command line options : -8 -V -T "ARTIST=%artist%" -T "TITLE=%title%" -T "ALBUM=%albumtitle%" -T "DATE=%year%" -T "TRACKNUMBER=%tracknr%" -T "GENRE=%genre%" -T "PERFORMER=%albuminterpret%" -T "COMPOSER=%composer%" %haslyrics%–tag-from-file=LYRICS="%lyricsfile%"%haslyrics% -T "ALBUMARTIST=%albumartist%" -T "DISCNUMBER=%cdnumber%" -T "TOTALDISCS=%totalcds%" -T "TOTALTRACKS=%numtracks%" -T "COMMENT=%comment%" %source% -o %dest%


TOC of the extracted CD

Track | Start | Length | Start sector | End sector
––––––––––––––––––––––––––––-
1 | 0:00.00 | 3:02.09 | 0 | 13658
2 | 3:02.09 | 5:40.03 | 13659 | 39161
3 | 8:42.12 | 4:33.63 | 39162 | 59699
4 | 13:16.00 | 7:47.08 | 59700 | 94732
5 | 21:03.08 | 6:52.26 | 94733 | 125658
6 | 27:55.34 | 4:44.26 | 125659 | 146984
7 | 32:39.60 | 5:20.22 | 146985 | 171006
8 | 38:00.07 | 9:26.71 | 171007 | 213527
9 | 47:27.03 | 9:51.08 | 213528 | 257860
10 | 57:18.11 | 6:21.44 | 257861 | 286479
11 | 63:39.55 | 3:22.01 | 286480 | 301630
12 | 67:01.56 | 5:55.36 | 301631 | 328291
13 | 72:57.17 | 5:44.11 | 328292 | 354102


Track 1

Filename C:\Users\ian\Desktop\VA - Blowing Free - Underground and Progressive Sounds Of 1972 (2022) [FLAC] {4CD}\Blowing Free CD3\01 - Uriah Heep - The Wizard.wav

Pre-gap length 0:00:02.00

Peak level 98.8 %
Extraction speed 1.2 X
Track quality 100.0 %
Test CRC 97E7D61D
Copy CRC 97E7D61D
Copy OK

Track 2

Filename C:\Users\ian\Desktop\VA - Blowing Free - Underground and Progressive Sounds Of 1972 (2022) [FLAC] {4CD}\Blowing Free CD3\02 - Renaissance - Prologue.wav

Peak level 98.8 %
Extraction speed 1.5 X
Track quality 100.0 %
Test CRC 02363029
Copy CRC 02363029
Copy OK

Track 3

Filename C:\Users\ian\Desktop\VA - Blowing Free - Underground and Progressive Sounds Of 1972 (2022) [FLAC] {4CD}\Blowing Free CD3\03 - Edgar Broughton Band - Chilly Morning Mama.wav

Peak level 98.8 %
Extraction speed 1.6 X
Track quality 100.0 %
Test CRC 49A0B8EA
Copy CRC 49A0B8EA
Copy OK

Track 4

Filename C:\Users\ian\Desktop\VA - Blowing Free - Underground and Progressive Sounds Of 1972 (2022) [FLAC] {4CD}\Blowing Free CD3\04 - Help Yourself - American Mother.wav

Peak level 98.8 %
Extraction speed 1.7 X
Track quality 99.9 %
Test CRC D496CC91
Copy CRC D496CC91
Copy OK

Track 5

Filename C:\Users\ian\Desktop\VA - Blowing Free - Underground and Progressive Sounds Of 1972 (2022) [FLAC] {4CD}\Blowing Free CD3\05 - Pretty Things - Love Is Good.wav

Peak level 98.8 %
Extraction speed 1.8 X
Track quality 99.9 %
Test CRC 70788A40
Copy CRC 70788A40
Copy OK

Track 6

Filename C:\Users\ian\Desktop\VA - Blowing Free - Underground and Progressive Sounds Of 1972 (2022) [FLAC] {4CD}\Blowing Free CD3\06 - Rare Bird - Turn It All Around.wav

Peak level 98.8 %
Extraction speed 2.0 X
Track quality 100.0 %
Test CRC B107D7B9
Copy CRC B107D7B9
Copy OK

Track 7

Filename C:\Users\ian\Desktop\VA - Blowing Free - Underground and Progressive Sounds Of 1972 (2022) [FLAC] {4CD}\Blowing Free CD3\07 - Wishbone Ash - Blowin Free.wav

Peak level 98.8 %
Extraction speed 2.1 X
Track quality 100.0 %
Test CRC 4689B92C
Copy CRC 4689B92C
Copy OK

Track 8

Filename C:\Users\ian\Desktop\VA - Blowing Free - Underground and Progressive Sounds Of 1972 (2022) [FLAC] {4CD}\Blowing Free CD3\08 - Man - Bananas.wav

Peak level 98.5 %
Extraction speed 2.4 X
Track quality 100.0 %
Test CRC 8D7D5D4A
Copy CRC 8D7D5D4A
Copy OK

Track 9

Filename C:\Users\ian\Desktop\VA - Blowing Free - Underground and Progressive Sounds Of 1972 (2022) [FLAC] {4CD}\Blowing Free CD3\09 - Dave Cousins - Blue Angels.wav

Peak level 98.8 %
Extraction speed 2.6 X
Track quality 100.0 %
Test CRC 00188B15
Copy CRC 00188B15
Copy OK

Track 10

Filename C:\Users\ian\Desktop\VA - Blowing Free - Underground and Progressive Sounds Of 1972 (2022) [FLAC] {4CD}\Blowing Free CD3\10 - Vinegar Joe - See the World (Through My Eyes).wav

Peak level 98.8 %
Extraction speed 2.6 X
Track quality 100.0 %
Test CRC F3E62910
Copy CRC F3E62910
Copy OK

Track 11

Filename C:\Users\ian\Desktop\VA - Blowing Free - Underground and Progressive Sounds Of 1972 (2022) [FLAC] {4CD}\Blowing Free CD3\11 - Jade Warrior - Lady of the Lake.wav

Peak level 69.1 %
Extraction speed 2.5 X
Track quality 100.0 %
Test CRC A48C7A95
Copy CRC A48C7A95
Copy OK

Track 12

Filename C:\Users\ian\Desktop\VA - Blowing Free - Underground and Progressive Sounds Of 1972 (2022) [FLAC] {4CD}\Blowing Free CD3\12 - Khan - Stranded.wav

Peak level 95.1 %
Extraction speed 2.8 X
Track quality 100.0 %
Test CRC CE58B960
Copy CRC CE58B960
Copy OK

Track 13

Filename C:\Users\ian\Desktop\VA - Blowing Free - Underground and Progressive Sounds Of 1972 (2022) [FLAC] {4CD}\Blowing Free CD3\13 - Thin Lizzy - Whiskey in the Jar.wav

Peak level 98.8 %
Extraction speed 2.8 X
Track quality 100.0 %
Test CRC 0670AD8C
Copy CRC 0670AD8C
Copy OK

No errors occurred

End of status report

–– CUETools DB Plugin V2.1.6

[CTDB TOCID: tOTCTCR1y51Evj2Qmi0Vl7jQYLs-] found
Submit result: tOTCTCR1y51Evj2Qmi0Vl7jQYLs- has been confirmed
Track | CTDB Status
1 | (1/1) Accurately ripped
2 | (1/1) Accurately ripped
3 | (1/1) Accurately ripped
4 | (1/1) Accurately ripped
5 | (1/1) Accurately ripped
6 | (1/1) Accurately ripped
7 | (1/1) Accurately ripped
8 | (1/1) Accurately ripped
9 | (1/1) Accurately ripped
10 | (1/1) Accurately ripped
11 | (1/1) Accurately ripped
12 | (1/1) Accurately ripped
13 | (1/1) Accurately ripped


==== Log checksum 632B4619C13162306E3C570F638E3D3F8016C8495DC00AEC72500E082404DB5D ====

––-

Exact Audio Copy V1.2 from 12. August 2016

EAC extraction logfile from 27. June 2022, 12:52

Various Artists / Blowing Free CD4

Used drive : HL-DT-STDVD+-RW GU90N Adapter: 1 ID: 1

Read mode : Secure
Utilize accurate stream : Yes
Defeat audio cache : Yes
Make use of C2 pointers : No

Read offset correction : 102
Overread into Lead-In and Lead-Out : No
Fill up missing offset samples with silence : Yes
Delete leading and trailing silent blocks : No
Null samples used in CRC calculations : Yes
Used interface : Native Win32 interface for Win NT & 2000
Gap handling : Appended to previous track

Used output format : User Defined Encoder
Selected bitrate : 1024 kBit/s
Quality : High
Add ID3 tag : No
Command line compressor : C:\Program Files (x86)\Exact Audio Copy\Flac\flac.exe
Additional command line options : -8 -V -T "ARTIST=%artist%" -T "TITLE=%title%" -T "ALBUM=%albumtitle%" -T "DATE=%year%" -T "TRACKNUMBER=%tracknr%" -T "GENRE=%genre%" -T "PERFORMER=%albuminterpret%" -T "COMPOSER=%composer%" %haslyrics%–tag-from-file=LYRICS="%lyricsfile%"%haslyrics% -T "ALBUMARTIST=%albumartist%" -T "DISCNUMBER=%cdnumber%" -T "TOTALDISCS=%totalcds%" -T "TOTALTRACKS=%numtracks%" -T "COMMENT=%comment%" %source% -o %dest%


TOC of the extracted CD

Track | Start | Length | Start sector | End sector
––––––––––––––––––––––––––––-
1 | 0:00.00 | 3:07.69 | 0 | 14093
2 | 3:07.69 | 5:01.53 | 14094 | 36721
3 | 8:09.47 | 4:00.60 | 36722 | 54781
4 | 12:10.32 | 9:12.16 | 54782 | 96197
5 | 21:22.48 | 1:26.66 | 96198 | 102713
6 | 22:49.39 | 3:20.05 | 102714 | 117718
7 | 26:09.44 | 5:00.38 | 117719 | 140256
8 | 31:10.07 | 4:34.60 | 140257 | 160866
9 | 35:44.67 | 4:26.72 | 160867 | 180888
10 | 40:11.64 | 9:13.33 | 180889 | 222396
11 | 49:25.22 | 5:01.09 | 222397 | 244980
12 | 54:26.31 | 4:13.07 | 244981 | 263962
13 | 58:39.38 | 8:14.34 | 263963 | 301046
14 | 66:53.72 | 3:26.43 | 301047 | 316539
15 | 70:20.40 | 8:18.45 | 316540 | 353934


Track 1

Filename C:\Users\ian\Desktop\VA - Blowing Free - Underground and Progressive Sounds Of 1972 (2022) [FLAC] {4CD}\Blowing Free CD4\01 - Dave Cousins - Two Weeks Last Summer.wav

Pre-gap length 0:00:02.00

Peak level 83.1 %
Extraction speed 1.0 X
Track quality 99.9 %
Test CRC 745E273C
Copy CRC 745E273C
Copy OK

Track 2

Filename C:\Users\ian\Desktop\VA - Blowing Free - Underground and Progressive Sounds Of 1972 (2022) [FLAC] {4CD}\Blowing Free CD4\02 - Skin Alley - Nicks Seven.wav

Peak level 98.8 %
Extraction speed 1.4 X
Track quality 100.0 %
Test CRC 38D68EBC
Copy CRC 38D68EBC
Copy OK

Track 3

Filename C:\Users\ian\Desktop\VA - Blowing Free - Underground and Progressive Sounds Of 1972 (2022) [FLAC] {4CD}\Blowing Free CD4\03 - Ten Years After - Choo Choo Mama.wav

Peak level 98.8 %
Extraction speed 1.5 X
Track quality 100.0 %
Test CRC 4E892E0E
Copy CRC 4E892E0E
Copy OK

Track 4

Filename C:\Users\ian\Desktop\VA - Blowing Free - Underground and Progressive Sounds Of 1972 (2022) [FLAC] {4CD}\Blowing Free CD4\04 - Savoy Brown - Hellbound Train.wav

Peak level 98.8 %
Extraction speed 1.8 X
Track quality 100.0 %
Test CRC 53CFAFDF
Copy CRC 53CFAFDF
Copy OK

Track 5

Filename C:\Users\ian\Desktop\VA - Blowing Free - Underground and Progressive Sounds Of 1972 (2022) [FLAC] {4CD}\Blowing Free CD4\05 - Pretty Things - Peter.wav

Peak level 98.8 %
Extraction speed 1.4 X
Track quality 100.0 %
Test CRC 29B102F9
Copy CRC 29B102F9
Copy OK

Track 6

Filename C:\Users\ian\Desktop\VA - Blowing Free - Underground and Progressive Sounds Of 1972 (2022) [FLAC] {4CD}\Blowing Free CD4\06 - Pretty Things - Rip Off Train.wav

Peak level 98.8 %
Extraction speed 1.8 X
Track quality 100.0 %
Test CRC D3D88056
Copy CRC D3D88056
Copy OK

Track 7

Filename C:\Users\ian\Desktop\VA - Blowing Free - Underground and Progressive Sounds Of 1972 (2022) [FLAC] {4CD}\Blowing Free CD4\07 - Matching Mole - Instant Kitten.wav

Peak level 98.8 %
Extraction speed 1.9 X
Track quality 100.0 %
Test CRC 7D8E1D75
Copy CRC 7D8E1D75
Copy OK

Track 8

Filename C:\Users\ian\Desktop\VA - Blowing Free - Underground and Progressive Sounds Of 1972 (2022) [FLAC] {4CD}\Blowing Free CD4\08 - Gentle Giant - The Boys in the Band.wav

Peak level 98.8 %
Extraction speed 1.9 X
Track quality 100.0 %
Test CRC F97791E1
Copy CRC F97791E1
Copy OK

Track 9

Filename C:\Users\ian\Desktop\VA - Blowing Free - Underground and Progressive Sounds Of 1972 (2022) [FLAC] {4CD}\Blowing Free CD4\09 - The Sensational Alex Harvey Band - Midnight Moses.wav

Peak level 98.8 %
Extraction speed 2.0 X
Track quality 100.0 %
Test CRC 40E4764B
Copy CRC 40E4764B
Copy OK

Track 10

Filename C:\Users\ian\Desktop\VA - Blowing Free - Underground and Progressive Sounds Of 1972 (2022) [FLAC] {4CD}\Blowing Free CD4\10 - Pink Fairies - Walk Dont Run.wav

Peak level 98.8 %
Extraction speed 2.3 X
Track quality 99.9 %
Test CRC 6B6F076F
Copy CRC 6B6F076F
Copy OK

Track 11

Filename C:\Users\ian\Desktop\VA - Blowing Free - Underground and Progressive Sounds Of 1972 (2022) [FLAC] {4CD}\Blowing Free CD4\11 - Jonesy - Ricochet.wav

Peak level 98.8 %
Extraction speed 2.2 X
Track quality 99.9 %
Test CRC 2C760AF9
Copy CRC 2C760AF9
Copy OK

Track 12

Filename C:\Users\ian\Desktop\VA - Blowing Free - Underground and Progressive Sounds Of 1972 (2022) [FLAC] {4CD}\Blowing Free CD4\12 - Bombadil - When the City Sleeps.wav

Peak level 84.2 %
Extraction speed 2.5 X
Track quality 100.0 %
Test CRC 6CC91C05
Copy CRC 6CC91C05
Copy OK

Track 13

Filename C:\Users\ian\Desktop\VA - Blowing Free - Underground and Progressive Sounds Of 1972 (2022) [FLAC] {4CD}\Blowing Free CD4\13 - Nektar - Desolation Valley.wav

Peak level 98.8 %
Extraction speed 2.7 X
Track quality 100.0 %
Test CRC DD1F1C6D
Copy CRC DD1F1C6D
Copy OK

Track 14

Filename C:\Users\ian\Desktop\VA - Blowing Free - Underground and Progressive Sounds Of 1972 (2022) [FLAC] {4CD}\Blowing Free CD4\14 - Curved Air - Melinda More Or Less.wav

Peak level 95.5 %
Extraction speed 2.5 X
Track quality 100.0 %
Test CRC 6189A6A1
Copy CRC 6189A6A1
Copy OK

Track 15

Filename C:\Users\ian\Desktop\VA - Blowing Free - Underground and Progressive Sounds Of 1972 (2022) [FLAC] {4CD}\Blowing Free CD4\15 - Khan - Hollow Stone.wav

Peak level 98.8 %
Extraction speed 2.9 X
Track quality 100.0 %
Test CRC 80F12F99
Copy CRC 80F12F99
Copy OK

No errors occurred

End of status report

–– CUETools DB Plugin V2.1.6

[CTDB TOCID: qlfKgC1T09TVJ3S_5CkP6e4q2fU-] found
Submit result: qlfKgC1T09TVJ3S_5CkP6e4q2fU- has been confirmed
Track | CTDB Status
1 | (1/1) Accurately ripped
2 | (1/1) Accurately ripped
3 | (1/1) Accurately ripped
4 | (1/1) Accurately ripped
5 | (1/1) Accurately ripped
6 | (1/1) Accurately ripped
7 | (1/1) Accurately ripped
8 | (1/1) Accurately ripped
9 | (1/1) Accurately ripped
10 | (1/1) Accurately ripped
11 | (1/1) Accurately ripped
12 | (1/1) Accurately ripped
13 | (1/1) Accurately ripped
14 | (1/1) Accurately ripped
15 | (1/1) Accurately ripped


==== Log checksum A48E9E4F8486E25CDC247EC07F42559BF5F75A99C5BEF52DBEB0C5251651C88B ====



Thanks to the Original ripper !