Tags
Language
Tags

VA - Choose Your Partners! Contra Dance and Square Dance Music of New Hampshire (1999)

Posted By: delpotro
VA - Choose Your Partners! Contra Dance and Square Dance Music of New Hampshire (1999)

VA - Choose Your Partners! Contra Dance and Square Dance Music of New Hampshire (1999)
EAC Rip | FLAC (tracks+log+.cue) - 394 Mb | MP3 CBR 320 kbps - 159 Mb | Digital booklet | 01:07:05
Folk | Label: Smithsonian Folkways Recordings

New Hampshire is home to a variety of time-honored music and dance traditions. This 1999 studio recording is a collection of dance tunes played by six New Hampshire groups. Built upon a blend of English, French, and Celtic influences, the music features fiddle, guitar, flute, piano, mandolin, and hammered dulcimer. Some of New Hampshire's renowned dance callers invite you to "choose your partners" and join in New England contra dancing, barn dancing, and singing squares. Produced in collaboration with the New Hampshire State Council on the Arts.
Tracklist:
1. Rodney Miller's New England Dance Band – Farewell to Whiskey (02:36)
2. Old New England – Money Musk (03:27)
3. Old New England – The Woman Fiddler (03:20)
4. Two Fiddles – Larry O' Gaff (02:47)
5. Two Fiddles – Maggie In The Woods (03:22)
6. Northern Spy – Mouth of the Tobique (04:31)
7. Northern Spy – Lady of the Lake/ Fisher's Hornpipe/ Red-Haired Boy (medley) (06:54)
8. Rodney Miller's New England Dance Band – Rosin the Bow / Waltz for Jane (medley) (04:10)
9. Lester Bradley and Friends – Golden Slippers (04:30)
10. Lester Bradley and Friends – Cooked Stovepipe (03:36)
11. Lamprey River Band – Shandon Bells / Out on the Ocean / The Lame Duck / Mug of Brown Ale (medley) (04:25)
12. Lamprey River Band – Fireman's Reel / Rising of the Lamprey / Silver Spear / High Reel / Fireman's Reel (medley) (05:45)
13. Old New England – Neil Vincent's Welcome To Earth / Pig Town Fling / Durang's Hornpipe / Peace River Breakdown (medley) (03:13)
14. Rodney Miller's New England Dance Band – The Battering Ram / The Concertina Reel / Kiley's Reel (medley) (05:08)
15. Rodney Miller's New England Dance Band – Cat in the Hopper / Coleraine / Shores of Lough Gowna (medley) (05:05)
16. Old New England – Amelia / Great Memories (medley) (04:08)

Exact Audio Copy V1.0 beta 3 from 29. August 2011

EAC extraction logfile from 23. April 2014, 9:32

Various Artists / Choose Your Partners! Contra & Square Dance Music of New Hampshire

Used drive : ATAPI iHAS324 C Adapter: 2 ID: 0

Read mode : Secure
Utilize accurate stream : Yes
Defeat audio cache : Yes
Make use of C2 pointers : No

Read offset correction : 6
Overread into Lead-In and Lead-Out : No
Fill up missing offset samples with silence : Yes
Delete leading and trailing silent blocks : No
Null samples used in CRC calculations : Yes
Used interface : Native Win32 interface for Win NT & 2000
Gap handling : Appended to previous track

Used output format : User Defined Encoder
Selected bitrate : 1024 kBit/s
Quality : High
Add ID3 tag : No
Command line compressor : C:\Program Files (x86)\Exact Audio Copy\Flac\flac.exe
Additional command line options : -8 -V -T "ARTIST=%artist%" -T "TITLE=%title%" -T "ALBUM=%albumtitle%" -T "DATE=%year%" -T "TRACKNUMBER=%tracknr%" -T "GENRE=%genre%" -T "PERFORMER=%albuminterpret%" -T "COMPOSER=%composer%" %haslyrics%–tag-from-file=LYRICS="%lyricsfile%"%haslyrics% -T "ALBUMARTIST=%albumartist%" -T "DISCNUMBER=%cdnumber%" -T "TOTALDISCS=%totalcds%" -T "TOTALTRACKS=%numtracks%" -T "COMMENT=%comment%" %source% -o %dest%


TOC of the extracted CD

Track | Start | Length | Start sector | End sector
––––––––––––––––––––––––––––-
1 | 0:00.00 | 2:36.67 | 0 | 11766
2 | 2:36.67 | 3:27.05 | 11767 | 27296
3 | 6:03.72 | 3:20.15 | 27297 | 42311
4 | 9:24.12 | 2:47.40 | 42312 | 54876
5 | 12:11.52 | 3:22.60 | 54877 | 70086
6 | 15:34.37 | 4:31.25 | 70087 | 90436
7 | 20:05.62 | 6:54.10 | 90437 | 121496
8 | 26:59.72 | 4:10.58 | 121497 | 140304
9 | 31:10.55 | 4:30.30 | 140305 | 160584
10 | 35:41.10 | 3:36.50 | 160585 | 176834
11 | 39:17.60 | 4:25.40 | 176835 | 196749
12 | 43:43.25 | 5:45.62 | 196750 | 222686
13 | 49:29.12 | 3:13.60 | 222687 | 237221
14 | 52:42.72 | 5:08.40 | 237222 | 260361
15 | 57:51.37 | 5:05.50 | 260362 | 283286
16 | 62:57.12 | 4:08.25 | 283287 | 301911


Track 1

Filename E:\Actual Files\Various Artists - Choose Your Partners! Conta-Square Dance New Hamphise\01 -Rodney Miller's NE Dance Band - Farewell to Whiskey , Silver & Gold 2 Step.wav

Pre-gap length 0:00:02.00

Peak level 89.3 %
Extraction speed 1.7 X
Track quality 100.0 %
Test CRC FD5BA2A0
Copy CRC FD5BA2A0
Cannot be verified as accurate (confidence 1) [BF06151A], AccurateRip returned [C435D4AE] (AR v2)
Copy OK

Track 2

Filename E:\Actual Files\Various Artists - Choose Your Partners! Conta-Square Dance New Hamphise\02 -Old New England - Money Musk.wav

Pre-gap length 0:00:03.22

Peak level 97.7 %
Extraction speed 1.9 X
Track quality 100.0 %
Test CRC 50E8319D
Copy CRC 50E8319D
Cannot be verified as accurate (confidence 1) [AB3CD7CC], AccurateRip returned [E770D907] (AR v2)
Copy OK

Track 3

Filename E:\Actual Files\Various Artists - Choose Your Partners! Conta-Square Dance New Hamphise\03 -Old New England - The Woman Fiddler , Munster Lass , Rock Valley , Hullichan's Jig.wav

Pre-gap length 0:00:02.96

Peak level 89.1 %
Extraction speed 1.5 X
Track quality 99.9 %
Test CRC 9E8AAAC3
Copy CRC 9E8AAAC3
Cannot be verified as accurate (confidence 1) [E880CF45], AccurateRip returned [4D342255] (AR v2)
Copy OK

Track 4

Filename E:\Actual Files\Various Artists - Choose Your Partners! Conta-Square Dance New Hamphise\04 -Two Fiddles - Larry O'Gaff.wav

Pre-gap length 0:00:03.02

Peak level 97.7 %
Extraction speed 2.2 X
Track quality 100.0 %
Test CRC 40D5BB45
Copy CRC 40D5BB45
Cannot be verified as accurate (confidence 1) [3B74A92B], AccurateRip returned [C1FEB8BF] (AR v2)
Copy OK

Track 5

Filename E:\Actual Files\Various Artists - Choose Your Partners! Conta-Square Dance New Hamphise\05 -Two Fiddles - Maggie In The Woods.wav

Peak level 92.4 %
Extraction speed 2.4 X
Track quality 100.0 %
Test CRC 7AAFE865
Copy CRC 7AAFE865
Cannot be verified as accurate (confidence 1) [28D6F26C], AccurateRip returned [37F50134] (AR v2)
Copy OK

Track 6

Filename E:\Actual Files\Various Artists - Choose Your Partners! Conta-Square Dance New Hamphise\06 -Northern Spy - Mouth of the Tobique , Réel des Jeunes Mariés , Réel de Montreal.wav

Pre-gap length 0:00:03.09

Peak level 97.7 %
Extraction speed 2.6 X
Track quality 100.0 %
Test CRC BEEAB56F
Copy CRC BEEAB56F
Cannot be verified as accurate (confidence 1) [EFE4786B], AccurateRip returned [F72843E1] (AR v2)
Copy OK

Track 7

Filename E:\Actual Files\Various Artists - Choose Your Partners! Conta-Square Dance New Hamphise\07 -Northern Spy - Lady of the Lake , Fisher's Hornpipe , Red-Haired Boy , Miss Thompson.wav

Pre-gap length 0:00:03.06

Peak level 97.7 %
Extraction speed 3.0 X
Track quality 100.0 %
Test CRC C12FB55F
Copy CRC C12FB55F
Cannot be verified as accurate (confidence 1) [01705AFB], AccurateRip returned [9608193E] (AR v2)
Copy OK

Track 8

Filename E:\Actual Files\Various Artists - Choose Your Partners! Conta-Square Dance New Hamphise\08 -Rodney Miller's NE Dance Band - Rosin the Beau , Waltz for Jane.wav

Pre-gap length 0:00:02.09

Peak level 87.6 %
Extraction speed 3.0 X
Track quality 100.0 %
Test CRC 6173811F
Copy CRC 6173811F
Cannot be verified as accurate (confidence 1) [982D199B], AccurateRip returned [FB7AB786] (AR v2)
Copy OK

Track 9

Filename E:\Actual Files\Various Artists - Choose Your Partners! Conta-Square Dance New Hamphise\09 -Lester Bradley & Friends - Golden Slippers.wav

Pre-gap length 0:00:03.13

Peak level 97.7 %
Extraction speed 3.2 X
Track quality 100.0 %
Test CRC 1AC5EB26
Copy CRC 1AC5EB26
Cannot be verified as accurate (confidence 1) [708DD7BE], AccurateRip returned [7BB00A6F] (AR v2)
Copy OK

Track 10

Filename E:\Actual Files\Various Artists - Choose Your Partners! Conta-Square Dance New Hamphise\10 -Lester Bradley & Friends - Crooked Stovepipe.wav

Pre-gap length 0:00:02.57

Peak level 93.5 %
Extraction speed 3.2 X
Track quality 100.0 %
Test CRC C761259C
Copy CRC C761259C
Cannot be verified as accurate (confidence 1) [88FB84E8], AccurateRip returned [FD36B144] (AR v2)
Copy OK

Track 11

Filename E:\Actual Files\Various Artists - Choose Your Partners! Conta-Square Dance New Hamphise\11 -Lamprey River Band - Shandon Bells , Out on the Ocean , The Lame Duck , Mug of Brown Ale.wav

Pre-gap length 0:00:03.24

Peak level 62.1 %
Extraction speed 3.4 X
Track quality 100.0 %
Test CRC 9CA7A7E1
Copy CRC 9CA7A7E1
Cannot be verified as accurate (confidence 1) [052B96CD], AccurateRip returned [07056262] (AR v2)
Copy OK

Track 12

Filename E:\Actual Files\Various Artists - Choose Your Partners! Conta-Square Dance New Hamphise\12 -Lamprey River Band - Fireman's Reel , Rising of the Lamprey , Silver Spear , High Reel , Fireman's Reel.wav

Pre-gap length 0:00:02.57

Peak level 97.7 %
Extraction speed 3.7 X
Track quality 100.0 %
Test CRC 6542A55F
Copy CRC 6542A55F
Cannot be verified as accurate (confidence 1) [16556EDD], AccurateRip returned [AFCFDCFB] (AR v2)
Copy OK

Track 13

Filename E:\Actual Files\Various Artists - Choose Your Partners! Conta-Square Dance New Hamphise\13 -Old New England - Neil Vincent's Welcome To Earth , Pig Town Fling , Durang's Hornpipe , Peace River Breakdown.wav

Pre-gap length 0:00:03.06

Peak level 90.6 %
Extraction speed 3.5 X
Track quality 100.0 %
Test CRC F9A45E20
Copy CRC F9A45E20
Cannot be verified as accurate (confidence 1) [49F7C671], AccurateRip returned [9F699B4B] (AR v2)
Copy OK

Track 14

Filename E:\Actual Files\Various Artists - Choose Your Partners! Conta-Square Dance New Hamphise\14 -Rodney Miller's NE Dance Band - The Battering Ram , The Concertina Reel , Kiley's Reel.wav

Pre-gap length 0:00:02.96

Peak level 97.4 %
Extraction speed 3.9 X
Track quality 100.0 %
Test CRC F0ED38EF
Copy CRC F0ED38EF
Cannot be verified as accurate (confidence 1) [C17FA19F], AccurateRip returned [1AFE87AF] (AR v2)
Copy OK

Track 15

Filename E:\Actual Files\Various Artists - Choose Your Partners! Conta-Square Dance New Hamphise\15 -Rodney Miller's NE Dance Band - Cat in the Hopper , Coleraine , Shores of Lough Gowna.wav

Pre-gap length 0:00:02.96

Peak level 92.0 %
Extraction speed 4.0 X
Track quality 100.0 %
Test CRC 8EEF5720
Copy CRC 8EEF5720
Cannot be verified as accurate (confidence 1) [2F6CCBA8], AccurateRip returned [10DC72E8] (AR v2)
Copy OK

Track 16

Filename E:\Actual Files\Various Artists - Choose Your Partners! Conta-Square Dance New Hamphise\16 -Old New England - Amelia , Great Memories.wav

Pre-gap length 0:00:03.00

Peak level 92.6 %
Extraction speed 2.9 X
Track quality 99.9 %
Test CRC 81183596
Copy CRC 81183596
Cannot be verified as accurate (confidence 1) [D44AFBA3], AccurateRip returned [66FE6F39] (AR v2)
Copy OK


No tracks could be verified as accurate
You may have a different pressing from the one(s) in the database

No errors occurred

End of status report

==== Log checksum EEA012EC0350B4658C3C72998522A6EA0BC46CC7E36C188C225D92535690A0BE ====

Thanks to the Original ripper !