Subcategories

VA - Greatest Ever! Prog Rock: The Definitive Collection (2012)

Posted By: delpotro
VA - Greatest Ever! Prog Rock: The Definitive Collection (2012)

VA - Greatest Ever! Prog Rock: The Definitive Collection (2012)
EAC Rip | FLAC (tracks+log+.cue) | 03:30:20 | 1,34 Gb
Art Rock, Space Rock, Classic Rock, Psychedelic Rock | Label: Union Square Music

Greatest Ever! Prog Rock beings together some of the very finest progressive rock from the giants of the genre. Incorporating both the classic and the contemporary, this 3CD set boasts bona fide prog masterpieces from Yes, Hawkwind and Rick Wakeman, avant-garde wonders from Aphrodite s Child and The Moody Blues, plus modern tracks from Marillion, Galahad and Twelfth Night to create a brilliantly atmospheric and surprisingly accessible collection for the die-hard fan and the recent convert alike.
Tracklist:
CD1
1. Yes – Roundabout (Single Version)
2. Caravan – In The Land Of Grey And Pink
3. Atomic Rooster – I Can't Take No More
4. Camel – Metrognome
5. Jefferson Airplane – White Rabbit
6. Argent – Hold Your Head Up
7. Blue Öyster Cult – Don't Fear The Reaper
8. Traffic – Every Mother's Son
9. Quintessence – Sea Of Immortality
10. Tangerine Dream – Dolphin Dance
11. Affinity – Three Sisters
12. Zzebra – Amuso Fi - (Single Version)
13. Nazareth – This Flight Tonight
14. Galahad – Empires Never Last

CD2
1. Aphrodite's Child – The Four Horsemen
2. Curved Air – Back Street Luv
3. The Mahavishnu Orchestra – Meeting Of The Spirits
4. Gentle Giant – Pantagruel's Nativity
5. Sensational Alex Harvey Band – Faith Healer
6. Spooky Tooth – Lost In My Dream
7. The Edgar Winter Group – Frankenstein
8. Hawkwind – Shot Down In The Night - (Single Edit)
9. Consortium – Where
10. Warhorse – No Chance
11. Ian Gillan Band – Ian Gillan Band
12. IQ – Born Brilliant
13. Twelfth Night – Creepshow

CD3
1. Rick Wakeman – Anne Of Cleves
2. Colosseum – The Kettle
3. Spirit – Fresh Garbage
4. Beggar's Opera – MacArthur Park
5. Moody Blues – Higher And Higher
6. Uriah Heep – Rainbow Demon
7. Greenslade – Bedside Manners Are Extra
8. Matching Mole – O Caroline
9. Arthur Brown & Kingdom Come – Spirit Of Joy
10. John Lees' Barclay James Harvest – Child Of The Universe (Live)
11. Running Man – Running Man
12. Rob Thompson – Dust - (Full Length Version)
13. Marillion – You're Gone

Exact Audio Copy V1.0 beta 3 from 29. August 2011

EAC extraction logfile from 19. April 2012, 18:40

Various Artists / Greatest Ever! Prog Rock (Disc 1)

Used drive : TSSTcorpDVDWBD SH-B123L Adapter: 0 ID: 2

Read mode : Secure
Utilize accurate stream : Yes
Defeat audio cache : Yes
Make use of C2 pointers : No

Read offset correction : 6
Overread into Lead-In and Lead-Out : No
Fill up missing offset samples with silence : Yes
Delete leading and trailing silent blocks : No
Null samples used in CRC calculations : Yes
Used interface : Native Win32 interface for Win NT & 2000
Gap handling : Appended to previous track

Used output format : User Defined Encoder
Selected bitrate : 896 kBit/s
Quality : High
Add ID3 tag : No
Command line compressor : C:\Program Files (x86)\Exact Audio Copy\Flac\flac.exe
Additional command line options : -8 -V -T "ARTIST=%artist%" -T "TITLE=%title%" -T "ALBUM=%albumtitle%" -T "DATE=%year%" -T "TRACKNUMBER=%tracknr%" -T "GENRE=%genre%" -T "PERFORMER=%albuminterpret%" -T "COMPOSER=%composer%" %haslyrics%–tag-from-file=LYRICS="%lyricsfile%"%haslyrics% -T "ALBUMARTIST=%albumartist%" -T "DISCNUMBER=%cdnumber%" -T "TOTALDISCS=%totalcds%" -T "TOTALTRACKS=%numtracks%" -T "COMMENT=%comment%" %source% -o %dest%


TOC of the extracted CD

Track | Start | Length | Start sector | End sector
––––––––––––––––––––––––––––-
1 | 0:00.00 | 3:28.55 | 0 | 15654
2 | 3:28.55 | 4:53.34 | 15655 | 37663
3 | 8:22.14 | 3:32.45 | 37664 | 53608
4 | 11:54.59 | 4:12.40 | 53609 | 72548
5 | 16:07.24 | 2:33.27 | 72549 | 84050
6 | 18:40.51 | 3:44.23 | 84051 | 100873
7 | 22:24.74 | 3:51.20 | 100874 | 118218
8 | 26:16.19 | 7:07.19 | 118219 | 150262
9 | 33:23.38 | 5:16.29 | 150263 | 173991
10 | 38:39.67 | 5:06.14 | 173992 | 196955
11 | 43:46.06 | 4:59.13 | 196956 | 219393
12 | 48:45.19 | 4:31.65 | 219394 | 239783
13 | 53:17.09 | 3:24.12 | 239784 | 255095
14 | 56:41.21 | 9:06.53 | 255096 | 296098


Track 1

Filename D:\Rips\Music\01 - Yes - Roundabout (Single Version).wav

Pre-gap length 0:00:02.00

Peak level 98.1 %
Extraction speed 2.1 X
Track quality 100.0 %
Test CRC F4CC6322
Copy CRC F4CC6322
Track not present in AccurateRip database
Copy OK

Track 2

Filename D:\Rips\Music\02 - Caravan - In The Land Of Grey And Pink.wav

Pre-gap length 0:00:01.52

Peak level 99.3 %
Extraction speed 2.1 X
Track quality 99.9 %
Test CRC B464251D
Copy CRC B464251D
Track not present in AccurateRip database
Copy OK

Track 3

Filename D:\Rips\Music\03 - Atomic Rooster - I Can't Take No More.wav

Pre-gap length 0:00:02.06

Peak level 88.8 %
Extraction speed 2.5 X
Track quality 100.0 %
Test CRC C82F54DB
Copy CRC C82F54DB
Track not present in AccurateRip database
Copy OK

Track 4

Filename D:\Rips\Music\04 - Camel - Metrognome.wav

Pre-gap length 0:00:01.53

Peak level 99.4 %
Extraction speed 2.7 X
Track quality 100.0 %
Test CRC 5A5BA493
Copy CRC 5A5BA493
Track not present in AccurateRip database
Copy OK

Track 5

Filename D:\Rips\Music\05 - Jefferson Airplane - White Rabbit.wav

Pre-gap length 0:00:01.29

Peak level 98.0 %
Extraction speed 2.0 X
Track quality 99.9 %
Test CRC 242835A2
Copy CRC 242835A2
Track not present in AccurateRip database
Copy OK

Track 6

Filename D:\Rips\Music\06 - Argent - Hold Your Head Up.wav

Pre-gap length 0:00:02.14

Peak level 96.9 %
Extraction speed 2.9 X
Track quality 100.0 %
Test CRC 58ADDB2E
Copy CRC 58ADDB2E
Track not present in AccurateRip database
Copy OK

Track 7

Filename D:\Rips\Music\07 - Blue Oyster Cult - Don t Fear The Reaper.wav

Pre-gap length 0:00:01.34

Peak level 99.3 %
Extraction speed 3.1 X
Track quality 100.0 %
Test CRC D7E0188E
Copy CRC D7E0188E
Track not present in AccurateRip database
Copy OK

Track 8

Filename D:\Rips\Music\08 - Traffic - Every Mother's Son.wav

Pre-gap length 0:00:02.14

Peak level 95.7 %
Extraction speed 3.0 X
Track quality 99.9 %
Test CRC E96242D9
Copy CRC E96242D9
Track not present in AccurateRip database
Copy OK

Track 9

Filename D:\Rips\Music\09 - Quintessence - Sea Of Immortality.wav

Pre-gap length 0:00:02.13

Peak level 69.9 %
Extraction speed 3.0 X
Track quality 99.9 %
Test CRC F532E83D
Copy CRC F532E83D
Track not present in AccurateRip database
Copy OK

Track 10

Filename D:\Rips\Music\10 - Tangerine Dream - Dolphin Dance.wav

Pre-gap length 0:00:01.17

Peak level 99.4 %
Extraction speed 3.8 X
Track quality 100.0 %
Test CRC F9FDC3DB
Copy CRC F9FDC3DB
Track not present in AccurateRip database
Copy OK

Track 11

Filename D:\Rips\Music\11 - Affinity - Three Sisters.wav

Pre-gap length 0:00:01.76

Peak level 75.6 %
Extraction speed 4.0 X
Track quality 100.0 %
Test CRC E3552729
Copy CRC E3552729
Track not present in AccurateRip database
Copy OK

Track 12

Filename D:\Rips\Music\12 - Zzebra - Amuso Fi (Single Version).wav

Pre-gap length 0:00:02.25

Peak level 89.1 %
Extraction speed 4.1 X
Track quality 100.0 %
Test CRC 25912841
Copy CRC 25912841
Track not present in AccurateRip database
Copy OK

Track 13

Filename D:\Rips\Music\13 - Nazareth - This Flight Tonight.wav

Pre-gap length 0:00:02.10

Peak level 90.8 %
Extraction speed 2.8 X
Track quality 99.9 %
Test CRC 405BB38E
Copy CRC 405BB38E
Track not present in AccurateRip database
Copy OK

Track 14

Filename D:\Rips\Music\14 - Galahad - Empires Never Last.wav

Pre-gap length 0:00:01.80

Peak level 89.1 %
Extraction speed 4.6 X
Track quality 100.0 %
Test CRC B299EBE9
Copy CRC B299EBE9
Track not present in AccurateRip database
Copy OK


None of the tracks are present in the AccurateRip database

No errors occurred

End of status report

–– CUETools DB Plugin V2.1.3

[CTDB TOCID: AhWnJwxe5lG4soxedVeFYGmcU5o-] disk not present in database, Submit result: AhWnJwxe5lG4soxedVeFYGmcU5o- has been uploaded


==== Log checksum EEDDDCBE598D157384013684EA8FD7265659F6CB854472CFBDD6C7E1427FD4C3 ====

Exact Audio Copy V1.0 beta 3 from 29. August 2011

EAC extraction logfile from 19. April 2012, 20:59

Various Artists / Greatest Ever! Prog Rock (Disc 2)

Used drive : TSSTcorpDVDWBD SH-B123L Adapter: 0 ID: 2

Read mode : Secure
Utilize accurate stream : Yes
Defeat audio cache : Yes
Make use of C2 pointers : No

Read offset correction : 6
Overread into Lead-In and Lead-Out : No
Fill up missing offset samples with silence : Yes
Delete leading and trailing silent blocks : No
Null samples used in CRC calculations : Yes
Used interface : Native Win32 interface for Win NT & 2000
Gap handling : Appended to previous track

Used output format : User Defined Encoder
Selected bitrate : 896 kBit/s
Quality : High
Add ID3 tag : No
Command line compressor : C:\Program Files (x86)\Exact Audio Copy\Flac\flac.exe
Additional command line options : -8 -V -T "ARTIST=%artist%" -T "TITLE=%title%" -T "ALBUM=%albumtitle%" -T "DATE=%year%" -T "TRACKNUMBER=%tracknr%" -T "GENRE=%genre%" -T "PERFORMER=%albuminterpret%" -T "COMPOSER=%composer%" %haslyrics%–tag-from-file=LYRICS="%lyricsfile%"%haslyrics% -T "ALBUMARTIST=%albumartist%" -T "DISCNUMBER=%cdnumber%" -T "TOTALDISCS=%totalcds%" -T "TOTALTRACKS=%numtracks%" -T "COMMENT=%comment%" %source% -o %dest%


TOC of the extracted CD

Track | Start | Length | Start sector | End sector
––––––––––––––––––––––––––––-
1 | 0:00.00 | 5:41.02 | 0 | 25576
2 | 5:41.02 | 3:33.51 | 25577 | 41602
3 | 9:14.53 | 6:41.20 | 41603 | 71697
4 | 15:55.73 | 6:51.24 | 71698 | 102546
5 | 22:47.22 | 7:10.72 | 102547 | 134868
6 | 29:58.19 | 5:30.61 | 134869 | 159679
7 | 35:29.05 | 4:45.09 | 159680 | 181063
8 | 40:14.14 | 4:15.31 | 181064 | 200219
9 | 44:29.45 | 7:08.27 | 200220 | 232346
10 | 51:37.72 | 6:21.00 | 232347 | 260921
11 | 57:58.72 | 4:59.00 | 260922 | 283346
12 | 62:57.72 | 5:20.18 | 283347 | 307364
13 | 68:18.15 | 10:09.22 | 307365 | 353061


Track 1

Filename D:\Rips\Music\01 - Aphrodite's Child - The Four Horsemen.wav

Pre-gap length 0:00:02.00

Peak level 99.4 %
Extraction speed 2.4 X
Track quality 100.0 %
Test CRC D6D4936D
Copy CRC D6D4936D
Track not present in AccurateRip database
Copy OK

Track 2

Filename D:\Rips\Music\02 - Curved Air - Back Street Luv.wav

Peak level 98.3 %
Extraction speed 2.4 X
Track quality 100.0 %
Test CRC 8B2C2A73
Copy CRC 8B2C2A73
Track not present in AccurateRip database
Copy OK

Track 3

Filename D:\Rips\Music\03 - The Mahavishnu Orchestra - Meeting Of The Spirits.wav

Peak level 99.4 %
Extraction speed 2.8 X
Track quality 100.0 %
Test CRC 2F73CB82
Copy CRC 2F73CB82
Track not present in AccurateRip database
Copy OK

Track 4

Filename D:\Rips\Music\04 - Gentle Giant - Pantagruel's Nativity.wav

Peak level 96.7 %
Extraction speed 2.7 X
Track quality 99.9 %
Test CRC 191F5E44
Copy CRC 191F5E44
Track not present in AccurateRip database
Copy OK

Track 5

Filename D:\Rips\Music\05 - Sensational Alex Harvey Band - Faith Healer.wav

Peak level 99.3 %
Extraction speed 3.0 X
Track quality 99.9 %
Test CRC FA5E3504
Copy CRC FA5E3504
Track not present in AccurateRip database
Copy OK

Track 6

Filename D:\Rips\Music\06 - Spooky Tooth - Lost In My Dream.wav

Peak level 94.0 %
Extraction speed 3.5 X
Track quality 100.0 %
Test CRC 5A4830AC
Copy CRC 5A4830AC
Track not present in AccurateRip database
Copy OK

Track 7

Filename D:\Rips\Music\07 - The Edgar Winter Group - Frankenstein.wav

Peak level 99.4 %
Extraction speed 3.7 X
Track quality 100.0 %
Test CRC CAF55AC9
Copy CRC CAF55AC9
Track not present in AccurateRip database
Copy OK

Track 8

Filename D:\Rips\Music\08 - Hawkwind - Shot Down In The Night (Single Edit).wav

Peak level 99.4 %
Extraction speed 3.7 X
Track quality 100.0 %
Test CRC 274AC181
Copy CRC 274AC181
Track not present in AccurateRip database
Copy OK

Track 9

Filename D:\Rips\Music\09 - Consortium - Where.wav

Peak level 80.2 %
Extraction speed 4.1 X
Track quality 100.0 %
Test CRC D44762D1
Copy CRC D44762D1
Track not present in AccurateRip database
Copy OK

Track 10

Filename D:\Rips\Music\10 - Warhorse - No Chance.wav

Peak level 99.4 %
Extraction speed 4.3 X
Track quality 100.0 %
Test CRC 91F8473D
Copy CRC 91F8473D
Track not present in AccurateRip database
Copy OK

Track 11

Filename D:\Rips\Music\11 - Ian Gillan Band - Child In Time.wav

Peak level 86.9 %
Extraction speed 4.3 X
Track quality 100.0 %
Test CRC BADC97F2
Copy CRC BADC97F2
Track not present in AccurateRip database
Copy OK

Track 12

Filename D:\Rips\Music\12 - IQ - Born Brilliant.wav

Peak level 71.6 %
Extraction speed 4.5 X
Track quality 100.0 %
Test CRC 3FD48969
Copy CRC 3FD48969
Track not present in AccurateRip database
Copy OK

Track 13

Filename D:\Rips\Music\13 - Twelfth Night - Creepshow.wav

Peak level 100.0 %
Extraction speed 4.9 X
Track quality 100.0 %
Test CRC 81C8A0C3
Copy CRC 81C8A0C3
Track not present in AccurateRip database
Copy OK


None of the tracks are present in the AccurateRip database

No errors occurred

End of status report

–– CUETools DB Plugin V2.1.3

[CTDB TOCID: DJ6FDRJp67lN8KvYzjyvMRu0R3A-] disk not present in database, Submit result: DJ6FDRJp67lN8KvYzjyvMRu0R3A- has been uploaded


==== Log checksum 8760D70BB3C69F75C8094C6CC1219ACA1CEAE9D7263D073E4086C93EA43A2FD4 ====

Exact Audio Copy V1.0 beta 3 from 29. August 2011

EAC extraction logfile from 19. April 2012, 21:43

Various Artists / Greatest Ever! Prog Rock (Disc 3)

Used drive : TSSTcorpDVDWBD SH-B123L Adapter: 0 ID: 2

Read mode : Secure
Utilize accurate stream : Yes
Defeat audio cache : Yes
Make use of C2 pointers : No

Read offset correction : 6
Overread into Lead-In and Lead-Out : No
Fill up missing offset samples with silence : Yes
Delete leading and trailing silent blocks : No
Null samples used in CRC calculations : Yes
Used interface : Native Win32 interface for Win NT & 2000
Gap handling : Appended to previous track

Used output format : User Defined Encoder
Selected bitrate : 896 kBit/s
Quality : High
Add ID3 tag : No
Command line compressor : C:\Program Files (x86)\Exact Audio Copy\Flac\flac.exe
Additional command line options : -8 -V -T "ARTIST=%artist%" -T "TITLE=%title%" -T "ALBUM=%albumtitle%" -T "DATE=%year%" -T "TRACKNUMBER=%tracknr%" -T "GENRE=%genre%" -T "PERFORMER=%albuminterpret%" -T "COMPOSER=%composer%" %haslyrics%–tag-from-file=LYRICS="%lyricsfile%"%haslyrics% -T "ALBUMARTIST=%albumartist%" -T "DISCNUMBER=%cdnumber%" -T "TOTALDISCS=%totalcds%" -T "TOTALTRACKS=%numtracks%" -T "COMMENT=%comment%" %source% -o %dest%


TOC of the extracted CD

Track | Start | Length | Start sector | End sector
––––––––––––––––––––––––––––-
1 | 0:00.00 | 7:55.51 | 0 | 35675
2 | 7:55.51 | 4:25.72 | 35676 | 55622
3 | 12:21.48 | 3:12.62 | 55623 | 70084
4 | 15:34.35 | 8:20.58 | 70085 | 107642
5 | 23:55.18 | 4:06.71 | 107643 | 126163
6 | 28:02.14 | 4:24.47 | 126164 | 146010
7 | 32:26.61 | 6:23.54 | 146011 | 174789
8 | 38:50.40 | 5:07.22 | 174790 | 197836
9 | 43:57.62 | 3:18.04 | 197837 | 212690
10 | 47:15.66 | 5:18.15 | 212691 | 236555
11 | 52:34.06 | 3:17.20 | 236556 | 251350
12 | 55:51.26 | 3:47.50 | 251351 | 268425
13 | 59:39.01 | 6:25.48 | 268426 | 297348


Track 1

Filename D:\Rips\Music\01 - Rick Wakeman - Anne Of Cleves.wav

Pre-gap length 0:00:02.00

Peak level 99.4 %
Extraction speed 2.4 X
Track quality 100.0 %
Test CRC 4A9DC081
Copy CRC 4A9DC081
Track not present in AccurateRip database
Copy OK

Track 2

Filename D:\Rips\Music\02 - Colosseum - The Kettle.wav

Pre-gap length 0:00:01.02

Peak level 99.4 %
Extraction speed 2.2 X
Track quality 99.9 %
Test CRC CA88443C
Copy CRC CA88443C
Track not present in AccurateRip database
Copy OK

Track 3

Filename D:\Rips\Music\03 - Spirit - Fresh Garbage.wav

Pre-gap length 0:00:01.00

Peak level 99.4 %
Extraction speed 2.6 X
Track quality 100.0 %
Test CRC 724B3377
Copy CRC 724B3377
Track not present in AccurateRip database
Copy OK

Track 4

Filename D:\Rips\Music\04 - Beggar's Opera - MacArthur Park.wav

Pre-gap length 0:00:01.86

Peak level 79.3 %
Extraction speed 3.2 X
Track quality 100.0 %
Test CRC 8CFE22E6
Copy CRC 8CFE22E6
Track not present in AccurateRip database
Copy OK

Track 5

Filename D:\Rips\Music\05 - Moody Blues - Higher And Higher.wav

Pre-gap length 0:00:01.86

Peak level 93.2 %
Extraction speed 3.2 X
Track quality 100.0 %
Test CRC CBF30F60
Copy CRC CBF30F60
Track not present in AccurateRip database
Copy OK

Track 6

Filename D:\Rips\Music\06 - Uriah Heep - Rainbow Demon.wav

Pre-gap length 0:00:01.12

Peak level 99.4 %
Extraction speed 2.7 X
Track quality 99.9 %
Test CRC B506E332
Copy CRC B506E332
Track not present in AccurateRip database
Copy OK

Track 7

Filename D:\Rips\Music\07 - Greenslade - Bedside Manners Are Extra.wav

Pre-gap length 0:00:00.58

Peak level 99.4 %
Extraction speed 3.7 X
Track quality 100.0 %
Test CRC 952CE6D7
Copy CRC 952CE6D7
Track not present in AccurateRip database
Copy OK

Track 8

Filename D:\Rips\Music\08 - Matching Mole - O Caroline.wav

Pre-gap length 0:00:02.29

Peak level 97.8 %
Extraction speed 3.8 X
Track quality 100.0 %
Test CRC 58F5D604
Copy CRC 58F5D604
Track not present in AccurateRip database
Copy OK

Track 9

Filename D:\Rips\Music\09 - Arthur Brown & Kingdom Come - Spirit Of Joy.wav

Pre-gap length 0:00:01.48

Peak level 83.6 %
Extraction speed 3.7 X
Track quality 100.0 %
Test CRC 94BC7661
Copy CRC 94BC7661
Track not present in AccurateRip database
Copy OK

Track 10

Filename D:\Rips\Music\10 - John Lees Barclay James Harvest - Child Of The Universe (Live).wav

Pre-gap length 0:00:01.89

Peak level 99.4 %
Extraction speed 4.1 X
Track quality 100.0 %
Test CRC D72DFE65
Copy CRC D72DFE65
Track not present in AccurateRip database
Copy OK

Track 11

Filename D:\Rips\Music\11 - Running Man - Running Man.wav

Pre-gap length 0:00:00.30

Peak level 99.4 %
Extraction speed 3.6 X
Track quality 100.0 %
Test CRC A8FB8F1A
Copy CRC A8FB8F1A
Track not present in AccurateRip database
Copy OK

Track 12

Filename D:\Rips\Music\12 - Rob Thompson - Dust (Radio Edit).wav

Pre-gap length 0:00:01.93

Peak level 90.1 %
Extraction speed 4.1 X
Track quality 100.0 %
Test CRC F2C707B5
Copy CRC F2C707B5
Track not present in AccurateRip database
Copy OK

Track 13

Filename D:\Rips\Music\13 - Marillion - You're Gone.wav

Pre-gap length 0:00:00.70

Peak level 96.6 %
Extraction speed 4.5 X
Track quality 100.0 %
Test CRC 9243C958
Copy CRC 9243C958
Track not present in AccurateRip database
Copy OK


None of the tracks are present in the AccurateRip database

No errors occurred

End of status report

–– CUETools DB Plugin V2.1.3

[CTDB TOCID: izVjSL3Ja0rxtfg5KekDNrdvQnA-] disk not present in database, Submit result: izVjSL3Ja0rxtfg5KekDNrdvQnA- has been uploaded


==== Log checksum 022EF0456689B423C28EDEBEFC59BAAF6D7ECB5F50E911612AE82AE7443D8DED ====

Thanks to the Original ripper (Unknown)