Subcategories

Various Artists - Krautrock 3 - Original Album Series (2017) {5CD Set Warner Music 5054197-4297-2-9 - Remastered}

Posted By: ruskaval
Various Artists - Krautrock 3 - Original Album Series (2017) {5CD Set Warner Music 5054197-4297-2-9 - Remastered}

Various Artists - Krautrock 3 - Original Album Series (2017) {5CD Set Warner Music 5054197-4297-2-9 - Remastered}
EAC rip (secure mode) | FLAC (tracks)+CUE+LOG -> 1.03 Gb | MP3 @320 -> 418 Mb
Full Artwork @ 600 dpi (png) -> 305 Mb | 5% repair rar | Remastered
© 2017 Warner Music | 5054197-4297-2-9
Krautrock / Experimental / Psychedelic Rock

The third part of the collection of classic 70-x rock-rock albums, released as part of the Original Album Series. Albums Doldinger's Motherhood "Motherhood", Diez & Bischof "Daybreak" and Dennis "Hyperthalamus" for the first time on CD.

Kraut-rock is the direction of experimental and psychedelic rock music that arose in the late 1960s and early 1970s in West Germany. The business card of the style was a mixture of rock music performed on standard instruments of a rock band (electric guitar, bass guitar, drums, synthesizer), with electronic music structures, and electronic sound processing. Among other things, music often has a pulsating rhythm, so-called. "Motoric". Thus, Krautrock gave an impulse for the development of electronic music and ambient music. In addition, in kraut-rock, emphasis is placed on instrumental music, improvisation and experimentalism.

tracklist:
Disc 1 (Doldinger's Motherhood - Motherhood)

01 - Devil Don't Get Me [08:26]
02 - Song of Dying [07:00]
03 - Circus Polka [01:11]
04 - Men's Quarrel [03:54]
05 - Turning Around [02:53]
06 - Degeneration [06:50]
07 - Yesterday's Song [04:34]

Various Artists - Krautrock 3 - Original Album Series (2017) {5CD Set Warner Music 5054197-4297-2-9 - Remastered}


Disc 2 (Popol Vuh - Das Hohelied Salomos)
01 - Steh auf, zieh mich dir nach [04:45]
02 - Du schonste der weiber [04:30]
03 - In den nachten auf den gassen I [01:35]
04 - Du sohn Davids I [03:00]
05 - In den nachten auf den gassen II [03:27]
06 - Der winter ist vorbei [03:43]
07 - Ja, deine liebe ist suser als wein [03:36]
08 - Du sohn Davids II [03:48]
09 - Du tranke mich mit deinen kussen [04:57]

Various Artists - Krautrock 3 - Original Album Series (2017) {5CD Set Warner Music 5054197-4297-2-9 - Remastered}


Disc 3 (Gila - Bury My Heart at Wounded Knee)
01 - This Morning [05:46]
02 - In a Sacred Manner [04:42]
03 - Soundance Chant [04:12]
04 - Young Coyote [03:19]
05 - The Buffalo Are Coming [07:18]
06 - Black Kettle's Ballad [04:24]
07 - Little Smoke [05:05]

Various Artists - Krautrock 3 - Original Album Series (2017) {5CD Set Warner Music 5054197-4297-2-9 - Remastered}


Disc 4 (Diez & Bischof - Daybreak)
01 - Daybreak [03:39]
02 - Out of My Mind [03:52]
03 - The Day Looks Good [03:22]
04 - I Just Killed a Stranger [02:49]
05 - Time Passed By [03:34]
06 - Turnaround [02:54]
07 - Skyman [03:33]
08 - Stealing the Show [03:44]
09 - Salon Imaginaire [04:54]
10 - Stars in My Eyes [05:31]

Various Artists - Krautrock 3 - Original Album Series (2017) {5CD Set Warner Music 5054197-4297-2-9 - Remastered}


Disc 5 (Dennis - Hyperthalamus)
01 - Do Your Own Thing [07:18]
02 - Others Do [05:43]
03 - Already [04:58]
04 - Grey Present Tense [19:07]

Various Artists - Krautrock 3 - Original Album Series (2017) {5CD Set Warner Music 5054197-4297-2-9 - Remastered}


Exact Audio Copy V1.3 from 2. September 2016

EAC extraction logfile from 3. May 2017, 12:03

Doldinger's Motherhood / Motherhood

Used drive : ASUS BW-12D1S-U Adapter: 1 ID: 1

Read mode : Secure
Utilize accurate stream : Yes
Defeat audio cache : Yes
Make use of C2 pointers : No

Read offset correction : 667
Overread into Lead-In and Lead-Out : No
Fill up missing offset samples with silence : Yes
Delete leading and trailing silent blocks : No
Null samples used in CRC calculations : Yes
Used interface : Native Win32 interface for Win NT & 2000
Gap handling : Appended to previous track

Used output format : User Defined Encoder
Selected bitrate : 1024 kBit/s
Quality : High
Add ID3 tag : No
Command line compressor : C:\Program Files (x86)\Music Codec\flac1.3.2\win64\flac.exe
Additional command line options : -8 -V -T "ARTIST=%artist%" -T "TITLE=%title%" -T "ALBUM=%albumtitle%" -T "DATE=%year%" -T "TRACKNUMBER=%tracknr%" -T "TOTALTRACKS=%numtracks%" -T "GENRE=%genre%" -T "ALBUMARTIST=%albumartist%" -T "ALBUM ARTIST=%albumartist%" -T "COMMENT=EAC Secure Mode, Test & Copy, AccurateRip, FLAC -8" %source%


TOC of the extracted CD

Track | Start | Length | Start sector | End sector
––––––––––––––––––––––––––––-
1 | 0:00.00 | 8:26.09 | 0 | 37958
2 | 8:26.09 | 7:00.07 | 37959 | 69465
3 | 15:26.16 | 1:11.48 | 69466 | 74838
4 | 16:37.64 | 3:54.60 | 74839 | 92448
5 | 20:32.49 | 2:53.63 | 92449 | 105486
6 | 23:26.37 | 6:50.49 | 105487 | 136285
7 | 30:17.11 | 4:34.23 | 136286 | 156858


Track 1

Filename H:\3. my rip in preparation\New\Tilzzy\CD1\01 - Devil Don't Get Me.wav

Pre-gap length 0:00:02.00

Peak level 88.2 %
Extraction speed 5.0 X
Track quality 100.0 %
Test CRC 74278E0F
Copy CRC 74278E0F
Track not present in AccurateRip database
Copy OK

Track 2

Filename H:\3. my rip in preparation\New\Tilzzy\CD1\02 - Song of Dying.wav

Pre-gap length 0:00:02.09

Peak level 87.8 %
Extraction speed 5.8 X
Track quality 100.0 %
Test CRC EEA9C8C1
Copy CRC EEA9C8C1
Track not present in AccurateRip database
Copy OK

Track 3

Filename H:\3. my rip in preparation\New\Tilzzy\CD1\03 - Circus Polka.wav

Pre-gap length 0:00:02.44

Peak level 88.5 %
Extraction speed 4.5 X
Track quality 100.0 %
Test CRC C0199B1F
Copy CRC C0199B1F
Track not present in AccurateRip database
Copy OK

Track 4

Filename H:\3. my rip in preparation\New\Tilzzy\CD1\04 - Men's Quarrel.wav

Pre-gap length 0:00:03.26

Peak level 87.8 %
Extraction speed 6.0 X
Track quality 100.0 %
Test CRC F00BA6FD
Copy CRC F00BA6FD
Track not present in AccurateRip database
Copy OK

Track 5

Filename H:\3. my rip in preparation\New\Tilzzy\CD1\05 - Turning Around.wav

Pre-gap length 0:00:02.00

Peak level 88.3 %
Extraction speed 6.0 X
Track quality 100.0 %
Test CRC EF99A51B
Copy CRC EF99A51B
Track not present in AccurateRip database
Copy OK

Track 6

Filename H:\3. my rip in preparation\New\Tilzzy\CD1\06 - Degeneration.wav

Pre-gap length 0:00:02.58

Peak level 87.0 %
Extraction speed 6.6 X
Track quality 99.9 %
Test CRC 7A459932
Copy CRC 7A459932
Track not present in AccurateRip database
Copy OK

Track 7

Filename H:\3. my rip in preparation\New\Tilzzy\CD1\07 - Yesterday's Song.wav

Pre-gap length 0:00:02.00

Peak level 88.3 %
Extraction speed 7.2 X
Track quality 100.0 %
Test CRC 0023AC06
Copy CRC 0023AC06
Track not present in AccurateRip database
Copy OK


None of the tracks are present in the AccurateRip database

No errors occurred

End of status report

–– CUETools DB Plugin V2.1.6

[CTDB TOCID: ysxDqJFhU3xXxrOOq27xQvVWBfE-] disk not present in database
Submit result: ysxDqJFhU3xXxrOOq27xQvVWBfE- has been uploaded


==== Log checksum 1506DE18EF13184CF82E54E763887B7E7FB248E77188514166BF1ECD20DEAFDE ====

Exact Audio Copy V1.3 from 2. September 2016

EAC extraction logfile from 3. May 2017, 13:05

Popol Vuh / Das Hohelied Salomos

Used drive : ASUS BW-12D1S-U Adapter: 1 ID: 1

Read mode : Secure
Utilize accurate stream : Yes
Defeat audio cache : Yes
Make use of C2 pointers : No

Read offset correction : 667
Overread into Lead-In and Lead-Out : No
Fill up missing offset samples with silence : Yes
Delete leading and trailing silent blocks : No
Null samples used in CRC calculations : Yes
Used interface : Native Win32 interface for Win NT & 2000
Gap handling : Appended to previous track

Used output format : User Defined Encoder
Selected bitrate : 1024 kBit/s
Quality : High
Add ID3 tag : No
Command line compressor : C:\Program Files (x86)\Music Codec\flac1.3.2\win64\flac.exe
Additional command line options : -8 -V -T "ARTIST=%artist%" -T "TITLE=%title%" -T "ALBUM=%albumtitle%" -T "DATE=%year%" -T "TRACKNUMBER=%tracknr%" -T "TOTALTRACKS=%numtracks%" -T "GENRE=%genre%" -T "ALBUMARTIST=%albumartist%" -T "ALBUM ARTIST=%albumartist%" -T "COMMENT=EAC Secure Mode, Test & Copy, AccurateRip, FLAC -8" %source%


TOC of the extracted CD

Track | Start | Length | Start sector | End sector
––––––––––––––––––––––––––––-
1 | 0:00.00 | 4:45.17 | 0 | 21391
2 | 4:45.17 | 4:30.44 | 21392 | 41685
3 | 9:15.61 | 1:35.12 | 41686 | 48822
4 | 10:50.73 | 3:00.74 | 48823 | 62396
5 | 13:51.72 | 3:27.38 | 62397 | 77959
6 | 17:19.35 | 3:43.32 | 77960 | 94716
7 | 21:02.67 | 3:36.69 | 94717 | 110985
8 | 24:39.61 | 3:48.64 | 110986 | 128149
9 | 28:28.50 | 4:57.41 | 128150 | 150465


Track 1

Filename H:\3. my rip in preparation\New\Tilzzy\CD2\01 - Steh auf, zieh mich dir nach.wav

Pre-gap length 0:00:02.00

Peak level 100.0 %
Extraction speed 4.6 X
Track quality 100.0 %
Test CRC ED2F5822
Copy CRC ED2F5822
Track not present in AccurateRip database
Copy OK

Track 2

Filename H:\3. my rip in preparation\New\Tilzzy\CD2\02 - Du schonste der weiber.wav

Pre-gap length 0:00:02.00

Peak level 95.7 %
Extraction speed 4.6 X
Track quality 99.9 %
Test CRC F6BEA489
Copy CRC F6BEA489
Track not present in AccurateRip database
Copy OK

Track 3

Filename H:\3. my rip in preparation\New\Tilzzy\CD2\03 - In den nachten auf den gassen I.wav

Pre-gap length 0:00:02.00

Peak level 96.2 %
Extraction speed 4.4 X
Track quality 100.0 %
Test CRC 80B4E0CD
Copy CRC 80B4E0CD
Track not present in AccurateRip database
Copy OK

Track 4

Filename H:\3. my rip in preparation\New\Tilzzy\CD2\04 - Du sohn Davids I.wav

Pre-gap length 0:00:02.00

Peak level 94.0 %
Extraction speed 5.3 X
Track quality 100.0 %
Test CRC FCE84E72
Copy CRC FCE84E72
Track not present in AccurateRip database
Copy OK

Track 5

Filename H:\3. my rip in preparation\New\Tilzzy\CD2\05 - In den nachten auf den gassen II.wav

Pre-gap length 0:00:02.00

Peak level 90.2 %
Extraction speed 5.0 X
Track quality 99.9 %
Test CRC 77E759BC
Copy CRC 77E759BC
Track not present in AccurateRip database
Copy OK

Track 6

Filename H:\3. my rip in preparation\New\Tilzzy\CD2\06 - Der winter ist vorbei.wav

Pre-gap length 0:00:02.00

Peak level 94.4 %
Extraction speed 5.3 X
Track quality 99.9 %
Test CRC 94F647A8
Copy CRC 94F647A8
Track not present in AccurateRip database
Copy OK

Track 7

Filename H:\3. my rip in preparation\New\Tilzzy\CD2\07 - Ja, deine liebe ist suser als wein.wav

Pre-gap length 0:00:02.00

Peak level 84.7 %
Extraction speed 6.3 X
Track quality 100.0 %
Test CRC 8BAC4BCE
Copy CRC 8BAC4BCE
Track not present in AccurateRip database
Copy OK

Track 8

Filename H:\3. my rip in preparation\New\Tilzzy\CD2\08 - Du sohn Davids II.wav

Pre-gap length 0:00:02.00

Peak level 85.7 %
Extraction speed 6.6 X
Track quality 100.0 %
Test CRC 34FFA68E
Copy CRC 34FFA68E
Track not present in AccurateRip database
Copy OK

Track 9

Filename H:\3. my rip in preparation\New\Tilzzy\CD2\09 - Du tranke mich mit deinen kussen.wav

Pre-gap length 0:00:02.00

Peak level 95.5 %
Extraction speed 7.1 X
Track quality 100.0 %
Test CRC 8A2946DD
Copy CRC 8A2946DD
Track not present in AccurateRip database
Copy OK


None of the tracks are present in the AccurateRip database

No errors occurred

End of status report

–– CUETools DB Plugin V2.1.6

[CTDB TOCID: 5m93zPNJqn5xmnguQQYWkovihCA-] disk not present in database
Submit result: 5m93zPNJqn5xmnguQQYWkovihCA- has been uploaded


==== Log checksum 4C204F71CB48FBB928D804C328AF1BF2E14F3822E242A42C2F8E27FE366F680E ====

Exact Audio Copy V1.3 from 2. September 2016

EAC extraction logfile from 3. May 2017, 13:30

Gila / Bury My Heart at Wounded Knee

Used drive : ASUS BW-12D1S-U Adapter: 1 ID: 1

Read mode : Secure
Utilize accurate stream : Yes
Defeat audio cache : Yes
Make use of C2 pointers : No

Read offset correction : 667
Overread into Lead-In and Lead-Out : No
Fill up missing offset samples with silence : Yes
Delete leading and trailing silent blocks : No
Null samples used in CRC calculations : Yes
Used interface : Native Win32 interface for Win NT & 2000
Gap handling : Appended to previous track

Used output format : User Defined Encoder
Selected bitrate : 1024 kBit/s
Quality : High
Add ID3 tag : No
Command line compressor : C:\Program Files (x86)\Music Codec\flac1.3.2\win64\flac.exe
Additional command line options : -8 -V -T "ARTIST=%artist%" -T "TITLE=%title%" -T "ALBUM=%albumtitle%" -T "DATE=%year%" -T "TRACKNUMBER=%tracknr%" -T "TOTALTRACKS=%numtracks%" -T "GENRE=%genre%" -T "ALBUMARTIST=%albumartist%" -T "ALBUM ARTIST=%albumartist%" -T "COMMENT=EAC Secure Mode, Test & Copy, AccurateRip, FLAC -8" %source%


TOC of the extracted CD

Track | Start | Length | Start sector | End sector
––––––––––––––––––––––––––––-
1 | 0:00.00 | 5:46.73 | 0 | 26022
2 | 5:46.73 | 4:42.33 | 26023 | 47205
3 | 10:29.31 | 4:12.17 | 47206 | 66122
4 | 14:41.48 | 3:19.39 | 66123 | 81086
5 | 18:01.12 | 7:18.09 | 81087 | 113945
6 | 25:19.21 | 4:24.51 | 113946 | 133796
7 | 29:43.72 | 5:05.38 | 133797 | 156709


Track 1

Filename H:\3. my rip in preparation\New\Tilzzy\CD3\01 - This Morning.wav

Pre-gap length 0:00:02.00

Peak level 89.1 %
Extraction speed 4.7 X
Track quality 100.0 %
Test CRC 04EF5BB2
Copy CRC 04EF5BB2
Track not present in AccurateRip database
Copy OK

Track 2

Filename H:\3. my rip in preparation\New\Tilzzy\CD3\02 - In a Sacred Manner.wav

Pre-gap length 0:00:02.00

Peak level 89.1 %
Extraction speed 5.2 X
Track quality 100.0 %
Test CRC 7C1C1DD7
Copy CRC 7C1C1DD7
Track not present in AccurateRip database
Copy OK

Track 3

Filename H:\3. my rip in preparation\New\Tilzzy\CD3\03 - Soundance Chant.wav

Pre-gap length 0:00:02.00

Peak level 89.1 %
Extraction speed 5.6 X
Track quality 100.0 %
Test CRC 630CBE8F
Copy CRC 630CBE8F
Track not present in AccurateRip database
Copy OK

Track 4

Filename H:\3. my rip in preparation\New\Tilzzy\CD3\04 - Young Coyote.wav

Pre-gap length 0:00:02.00

Peak level 89.1 %
Extraction speed 5.0 X
Track quality 99.9 %
Test CRC 33B430E2
Copy CRC 33B430E2
Track not present in AccurateRip database
Copy OK

Track 5

Filename H:\3. my rip in preparation\New\Tilzzy\CD3\05 - The Buffalo Are Coming.wav

Pre-gap length 0:00:02.00

Peak level 89.1 %
Extraction speed 6.7 X
Track quality 100.0 %
Test CRC 06ADB389
Copy CRC 06ADB389
Track not present in AccurateRip database
Copy OK

Track 6

Filename H:\3. my rip in preparation\New\Tilzzy\CD3\06 - Black Kettle's Ballad.wav

Pre-gap length 0:00:02.00

Peak level 89.1 %
Extraction speed 6.8 X
Track quality 100.0 %
Test CRC C73F1541
Copy CRC C73F1541
Track not present in AccurateRip database
Copy OK

Track 7

Filename H:\3. my rip in preparation\New\Tilzzy\CD3\07 - Little Smoke.wav

Peak level 89.1 %
Extraction speed 7.3 X
Track quality 100.0 %
Test CRC 6CA2E62A
Copy CRC 6CA2E62A
Track not present in AccurateRip database
Copy OK


None of the tracks are present in the AccurateRip database

No errors occurred

End of status report

–– CUETools DB Plugin V2.1.6

[CTDB TOCID: xDKyzw9Z1r2hSfs14qyHS1n5VkY-] disk not present in database
Submit result: xDKyzw9Z1r2hSfs14qyHS1n5VkY- has been uploaded


==== Log checksum 5D68F26A9E08B427C876580927EC78A14B8F6BCD5800FF00E4DEFB2C23ADFA22 ====

Exact Audio Copy V1.3 from 2. September 2016

EAC extraction logfile from 3. May 2017, 15:59

Diez & Bischof / Daybreak

Used drive : ASUS BW-12D1S-U Adapter: 1 ID: 1

Read mode : Secure
Utilize accurate stream : Yes
Defeat audio cache : Yes
Make use of C2 pointers : No

Read offset correction : 667
Overread into Lead-In and Lead-Out : No
Fill up missing offset samples with silence : Yes
Delete leading and trailing silent blocks : No
Null samples used in CRC calculations : Yes
Used interface : Native Win32 interface for Win NT & 2000
Gap handling : Appended to previous track

Used output format : User Defined Encoder
Selected bitrate : 1024 kBit/s
Quality : High
Add ID3 tag : No
Command line compressor : C:\Program Files (x86)\Music Codec\flac1.3.2\win64\flac.exe
Additional command line options : -8 -V -T "ARTIST=%artist%" -T "TITLE=%title%" -T "ALBUM=%albumtitle%" -T "DATE=%year%" -T "TRACKNUMBER=%tracknr%" -T "TOTALTRACKS=%numtracks%" -T "GENRE=%genre%" -T "ALBUMARTIST=%albumartist%" -T "ALBUM ARTIST=%albumartist%" -T "COMMENT=EAC Secure Mode, Test & Copy, AccurateRip, FLAC -8" %source%


TOC of the extracted CD

Track | Start | Length | Start sector | End sector
––––––––––––––––––––––––––––-
1 | 0:00.00 | 3:39.61 | 0 | 16485
2 | 3:39.61 | 3:52.30 | 16486 | 33915
3 | 7:32.16 | 3:22.08 | 33916 | 49073
4 | 10:54.24 | 2:49.09 | 49074 | 61757
5 | 13:43.33 | 3:34.70 | 61758 | 77877
6 | 17:18.28 | 2:54.21 | 77878 | 90948
7 | 20:12.49 | 3:33.53 | 90949 | 106976
8 | 23:46.27 | 3:44.42 | 106977 | 123818
9 | 27:30.69 | 4:54.16 | 123819 | 145884
10 | 32:25.10 | 5:31.23 | 145885 | 170732


Track 1

Filename H:\3. my rip in preparation\New\Tilzzy\CD4\01 - Daybreak.wav

Pre-gap length 0:00:02.00

Peak level 95.3 %
Extraction speed 4.3 X
Track quality 100.0 %
Test CRC 08CD0850
Copy CRC 08CD0850
Track not present in AccurateRip database
Copy OK

Track 2

Filename H:\3. my rip in preparation\New\Tilzzy\CD4\02 - Out of My Mind.wav

Pre-gap length 0:00:02.80

Peak level 92.8 %
Extraction speed 4.3 X
Track quality 99.9 %
Test CRC 8C219B07
Copy CRC 8C219B07
Track not present in AccurateRip database
Copy OK

Track 3

Filename H:\3. my rip in preparation\New\Tilzzy\CD4\03 - The Day Looks Good.wav

Pre-gap length 0:00:01.98

Peak level 94.2 %
Extraction speed 5.1 X
Track quality 100.0 %
Test CRC 73CEEE1E
Copy CRC 73CEEE1E
Track not present in AccurateRip database
Copy OK

Track 4

Filename H:\3. my rip in preparation\New\Tilzzy\CD4\04 - I Just Killed a Stranger.wav

Pre-gap length 0:00:01.98

Peak level 90.2 %
Extraction speed 5.2 X
Track quality 100.0 %
Test CRC 82ACF9BA
Copy CRC 82ACF9BA
Track not present in AccurateRip database
Copy OK

Track 5

Filename H:\3. my rip in preparation\New\Tilzzy\CD4\05 - Time Passed By.wav

Pre-gap length 0:00:01.98

Peak level 91.7 %
Extraction speed 5.7 X
Track quality 100.0 %
Test CRC EFF808EA
Copy CRC EFF808EA
Track not present in AccurateRip database
Copy OK

Track 6

Filename H:\3. my rip in preparation\New\Tilzzy\CD4\06 - Turnaround.wav

Pre-gap length 0:00:01.98

Peak level 94.9 %
Extraction speed 4.9 X
Track quality 99.9 %
Test CRC E07DECD1
Copy CRC E07DECD1
Track not present in AccurateRip database
Copy OK

Track 7

Filename H:\3. my rip in preparation\New\Tilzzy\CD4\07 - Skyman.wav

Pre-gap length 0:00:02.48

Peak level 87.9 %
Extraction speed 6.2 X
Track quality 100.0 %
Test CRC 13C40490
Copy CRC 13C40490
Track not present in AccurateRip database
Copy OK

Track 8

Filename H:\3. my rip in preparation\New\Tilzzy\CD4\08 - Stealing the Show.wav

Peak level 94.3 %
Extraction speed 6.5 X
Track quality 100.0 %
Test CRC DCE268B1
Copy CRC DCE268B1
Track not present in AccurateRip database
Copy OK

Track 9

Filename H:\3. my rip in preparation\New\Tilzzy\CD4\09 - Salon Imaginaire.wav

Pre-gap length 0:00:01.98

Peak level 84.5 %
Extraction speed 7.0 X
Track quality 100.0 %
Test CRC 0AA344E1
Copy CRC 0AA344E1
Track not present in AccurateRip database
Copy OK

Track 10

Filename H:\3. my rip in preparation\New\Tilzzy\CD4\10 - Stars in My Eyes.wav

Pre-gap length 0:00:01.98

Peak level 94.9 %
Extraction speed 7.5 X
Track quality 100.0 %
Test CRC F1A5EE66
Copy CRC F1A5EE66
Track not present in AccurateRip database
Copy OK


None of the tracks are present in the AccurateRip database

No errors occurred

End of status report

–– CUETools DB Plugin V2.1.6

[CTDB TOCID: Kt0a2bmYGZH_NyKZCr6d_1POloE-] disk not present in database
Submit result: Kt0a2bmYGZH_NyKZCr6d_1POloE- has been uploaded


==== Log checksum C329ED544AB6498E3CED46212BC76232CDB22E83980FAF321AE87221C38A3AE0 ====

Exact Audio Copy V1.3 from 2. September 2016

EAC extraction logfile from 3. May 2017, 16:18

Dennis / Hyperthalamus

Used drive : ASUS BW-12D1S-U Adapter: 1 ID: 1

Read mode : Secure
Utilize accurate stream : Yes
Defeat audio cache : Yes
Make use of C2 pointers : No

Read offset correction : 667
Overread into Lead-In and Lead-Out : No
Fill up missing offset samples with silence : Yes
Delete leading and trailing silent blocks : No
Null samples used in CRC calculations : Yes
Used interface : Native Win32 interface for Win NT & 2000
Gap handling : Appended to previous track

Used output format : User Defined Encoder
Selected bitrate : 1024 kBit/s
Quality : High
Add ID3 tag : No
Command line compressor : C:\Program Files (x86)\Music Codec\flac1.3.2\win64\flac.exe
Additional command line options : -8 -V -T "ARTIST=%artist%" -T "TITLE=%title%" -T "ALBUM=%albumtitle%" -T "DATE=%year%" -T "TRACKNUMBER=%tracknr%" -T "TOTALTRACKS=%numtracks%" -T "GENRE=%genre%" -T "ALBUMARTIST=%albumartist%" -T "ALBUM ARTIST=%albumartist%" -T "COMMENT=EAC Secure Mode, Test & Copy, AccurateRip, FLAC -8" %source%


TOC of the extracted CD

Track | Start | Length | Start sector | End sector
––––––––––––––––––––––––––––-
1 | 0:00.00 | 7:18.53 | 0 | 32902
2 | 7:18.53 | 5:43.11 | 32903 | 58638
3 | 13:01.64 | 4:58.01 | 58639 | 80989
4 | 17:59.65 | 19:07.43 | 80990 | 167057


Track 1

Filename H:\3. my rip in preparation\New\Tilzzy\CD5\01 - Do Your Own Thing.wav

Pre-gap length 0:00:02.00

Peak level 89.0 %
Extraction speed 4.9 X
Track quality 100.0 %
Test CRC C4ED6D8C
Copy CRC C4ED6D8C
Track not present in AccurateRip database
Copy OK

Track 2

Filename H:\3. my rip in preparation\New\Tilzzy\CD5\02 - Others Do.wav

Pre-gap length 0:00:02.00

Peak level 89.0 %
Extraction speed 5.6 X
Track quality 100.0 %
Test CRC 47682E84
Copy CRC 47682E84
Track not present in AccurateRip database
Copy OK

Track 3

Filename H:\3. my rip in preparation\New\Tilzzy\CD5\03 - Already.wav

Peak level 89.3 %
Extraction speed 6.0 X
Track quality 100.0 %
Test CRC 3926A628
Copy CRC 3926A628
Track not present in AccurateRip database
Copy OK

Track 4

Filename H:\3. my rip in preparation\New\Tilzzy\CD5\04 - Grey Present Tense.wav

Pre-gap length 0:00:02.00

Peak level 89.3 %
Extraction speed 7.5 X
Track quality 100.0 %
Test CRC 80585EAB
Copy CRC 80585EAB
Track not present in AccurateRip database
Copy OK


None of the tracks are present in the AccurateRip database

No errors occurred

End of status report

–– CUETools DB Plugin V2.1.6

[CTDB TOCID: cyfQpP9o16kFljgWvpcNe8hRzqU-] disk not present in database
Submit result: cyfQpP9o16kFljgWvpcNe8hRzqU- has been uploaded


==== Log checksum F60DBD3573482D6760110969774D9C3FAB890B419E152636C086BB3C9A398211 ====


Various Artists - Krautrock 3 - Original Album Series (2017) {5CD Set Warner Music 5054197-4297-2-9 - Remastered}

Various Artists - Krautrock 3 - Original Album Series (2017) {5CD Set Warner Music 5054197-4297-2-9 - Remastered}

Various Artists - Krautrock 3 - Original Album Series (2017) {5CD Set Warner Music 5054197-4297-2-9 - Remastered}



===