Subcategories

Various Artists - Let Me Tell You About The Blues - West Coast: The Evolution Of West Coast Blues (2010) {3 CD Box Set}

Posted By: ruskaval
Various Artists - Let Me Tell You About The Blues - West Coast: The Evolution Of West Coast Blues (2010) {3 CD Box Set}

Various Artists - Let Me Tell You About The Blues - West Coast: The Evolution Of West Coast Blues (2010) {3 CD Box Set}
EAC rip (secure mode) | FLAC (tracks)+CUE+LOG -> 567 Mb | MP3 @320 -> 438 Mb
Full Artwork @ 300 dpi (png) -> 126 Mb | 5% repair rar
© 2010 Fantastic Voyage / Future Noise Music Ltd. | FVTD062
Blues / Regional Blues

California experienced a phenomenal growth in independent recording in the postwar years, after decades of dominance by the major labels. Millions had flocked there during the war years and they needed entertainment.
Various Artists - Let Me Tell You About The Blues - West Coast: The Evolution Of West Coast Blues (2010) {3 CD Box Set}

It all began with ‘The GI Sing-sation’, Cecil Gant and his ‘I Wonder’, a blues ballad that caught the public’s imagination. It was also a time for downsizing; the full Johnny Otis Orchestra backed Jimmy Rushing singing ‘Jimmy’s Round The Clock Blues’ but such aggregations quickly broke up and the trend was for small quintets led by the likes of Joe Liggins (‘The Honeydripper’), Saunders King (‘SK Blues’), Buddy Banks (‘Fluffy’s Debut’), Jack McVea (‘Open The Door Richard’) and Roy Milton (‘R.M. Blues’). Charles Brown (‘Drifting Blues’), Jimmy Witherspoon (‘Ain’t Nobody’s Business’) and T-Bone Walker (‘Call It Stormy Monday’) set the fashion for cool, laidback blues, while Gene Phillips (‘Stinkin’ Drunk’), Amos Milburn (‘Chicken Shack Boogie’), Joe Lutcher (‘Rockin’ Boogie’) and Jimmy Liggins (‘Cadillac Boogie’) added a little heat to the pot. After Big Jay McNeely’s ‘The Deacon’s Hop’ and Wild Bill Moore’s ‘Rock And Roll’, honking sax instrumentals became a major sales incentive. The market was crowded with pianist/singers like Little Willie Littlefield (‘It’s Midnight’), Ivory Joe Hunter (‘I Almost Lost My Mind’), Jimmy McCracklin (‘Beer Drinkin’ Woman’), Roy Hawkins (‘Why Do Everything Happen To Me’) and a young Ray Charles (‘Late In The Evening Blues’).

As the 1950s began, rhythm and blues took centre stage, preparing the ground for the advent of rock’n’roll. Percy Mayfield (‘The River’s Invitation’) remained cool but newcomers like Lloyd Price (‘Lawdy Miss Clawdy’), Young John Watson (‘Motorhead Baby’), Willie Mae Thornton (‘Hound Dog’), Etta James (‘The Wallflower’) and Linda Hopkins (‘Yes I Know’) sang to a stronger beat. Meanwhile, the blues had not been forgotten, Pee Wee Crayton (‘When It Rains It Pours’), Jimmy Wilson (‘Tin Pan Alley’), James Reed (‘Things Ain’t What They Used To Be’) and Johnny Fuller (‘Roughest Place In Town’) could still stir the emotions. Saxophonists still made the charts but as an indication of what was to come, guitarists like Pete ‘Guitar’ Lewis (‘Louisiana Hop’) and Jimmy Nolen (‘Strollin’ With Nolen’) also found themselves popular. By 1956, the year of Jimmy McCracklin’s ‘Savoy’s Jump’, rock’n’roll had knocked down the door. Public taste was changing and within a couple of years the music celebrated here was old-fashioned and passed by.
Various Artists - Let Me Tell You About The Blues - West Coast: The Evolution Of West Coast Blues (2010) {3 CD Box Set}


Personnel & Tracklist:

Disc 1:


01. T-Bone Walker / Mean Old World - 02:58
02. Saunders King / SK Blues (Part 1) - 03:33
03. Cecil Gant / I Wonder - 03:41
04. The Blues Man (George Vann) / My Baby's Blues - 03:23
05. Joe Liggins / The Honeydripper (Part 1) - 03:37
06. Charles Brown / Drifting Blues - 03:17
07. Johnny Otis Orchestra / Jimmy's Round The Clock Blues - 03:14
08. Jim Wynn's Bobalibans / Shipyard Woman - 03:01
09. Johnny Alston Orchestra / Everything Will Be All Right - 02:38
10. Alton Redd / When The Sun Goes Down - 02:52
11. Buddy Banks Sextet / Fluffy's Debut - 02:35
12. Camille Howard with Roy Milton and his Solid Senders / Groovy Blues - 02:40
13. Roy Milton / RM Blues - 03:02
14. Big Joe Turner / My Gal's A Jockey - 03:19
15. Lowell Fulson / Crying Blues - 02:40
16. Gene Phillips / Stinkin' Drunk - 03:04
17. Jack McVea's All Stars / Open The Door Richard - 02:59
18. Helen Humes / Be Ba Ba Le Ba Boogie - 02:47
19. Joe Lutcher / Rockin' Boogie - 02:30
20. T-Bone Walker / Call It Stormy Monday - 03:05
21. Little Willie Jackson / Jackson's Boogie - 02:51
22. Julia Lee / I Didn't Like It The First Time - 03:04
23. Jimmy Witherspoon / Ain't Nobody's Business (Part 1) - 03:00
24. Amos Milburn / Chicken Shack Boogie - 02:53
25. Crown Prince Waterford / Move Your Hand Baby - 02:24

Playing time…1:15:07

Various Artists - Let Me Tell You About The Blues - West Coast: The Evolution Of West Coast Blues (2010) {3 CD Box Set}


Disc 2:

01. Jimmy Liggins / Cadillac Boogie - 02:42
02. Edgar Hayes / Fat Meat 'n' Greens - 02:31
03. King Perry Orchestra / Let 'Em Roll Blues - 03:02
04. Vivianne Green / Bowlegged Boogie - 03:08
05. Big Jay McNeely / The Deacon's Hop - 02:53
06. Wild Bill Moore / Rock And Roll - 02:53
07. Floyd Dixon / Drafting Blues - 03:11
08. Little Willie Littlefield / It's Midnight (No Place To Go) - 03:00
09. Johnny Moore's Three Blazers / Walkin' Blues - 02:59
10. Ivory Joe Hunter / I Almost Lost My Mind - 03:14
11. Johnny Otis, Little Esther, The Robins / Double Crossing Blues - 02:51
12. Roy Hawkins / Why Do Everything Happen To Me - 03:01
13. Jimmy McCracklin / Beer Drinkin' Woman - 03:02
14. Calvin Boze and his All-Stars / Safronia B - 02:26
15. King Perry and his Pied Pipers / Everything's Gonna Be Alright - 02:33
16. T-Bone Walker / Glamor Girl - 02:46
17. Ray Charles / Late In The Evening Blues - 03:08
18. Helen Humes / Million Dollar Secret - 03:13
19. Percy Mayfield / Please Send Me Someone To Love - 02:57
20. Charles Brown / Black Night - 03:09
21. Lowell Fulson / Every Day I Have The Blues - 02:34
22. Roy Hawkins / The Thrill Is Gone - 02:53
23. Peppermint Harris / I Got Loaded - 02:32
24. Jimmy Nelson / 'T-99' Blues - 03:10
25. Fluffy Hunter / The Walkin' Blues - 02:55

Playing time…1:12:43

Various Artists - Let Me Tell You About The Blues - West Coast: The Evolution Of West Coast Blues (2010) {3 CD Box Set}


Disc 3:

01. Pee Wee Crayton / When It Rains It Pours - 03:05
02. Pete 'Guitar' Lewis / Louisiana Hop - 02:36
03. Little Ester / Better Beware - 02:40
04. Percy Mayfield / The River's Invitation - 02:55
05. Lloyd Price / Lawdy Miss Clawdy - 02:35
06. Mabel Scott / Walkin' Daddy - 02:54
07. Johnn Otis and Mel Walker / Call Operator 210 - 03:11
08. Willie Mae Thornton / Hound Dog - 02:54
09. Little Willie Littlefield / K.C. Lovin' - 02:42
10. Amos Milburn / Let Me Go Home Whiskey - 02:51
11. Jimmy Witherspoon / Jay's Blues (Part 1) - 02:39
12. Linda Hayes / Yes I Know - 02:52
13. Young John Watson / Motorhead Baby - 02:38
14. Jimmy Wilson / Tin Pan Alley - 03:11
15. Oscar McLollie / The Honey Jump (Part 1) - 02:25
16. Effie Smith / Cry Baby Cry - 02:42
17. T-Bone Walker / Strugglin' Blues - 02:35
18. James Reed / Things Ain't What They Used To Be - 02:40
19. Jimmy Liggins / I Ain't Drunk - 02:27
20. Daddy Cleanhead / Something's Goin' On In My Room - 02:16
21. Johnny Fuller / Roughest Place In Town - 02:48
22. Etta James / The Wallflower - 03:01
23. Peppermint Harris / Cadillac Funeral - 01:59
24. Jimmy Nolen / Strollin' With Nolen - 02:27
25. Jimmy McCracklin / Savoy's Jump - 03:09

Playing time…1:08:11

Various Artists - Let Me Tell You About The Blues - West Coast: The Evolution Of West Coast Blues (2010) {3 CD Box Set}


Exact Audio Copy V1.0 beta 3 from 29. August 2011

EAC extraction logfile from 15. December 2012, 12:36

Various Artists / Let Me Tell You About the Blues, West Coast [Disc 1 of 3]

Used drive : HL-DT-STDVDRAM GT51N Adapter: 0 ID: 1

Read mode : Secure
Utilize accurate stream : Yes
Defeat audio cache : Yes
Make use of C2 pointers : No

Read offset correction : 103
Overread into Lead-In and Lead-Out : No
Fill up missing offset samples with silence : Yes
Delete leading and trailing silent blocks : No
Null samples used in CRC calculations : Yes
Used interface : Native Win32 interface for Win NT & 2000
Gap handling : Appended to previous track

Used output format : User Defined Encoder
Selected bitrate : 32 kBit/s
Quality : High
Add ID3 tag : No
Command line compressor : C:\Exact Audio Copy\FLAC\FLAC.EXE
Additional command line options : -5 -V -T "ARTIST=%artist%" -T "TITLE=%title%" -T "ALBUM=%albumtitle%" -T "DATE=%year%" -T "TRACKNUMBER=%tracknr%" -T "TOTALTRACKS=%numtracks%" -T "GENRE=%genre%" -T "ALBUM ARTIST=%albumartist%" -T "ALBUMARTIST=%albumartist%" -T "COMMENT=Secure Mode, Test and Copy, AccurateRip, FLAC -5" %source%


TOC of the extracted CD

Track | Start | Length | Start sector | End sector
––––––––––––––––––––––––––––-
1 | 0:00.00 | 2:57.51 | 0 | 13325
2 | 2:57.51 | 3:32.43 | 13326 | 29268
3 | 6:30.19 | 3:40.64 | 29269 | 45832
4 | 10:11.08 | 3:22.52 | 45833 | 61034
5 | 13:33.60 | 3:37.10 | 61035 | 77319
6 | 17:10.70 | 3:17.03 | 77320 | 92097
7 | 20:27.73 | 3:14.01 | 92098 | 106648
8 | 23:41.74 | 3:01.10 | 106649 | 120233
9 | 26:43.09 | 2:37.51 | 120234 | 132059
10 | 29:20.60 | 2:52.31 | 132060 | 144990
11 | 32:13.16 | 2:34.59 | 144991 | 156599
12 | 34:48.00 | 2:40.21 | 156600 | 168620
13 | 37:28.21 | 3:02.11 | 168621 | 182281
14 | 40:30.32 | 3:18.74 | 182282 | 197205
15 | 43:49.31 | 2:39.39 | 197206 | 209169
16 | 46:28.70 | 3:04.17 | 209170 | 222986
17 | 49:33.12 | 2:59.34 | 222987 | 236445
18 | 52:32.46 | 2:47.22 | 236446 | 248992
19 | 55:19.68 | 2:30.11 | 248993 | 260253
20 | 57:50.04 | 3:05.10 | 260254 | 274138
21 | 60:55.14 | 2:51.37 | 274139 | 287000
22 | 63:46.51 | 3:03.54 | 287001 | 300779
23 | 66:50.30 | 3:00.30 | 300780 | 314309
24 | 69:50.60 | 2:53.08 | 314310 | 327292
25 | 72:43.68 | 2:23.70 | 327293 | 338087


Track 1

Filename C:\temp\01 - T-Bone Walker - Mean Old World.wav

Pre-gap length 0:00:02.00

Peak level 100.0 %
Extraction speed 2.8 X
Track quality 100.0 %
Test CRC 488B3C98
Copy CRC 488B3C98
Track not present in AccurateRip database
Copy OK

Track 2

Filename C:\temp\02 - Saunders King - SK Blues (Part 1).wav

Peak level 85.9 %
Extraction speed 3.2 X
Track quality 100.0 %
Test CRC D86B086D
Copy CRC D86B086D
Track not present in AccurateRip database
Copy OK

Track 3

Filename C:\temp\03 - Cecil Gant - I Wonder.wav

Peak level 100.0 %
Extraction speed 3.4 X
Track quality 100.0 %
Test CRC 60F557D1
Copy CRC 60F557D1
Track not present in AccurateRip database
Copy OK

Track 4

Filename C:\temp\04 - The Blues Man (George Vann) - My Baby's Blues.wav

Peak level 100.0 %
Extraction speed 3.5 X
Track quality 100.0 %
Test CRC 7B662A6F
Copy CRC 7B662A6F
Track not present in AccurateRip database
Copy OK

Track 5

Filename C:\temp\05 - Joe Liggins - The Honeydripper (Part 1).wav

Peak level 100.0 %
Extraction speed 3.0 X
Track quality 99.9 %
Test CRC 25B685A8
Copy CRC 25B685A8
Track not present in AccurateRip database
Copy OK

Track 6

Filename C:\temp\06 - Charles Brown - Drifting Blues.wav

Peak level 100.0 %
Extraction speed 3.9 X
Track quality 100.0 %
Test CRC 5F9E7A43
Copy CRC 5F9E7A43
Track not present in AccurateRip database
Copy OK

Track 7

Filename C:\temp\07 - Johnny Otis Orchestra - Jimmy's Round The Clock Blues.wav

Peak level 100.0 %
Extraction speed 4.0 X
Track quality 100.0 %
Test CRC C031C88C
Copy CRC C031C88C
Track not present in AccurateRip database
Copy OK

Track 8

Filename C:\temp\08 - Jim Wynn's Bobalibans - Shipyard Woman.wav

Peak level 100.0 %
Extraction speed 4.2 X
Track quality 100.0 %
Test CRC AC667FB1
Copy CRC AC667FB1
Track not present in AccurateRip database
Copy OK

Track 9

Filename C:\temp\09 - Johnny Alston Orchestra - Everything Will Be All Right.wav

Peak level 63.6 %
Extraction speed 3.1 X
Track quality 99.9 %
Test CRC F1C4A408
Copy CRC F1C4A408
Track not present in AccurateRip database
Copy OK

Track 10

Filename C:\temp\10 - Alton Redd - When The Sun Goes Down.wav

Peak level 100.0 %
Extraction speed 4.4 X
Track quality 100.0 %
Test CRC EABAD193
Copy CRC EABAD193
Track not present in AccurateRip database
Copy OK

Track 11

Filename C:\temp\11 - Buddy Banks Sextet - Fluffy's Debut.wav

Peak level 100.0 %
Extraction speed 4.4 X
Track quality 100.0 %
Test CRC 4ED4FD8F
Copy CRC 4ED4FD8F
Track not present in AccurateRip database
Copy OK

Track 12

Filename C:\temp\12 - Camille Howard with Roy Milton and his Solid Senders - Groovy Blues.wav

Peak level 78.2 %
Extraction speed 4.4 X
Track quality 100.0 %
Test CRC E756C9EE
Copy CRC E756C9EE
Track not present in AccurateRip database
Copy OK

Track 13

Filename C:\temp\13 - Roy Milton - RM Blues.wav

Peak level 83.7 %
Extraction speed 4.7 X
Track quality 100.0 %
Test CRC 9DC58F1F
Copy CRC 9DC58F1F
Track not present in AccurateRip database
Copy OK

Track 14

Filename C:\temp\14 - Big Joe Turner - My Gal's A Jockey.wav

Peak level 100.0 %
Extraction speed 4.7 X
Track quality 100.0 %
Test CRC DF5BCF36
Copy CRC DF5BCF36
Track not present in AccurateRip database
Copy OK

Track 15

Filename C:\temp\15 - Lowell Fulson - Crying Blues.wav

Peak level 97.5 %
Extraction speed 5.0 X
Track quality 100.0 %
Test CRC 8144CFB2
Copy CRC 8144CFB2
Track not present in AccurateRip database
Copy OK

Track 16

Filename C:\temp\16 - Gene Phillips - Stinkin' Drunk.wav

Peak level 99.5 %
Extraction speed 3.9 X
Track quality 99.9 %
Test CRC 0BACCE4D
Copy CRC 0BACCE4D
Track not present in AccurateRip database
Copy OK

Track 17

Filename C:\temp\17 - Jack McVea's All Stars - Open The Door Richard.wav

Peak level 100.0 %
Extraction speed 5.3 X
Track quality 100.0 %
Test CRC 9793C484
Copy CRC 9793C484
Track not present in AccurateRip database
Copy OK

Track 18

Filename C:\temp\18 - Helen Humes - Be Ba Ba Le Ba Boogie.wav

Peak level 83.0 %
Extraction speed 3.9 X
Track quality 99.9 %
Test CRC 19F25970
Copy CRC 19F25970
Track not present in AccurateRip database
Copy OK

Track 19

Filename C:\temp\19 - Joe Lutcher - Rockin' Boogie.wav

Peak level 100.0 %
Extraction speed 5.3 X
Track quality 100.0 %
Test CRC 8C742A4E
Copy CRC 8C742A4E
Track not present in AccurateRip database
Copy OK

Track 20

Filename C:\temp\20 - T-Bone Walker - Call It Stormy Monday.wav

Peak level 98.6 %
Extraction speed 5.4 X
Track quality 100.0 %
Test CRC B9210396
Copy CRC B9210396
Track not present in AccurateRip database
Copy OK

Track 21

Filename C:\temp\21 - Little Willie Jackson - Jackson's Boogie.wav

Peak level 68.2 %
Extraction speed 5.5 X
Track quality 100.0 %
Test CRC E78B6C53
Copy CRC E78B6C53
Track not present in AccurateRip database
Copy OK

Track 22

Filename C:\temp\22 - Julia Lee - I Didn't Like It The First Time.wav

Peak level 96.4 %
Extraction speed 5.2 X
Track quality 100.0 %
Test CRC E08C61DA
Copy CRC E08C61DA
Track not present in AccurateRip database
Copy OK

Track 23

Filename C:\temp\23 - Jimmy Witherspoon - Ain't Nobody's Business (Part 1).wav

Peak level 76.1 %
Extraction speed 4.0 X
Track quality 100.0 %
Test CRC F9CCFD76
Copy CRC F9CCFD76
Track not present in AccurateRip database
Copy OK

Track 24

Filename C:\temp\24 - Amos Milburn - Chicken Shack Boogie.wav

Peak level 96.1 %
Extraction speed 4.0 X
Track quality 100.0 %
Test CRC 8DDA45E5
Copy CRC 8DDA45E5
Track not present in AccurateRip database
Copy OK

Track 25

Filename C:\temp\25 - Crown Prince Waterford - Move Your Hand Baby.wav

Peak level 100.0 %
Extraction speed 3.9 X
Track quality 100.0 %
Test CRC 476DA302
Copy CRC 476DA302
Track not present in AccurateRip database
Copy OK


None of the tracks are present in the AccurateRip database

No errors occurred

End of status report

==== Log checksum 537C6FF9FEA2874CBF3BD402104B0FA0C339DD4E992E17C7812272CFE60969EF ====
Exact Audio Copy V1.0 beta 3 from 29. August 2011

EAC extraction logfile from 15. December 2012, 14:08

Various Artists / Let Me Tell You About the Blues, West Coast [Disc 2 of 3]

Used drive : HL-DT-STDVDRAM GT51N Adapter: 0 ID: 1

Read mode : Secure
Utilize accurate stream : Yes
Defeat audio cache : Yes
Make use of C2 pointers : No

Read offset correction : 103
Overread into Lead-In and Lead-Out : No
Fill up missing offset samples with silence : Yes
Delete leading and trailing silent blocks : No
Null samples used in CRC calculations : Yes
Used interface : Native Win32 interface for Win NT & 2000
Gap handling : Appended to previous track

Used output format : User Defined Encoder
Selected bitrate : 32 kBit/s
Quality : High
Add ID3 tag : No
Command line compressor : C:\Exact Audio Copy\FLAC\FLAC.EXE
Additional command line options : -5 -V -T "ARTIST=%artist%" -T "TITLE=%title%" -T "ALBUM=%albumtitle%" -T "DATE=%year%" -T "TRACKNUMBER=%tracknr%" -T "TOTALTRACKS=%numtracks%" -T "GENRE=%genre%" -T "ALBUM ARTIST=%albumartist%" -T "ALBUMARTIST=%albumartist%" -T "COMMENT=Secure Mode, Test and Copy, AccurateRip, FLAC -5" %source%


TOC of the extracted CD

Track | Start | Length | Start sector | End sector
––––––––––––––––––––––––––––-
1 | 0:00.00 | 2:41.57 | 0 | 12131
2 | 2:41.57 | 2:31.29 | 12132 | 23485
3 | 5:13.11 | 3:02.28 | 23486 | 37163
4 | 8:15.39 | 3:08.03 | 37164 | 51266
5 | 11:23.42 | 2:52.44 | 51267 | 64210
6 | 14:16.11 | 2:53.20 | 64211 | 77205
7 | 17:09.31 | 3:11.06 | 77206 | 91536
8 | 20:20.37 | 2:59.47 | 91537 | 105008
9 | 23:20.09 | 2:59.06 | 105009 | 118439
10 | 26:19.15 | 3:13.47 | 118440 | 132961
11 | 29:32.62 | 2:50.69 | 132962 | 145780
12 | 32:23.56 | 3:01.03 | 145781 | 159358
13 | 35:24.59 | 3:01.68 | 159359 | 173001
14 | 38:26.52 | 2:25.67 | 173002 | 183943
15 | 40:52.44 | 2:33.05 | 183944 | 195423
16 | 43:25.49 | 2:46.18 | 195424 | 207891
17 | 46:11.67 | 3:07.67 | 207892 | 221983
18 | 49:19.59 | 3:12.65 | 221984 | 236448
19 | 52:32.49 | 2:57.02 | 236449 | 249725
20 | 55:29.51 | 3:09.23 | 249726 | 263923
21 | 58:38.74 | 2:34.33 | 263924 | 275506
22 | 61:13.32 | 2:53.18 | 275507 | 288499
23 | 64:06.50 | 2:31.51 | 288500 | 299875
24 | 66:38.26 | 3:09.68 | 299876 | 314118
25 | 69:48.19 | 2:54.68 | 314119 | 327236


Track 1

Filename C:\temp\01 - Jimmy Liggins - Cadillac Boogie.wav

Pre-gap length 0:00:02.00

Peak level 78.3 %
Extraction speed 2.7 X
Track quality 100.0 %
Test CRC B95C6471
Copy CRC B95C6471
Track not present in AccurateRip database
Copy OK

Track 2

Filename C:\temp\02 - Edgar Hayes - Fat Meat 'n' Greens.wav

Peak level 67.6 %
Extraction speed 2.2 X
Track quality 99.9 %
Test CRC AAD7F2ED
Copy CRC AAD7F2ED
Track not present in AccurateRip database
Copy OK

Track 3

Filename C:\temp\03 - King Perry Orchestra - Let 'Em Roll Blues.wav

Peak level 69.6 %
Extraction speed 3.2 X
Track quality 100.0 %
Test CRC 73275130
Copy CRC 73275130
Track not present in AccurateRip database
Copy OK

Track 4

Filename C:\temp\04 - Vivianne Green - Bowlegged Boogie.wav

Peak level 77.8 %
Extraction speed 3.4 X
Track quality 100.0 %
Test CRC 5355B452
Copy CRC 5355B452
Track not present in AccurateRip database
Copy OK

Track 5

Filename C:\temp\05 - Big Jay McNeely - The Deacon's Hop.wav

Peak level 81.0 %
Extraction speed 3.5 X
Track quality 100.0 %
Test CRC D1205AC9
Copy CRC D1205AC9
Track not present in AccurateRip database
Copy OK

Track 6

Filename C:\temp\06 - Wild Bill Moore - Rock And Roll.wav

Peak level 84.1 %
Extraction speed 2.8 X
Track quality 99.9 %
Test CRC E42C76EE
Copy CRC E42C76EE
Track not present in AccurateRip database
Copy OK

Track 7

Filename C:\temp\07 - Floyd Dixon - Drafting Blues.wav

Peak level 71.5 %
Extraction speed 3.8 X
Track quality 100.0 %
Test CRC 4D691048
Copy CRC 4D691048
Track not present in AccurateRip database
Copy OK

Track 8

Filename C:\temp\08 - Little Willie Littlefield - It's Midnight (No Place To Go).wav

Peak level 77.5 %
Extraction speed 3.1 X
Track quality 99.9 %
Test CRC 2AAA7805
Copy CRC 2AAA7805
Track not present in AccurateRip database
Copy OK

Track 9

Filename C:\temp\09 - Johnny Moore's Three Blazers - Walkin' Blues.wav

Peak level 52.9 %
Extraction speed 4.2 X
Track quality 100.0 %
Test CRC 20609F71
Copy CRC 20609F71
Track not present in AccurateRip database
Copy OK

Track 10

Filename C:\temp\10 - Ivory Joe Hunter - I Almost Lost My Mind.wav

Peak level 80.6 %
Extraction speed 4.4 X
Track quality 100.0 %
Test CRC EE02BFA2
Copy CRC EE02BFA2
Track not present in AccurateRip database
Copy OK

Track 11

Filename C:\temp\11 - Johnny Otis, Little Esther, The Robins - Double Crossing Blues.wav

Peak level 81.3 %
Extraction speed 4.3 X
Track quality 100.0 %
Test CRC 653CCC6B
Copy CRC 653CCC6B
Track not present in AccurateRip database
Copy OK

Track 12

Filename C:\temp\12 - Roy Hawkins - Why Do Everything Happen To Me.wav

Peak level 63.8 %
Extraction speed 4.6 X
Track quality 100.0 %
Test CRC ED7E390E
Copy CRC ED7E390E
Track not present in AccurateRip database
Copy OK

Track 13

Filename C:\temp\13 - Jimmy McCracklin - Beer Drinkin' Woman.wav

Peak level 66.4 %
Extraction speed 3.6 X
Track quality 99.9 %
Test CRC A5910186
Copy CRC A5910186
Track not present in AccurateRip database
Copy OK

Track 14

Filename C:\temp\14 - Calvin Boze and his All-Stars - Safronia B.wav

Peak level 100.0 %
Extraction speed 4.6 X
Track quality 100.0 %
Test CRC D6222F84
Copy CRC D6222F84
Track not present in AccurateRip database
Copy OK

Track 15

Filename C:\temp\15 - King Perry and his Pied Pipers - Everything's Gonna Be Alright.wav

Peak level 77.8 %
Extraction speed 3.5 X
Track quality 99.9 %
Test CRC EEB8DABF
Copy CRC EEB8DABF
Track not present in AccurateRip database
Copy OK

Track 16

Filename C:\temp\16 - T-Bone Walker - Glamor Girl.wav

Peak level 100.0 %
Extraction speed 4.9 X
Track quality 100.0 %
Test CRC ACF0C5F1
Copy CRC ACF0C5F1
Track not present in AccurateRip database
Copy OK

Track 17

Filename C:\temp\17 - Ray Charles - Late In The Evening Blues.wav

Peak level 68.2 %
Extraction speed 3.9 X
Track quality 99.9 %
Test CRC DECB6A73
Copy CRC DECB6A73
Track not present in AccurateRip database
Copy OK

Track 18

Filename C:\temp\18 - Helen Humes - Million Dollar Secret.wav

Peak level 60.6 %
Extraction speed 4.1 X
Track quality 99.9 %
Test CRC D663F133
Copy CRC D663F133
Track not present in AccurateRip database
Copy OK

Track 19

Filename C:\temp\19 - Percy Mayfield - Please Send Me Someone To Love.wav

Peak level 81.5 %
Extraction speed 5.4 X
Track quality 100.0 %
Test CRC 21AB4673
Copy CRC 21AB4673
Track not present in AccurateRip database
Copy OK

Track 20

Filename C:\temp\20 - Charles Brown - Black Night.wav

Peak level 94.8 %
Extraction speed 5.5 X
Track quality 100.0 %
Test CRC 066AA356
Copy CRC 066AA356
Track not present in AccurateRip database
Copy OK

Track 21

Filename C:\temp\21 - Lowell Fulson - Every Day I Have The Blues.wav

Peak level 67.7 %
Extraction speed 5.4 X
Track quality 100.0 %
Test CRC A3B1D185
Copy CRC A3B1D185
Track not present in AccurateRip database
Copy OK

Track 22

Filename C:\temp\22 - Roy Hawkins - The Thrill Is Gone.wav

Peak level 65.8 %
Extraction speed 5.5 X
Track quality 100.0 %
Test CRC DD22060B
Copy CRC DD22060B
Track not present in AccurateRip database
Copy OK

Track 23

Filename C:\temp\23 - Peppermint Harris - I Got Loaded.wav

Peak level 86.8 %
Extraction speed 5.5 X
Track quality 100.0 %
Test CRC 0CA84818
Copy CRC 0CA84818
Track not present in AccurateRip database
Copy OK

Track 24

Filename C:\temp\24 - Jimmy Nelson - 'T-99' Blues.wav

Peak level 63.8 %
Extraction speed 4.4 X
Track quality 99.9 %
Test CRC AA0028D2
Copy CRC AA0028D2
Track not present in AccurateRip database
Copy OK

Track 25

Filename C:\temp\25 - Fluffy Hunter - The Walkin' Blues.wav

Peak level 73.4 %
Extraction speed 5.9 X
Track quality 100.0 %
Test CRC 6D414D51
Copy CRC 6D414D51
Track not present in AccurateRip database
Copy OK


None of the tracks are present in the AccurateRip database

No errors occurred

End of status report

==== Log checksum 03820D31D0A2E0BBD378D84E1CA5700DE0F857DB01D8294FE2B8F35DB66FBE2F ====
Exact Audio Copy V1.0 beta 3 from 29. August 2011

EAC extraction logfile from 15. December 2012, 15:20

Various Artists / Let Me Tell You About the Blues, West Coast [Disc 3 of 3]

Used drive : HL-DT-STDVDRAM GT51N Adapter: 0 ID: 1

Read mode : Secure
Utilize accurate stream : Yes
Defeat audio cache : Yes
Make use of C2 pointers : No

Read offset correction : 103
Overread into Lead-In and Lead-Out : No
Fill up missing offset samples with silence : Yes
Delete leading and trailing silent blocks : No
Null samples used in CRC calculations : Yes
Used interface : Native Win32 interface for Win NT & 2000
Gap handling : Appended to previous track

Used output format : User Defined Encoder
Selected bitrate : 32 kBit/s
Quality : High
Add ID3 tag : No
Command line compressor : C:\Exact Audio Copy\FLAC\FLAC.EXE
Additional command line options : -5 -V -T "ARTIST=%artist%" -T "TITLE=%title%" -T "ALBUM=%albumtitle%" -T "DATE=%year%" -T "TRACKNUMBER=%tracknr%" -T "TOTALTRACKS=%numtracks%" -T "GENRE=%genre%" -T "ALBUM ARTIST=%albumartist%" -T "ALBUMARTIST=%albumartist%" -T "COMMENT=Secure Mode, Test and Copy, AccurateRip, FLAC -5" %source%


TOC of the extracted CD

Track | Start | Length | Start sector | End sector
––––––––––––––––––––––––––––-
1 | 0:00.00 | 3:04.49 | 0 | 13848
2 | 3:04.49 | 2:35.50 | 13849 | 25523
3 | 5:40.24 | 2:40.13 | 25524 | 37536
4 | 8:20.37 | 2:55.30 | 37537 | 50691
5 | 11:15.67 | 2:34.38 | 50692 | 62279
6 | 13:50.30 | 2:54.04 | 62280 | 75333
7 | 16:44.34 | 3:10.56 | 75334 | 89639
8 | 19:55.15 | 2:53.73 | 89640 | 102687
9 | 22:49.13 | 2:42.33 | 102688 | 114870
10 | 25:31.46 | 2:51.24 | 114871 | 127719
11 | 28:22.70 | 2:39.30 | 127720 | 139674
12 | 31:02.25 | 2:51.47 | 139675 | 152546
13 | 33:53.72 | 2:38.30 | 152547 | 164426
14 | 36:32.27 | 3:10.43 | 164427 | 178719
15 | 39:42.70 | 2:25.00 | 178720 | 189594
16 | 42:07.70 | 2:42.11 | 189595 | 201755
17 | 44:50.06 | 2:35.07 | 201756 | 213387
18 | 47:25.13 | 2:39.56 | 213388 | 225368
19 | 50:04.69 | 2:26.58 | 225369 | 236376
20 | 52:31.52 | 2:15.40 | 236377 | 246541
21 | 54:47.17 | 2:47.42 | 246542 | 259108
22 | 57:34.59 | 3:00.56 | 259109 | 272664
23 | 60:35.40 | 1:59.35 | 272665 | 281624
24 | 62:35.00 | 2:27.33 | 281625 | 292682
25 | 65:02.33 | 3:08.57 | 292683 | 306839


Track 1

Filename C:\temp\01 - Pee Wee Crayton - When It Rains It Pours.wav

Pre-gap length 0:00:02.00

Peak level 86.7 %
Extraction speed 2.7 X
Track quality 100.0 %
Test CRC 2C8D14BA
Copy CRC 2C8D14BA
Track not present in AccurateRip database
Copy OK

Track 2

Filename C:\temp\02 - Pete 'Guitar' Lewis - Louisiana Hop.wav

Peak level 63.0 %
Extraction speed 2.2 X
Track quality 99.9 %
Test CRC E4A50B96
Copy CRC E4A50B96
Track not present in AccurateRip database
Copy OK

Track 3

Filename C:\temp\03 - Little Ester - Better Beware.wav

Peak level 78.3 %
Extraction speed 3.0 X
Track quality 100.0 %
Test CRC 9652AC8F
Copy CRC 9652AC8F
Track not present in AccurateRip database
Copy OK

Track 4

Filename C:\temp\04 - Percy Mayfield - The River's Invitation.wav

Peak level 91.8 %
Extraction speed 3.2 X
Track quality 100.0 %
Test CRC A14929C6
Copy CRC A14929C6
Track not present in AccurateRip database
Copy OK

Track 5

Filename C:\temp\05 - Lloyd Price - Lawdy Miss Clawdy.wav

Peak level 100.0 %
Extraction speed 3.3 X
Track quality 100.0 %
Test CRC 2A9ACB31
Copy CRC 2A9ACB31
Track not present in AccurateRip database
Copy OK

Track 6

Filename C:\temp\06 - Mabel Scott - Walkin' Daddy.wav

Peak level 79.0 %
Extraction speed 3.5 X
Track quality 100.0 %
Test CRC DB8713EA
Copy CRC DB8713EA
Track not present in AccurateRip database
Copy OK

Track 7

Filename C:\temp\07 - Johnn Otis and Mel Walker - Call Operator 210.wav

Peak level 82.5 %
Extraction speed 3.7 X
Track quality 100.0 %
Test CRC 3592455C
Copy CRC 3592455C
Track not present in AccurateRip database
Copy OK

Track 8

Filename C:\temp\08 - Willie Mae Thornton - Hound Dog.wav

Peak level 85.3 %
Extraction speed 3.0 X
Track quality 99.9 %
Test CRC 7727AF9D
Copy CRC 7727AF9D
Track not present in AccurateRip database
Copy OK

Track 9

Filename C:\temp\09 - Little Willie Littlefield - K.C. Lovin'.wav

Peak level 74.3 %
Extraction speed 4.0 X
Track quality 100.0 %
Test CRC 70E7213D
Copy CRC 70E7213D
Track not present in AccurateRip database
Copy OK

Track 10

Filename C:\temp\10 - Amos Milburn - Let Me Go Home Whiskey.wav

Peak level 79.8 %
Extraction speed 3.2 X
Track quality 99.9 %
Test CRC 6AADD822
Copy CRC 6AADD822
Track not present in AccurateRip database
Copy OK

Track 11

Filename C:\temp\11 - Jimmy Witherspoon - Jay's Blues (Part 1).wav

Peak level 100.0 %
Extraction speed 4.2 X
Track quality 100.0 %
Test CRC 17A0574E
Copy CRC 17A0574E
Track not present in AccurateRip database
Copy OK

Track 12

Filename C:\temp\12 - Linda Hayes - Yes I Know.wav

Peak level 70.7 %
Extraction speed 3.3 X
Track quality 99.9 %
Test CRC 65056C40
Copy CRC 65056C40
Track not present in AccurateRip database
Copy OK

Track 13

Filename C:\temp\13 - Young John Watson - Motorhead Baby.wav

Peak level 80.2 %
Extraction speed 4.4 X
Track quality 100.0 %
Test CRC BED8A1F4
Copy CRC BED8A1F4
Track not present in AccurateRip database
Copy OK

Track 14

Filename C:\temp\14 - Jimmy Wilson - Tin Pan Alley.wav

Peak level 79.8 %
Extraction speed 3.6 X
Track quality 99.9 %
Test CRC 0CCB2DC4
Copy CRC 0CCB2DC4
Track not present in AccurateRip database
Copy OK

Track 15

Filename C:\temp\15 - Oscar McLollie - The Honey Jump (Part 1).wav

Peak level 59.6 %
Extraction speed 4.5 X
Track quality 100.0 %
Test CRC 771774A4
Copy CRC 771774A4
Track not present in AccurateRip database
Copy OK

Track 16

Filename C:\temp\16 - Effie Smith - Cry Baby Cry.wav

Peak level 79.4 %
Extraction speed 4.8 X
Track quality 100.0 %
Test CRC 3E388742
Copy CRC 3E388742
Track not present in AccurateRip database
Copy OK

Track 17

Filename C:\temp\17 - T-Bone Walker - Strugglin' Blues.wav

Peak level 100.0 %
Extraction speed 4.8 X
Track quality 100.0 %
Test CRC 57FE5623
Copy CRC 57FE5623
Track not present in AccurateRip database
Copy OK

Track 18

Filename C:\temp\18 - James Reed - Things Ain't What They Used To Be.wav

Peak level 99.5 %
Extraction speed 4.8 X
Track quality 100.0 %
Test CRC 076834AD
Copy CRC 076834AD
Track not present in AccurateRip database
Copy OK

Track 19

Filename C:\temp\19 - Jimmy Liggins - I Ain't Drunk.wav

Peak level 80.6 %
Extraction speed 4.9 X
Track quality 100.0 %
Test CRC 17785C28
Copy CRC 17785C28
Track not present in AccurateRip database
Copy OK

Track 20

Filename C:\temp\20 - Daddy Cleanhead - Something's Goin' On In My Room.wav

Peak level 90.5 %
Extraction speed 4.9 X
Track quality 100.0 %
Test CRC 02508A3D
Copy CRC 02508A3D
Track not present in AccurateRip database
Copy OK

Track 21

Filename C:\temp\21 - Johnny Fuller - Roughest Place In Town.wav

Peak level 79.3 %
Extraction speed 5.1 X
Track quality 100.0 %
Test CRC 8BDB3911
Copy CRC 8BDB3911
Track not present in AccurateRip database
Copy OK

Track 22

Filename C:\temp\22 - Etta James - The Wallflower.wav

Peak level 76.5 %
Extraction speed 5.1 X
Track quality 100.0 %
Test CRC 9460BD22
Copy CRC 9460BD22
Track not present in AccurateRip database
Copy OK

Track 23

Filename C:\temp\23 - Peppermint Harris - Cadillac Funeral.wav

Peak level 57.5 %
Extraction speed 3.5 X
Track quality 100.0 %
Test CRC CC19417C
Copy CRC CC19417C
Track not present in AccurateRip database
Copy OK

Track 24

Filename C:\temp\24 - Jimmy Nolen - Strollin' With Nolen.wav

Peak level 67.6 %
Extraction speed 3.8 X
Track quality 100.0 %
Test CRC D990B0EA
Copy CRC D990B0EA
Track not present in AccurateRip database
Copy OK

Track 25

Filename C:\temp\25 - Jimmy McCracklin - Savoy's Jump.wav

Peak level 69.9 %
Extraction speed 3.8 X
Track quality 100.0 %
Test CRC 0B3036D0
Copy CRC 0B3036D0
Track not present in AccurateRip database
Copy OK


None of the tracks are present in the AccurateRip database

No errors occurred

End of status report

==== Log checksum 5A27E3F27EF48B1FBBFB152A3D8E9C160B19A89D56F9B9FED1D0A241459C7DA2 ====


Various Artists - Let Me Tell You About The Blues - West Coast: The Evolution Of West Coast Blues (2010) {3 CD Box Set}


NEXT -> more Let Me Tell You About The Blues series on the way…

see more Let Me Tell You About The Blues Series…


===