Tags
Language
Tags

Various Artists - The Real Music Box: 25 Years of Rounder Records (1995) {9CD Set, Rounder Records ‎CDAN25}

Posted By: ruskaval
Various Artists - The Real Music Box: 25 Years of Rounder Records (1995) {9CD Set, Rounder Records ‎CDAN25}

Various Artists - The Real Music Box: 25 Years of Rounder Records (1995) {9CD Set, Rounder Records ‎CDAN25}
XLD rip (secure mode) | FLAC (tracks)+CUE+LOG -> 3.34 Gb | MP3 @320 -> 149 Mb
Full Artwork @ 300 dpi (png) -> 351 Mb | 5% repair rar
© 1995 Rounder Records | ‎CD AN 25
Blues / Country / Jazz / Folk / Soul / Funk / Bluegrass

Within the discount, ugly-duckling packaging of The Real Music Box: 25 Years of Rounder Records lie nine CD swans worth several hundred times their weight in superficial music-industry gold records. Since 1970, Massachusetts-based Rounder has been a stalwart sanctuary of various musics at the root of what has recently been labeled "Americana." The retrospective is segmented into four thematic two-disc sets, each offering a staggering 30 to 50 tracks where legendary names rub shoulders with bright young Rounder talent.
Various Artists - The Real Music Box: 25 Years of Rounder Records (1995) {9CD Set, Rounder Records ‎CDAN25}

On Hills of Home (folk), Woody Guthrie and Lead Belly hang out with Rory Block and Alison Krauss; while Hand-Picked (bluegrass) highlights the likes of J.D. Crowe & The New South, Tony Trischka and Bela Fleck. Deep Blue (blues) captures a wide range of shades, from Professor Longhair and Champion Jack Dupree to Clarence "Gatemouth" Brown and the Holmes Brothers. Louisiana Spice stews up a gumbo of New Orleans R&B, cajun and zydeco, including Dirty Dozen Brass Band, Zachary Richard, and Boozoo Chavis. A final bonus disc captures 23 random Rounder samples, including psych-folk from The Holy Modal Rounders, Brave Combo's polka party, Jonathan Richman's childlike whimsy, and the Chicano rock of The Blazers. In some respects, this disc is the most satisfying of all just for its sheer breadth of scope. In all, a living, breathing, vibrant roots music encyclopedia.
Various Artists - The Real Music Box: 25 Years of Rounder Records (1995) {9CD Set, Rounder Records ‎CDAN25}

Various Artists - The Real Music Box: 25 Years of Rounder Records (1995) {9CD Set, Rounder Records ‎CDAN25}


Track Listing & Personnel:

Disc: 1

01. Do-Re-Mi - Woody Guthrie
02. Where The Old Red River Flows - Whitstein Brothers
03. Church Street Blues - Norman Blake
04. Worried Blues - Mississippi John Hurt
05. Joliet Bound - Rory Block
06. J'Etais Au Bal - LeJeune/Menard/Smith
07. Annie Is My Darling Medley/The Red Shoes - Joseph Cormier
08. Sly Old Crow/Old Blair Store - John McCutcheon
09. Midnight On The Stormy Deep - The Tony Rice Unit
10. Corazon Viajero - Tish Hinosa
11. Come All You Fair and Tender Maidens - David Bromberg
12. Sweet Lucy - Michael Hurley & The Holy Modal Rounders
13. One Dime Blues - Etta Baker
14. Talk About Sufferin' - Ricky Scaggs
15. Troubles, Trials, Tribulations - E.C. & Orna Ball
16. Silver Bell - Country Cooking
17. The Memory Of Your Smile - Mike Seeger/Maria Muldaur/David Grisman
18. Never Will Give Up - Alison Krauss & The Cox Family
19. Reels: The Pure Drop/The Flax In Bloom - Pierre Bensusan
20. Night Herding Song - Skip Gorman

Disc: 2
01. John Hardy - Lead Belly
02. Duncan & Brady - Johnson Mountain Boys
03. Old Country Stomp - Jody Stecher/Kate Brislin
04. College Hornpipe - Mark O'Connor
05. Looking For Money - Chicken Chokers
06. Going Back To Old Virginia - Crowe & McLaughlin
07. Hills Of Home - Hazel Dickens
08. I'm Out On The Ocean A-Sailing - Leslie Riddle
09. She Did You A Favor - Roy Book Binder
10. My Babe - Mississippi Fred McDowell/Johnny Woods
11. Racetrack Blues - Nashville Jug Band
12. Aloha Means I Love You - Tau Moe Family
13. Bill Cheatham - Bela Fleck/Bill Keith/Tony Trischka
14. High On A Mountain - Ola Belle Reed
15. I Caught A Keeper - Barry & Holly Tashian
16. I Ride An Old Paint - Riders In The Sky
17. Baby Please Don't Go - Bill Morrissey/Greg Brown
18. Killing The Blues - Woodstock Mountain Revue
19. I'll Never Go Back - Louvin Brothers
20. Who Will Watch The Home Place - Laurie Lewis

Disc: 3
01. Mardi Gras In New Orleans - Dirty Dozen Brass Band
02. That's Enough of that Stuff - Marcia Ball
03. Three Keys - James Booker
04. Tee Nah Nah - Tuts Washington
05. Shoo-Fly - Bo Dollis/Monk Boudreaux/Rebirth Brass Band
06. On The Prowl - Walter 'Wolfman' Washington
07. Back on Track - Dalton Reed
08. Hold To God's Unchanging Hand - Irma Thomas
09. Hometown New Orleans - Champion Jack Dupree
10. Down That Lonely Lonely Road - Johnny Adams
11. Tipitina - Professor Longhair
12. Coconut Milk - Bo Dollis & Wild Magnolias
13. Hard Times - Eddie Bo
14. Meet Me At the Station - Chuck Carbo

Disc: 4
01. J'ai vu le loup, le renard et la belette - The Balfa Brothers
02. Pere et garcon zydeco - John Delafose And The Eunice Playboys
03. The Mistake I Made - Eddie LeJeune
04. Chere toute-toute - Jimmy C. Newman
05. Lula Lula Don't You Go To Bingo - Boozoo Chavis
06. Bayou Pon Pon - Le Trio Cadien (Eddie LeJeune/D.L. Menard/Ken Smith)
07. Les flammes d'enfer - Beausoleil
08. La Danse de Mardi Gras - Steve Riley And The Mamou Playboys
09. Wildwood Flower - D.L. Menard
10. La valse de chere bebe - Jo-El Sonnier
11. C'est pas la peine brailler (There's No Need To Cry) - Geno Delafose
12. Laissez faire (Let It Be) - Bruce Daigrepont
13. T'en as eu - David Doucet
14. File Gumbo - Zachary Richard
15. Outside People - Nathan And The Zydeco Cha Chas
16. Give Him Cornbread - Beau Jocque And The Zydeco Hi-Rollers
17. Think It Over One More Time - Buckweat Zydeco
18. Snap Bean - Li'l Brian And The Zydeco Travelers

Disc: 5
01. Mr. Bell's Shuffle - Robert Nighthawk
02. Jealous Hearted Woman - J.B. Hutto
03. Left Me With A Broken Heart - Jimmy Rogers/Ronnie Earl/the Broadcasters
04. Mean Old Frisco - Frank Hovington
05. Blues with a Feeling - Booker T. Laury
06. Lonesome Whistle - Johnny Shines/Robert Jr. Lockwood
07. Ain't Treating Me Right - Luther 'Guitar Junior' Johnson
08. I Feel So Good - Tracy Nelson
09. Peace and Happiness - Ted Hawkins
10. Up Above My Head - Holmes Brothers
11. Sometimes I Slip - Clarence 'Gatemouth' Brown
12. Full Court Press - Bluestime
13. Since You Been Gone - Rory Block
14. 501 Boogie - Professor Longhair
15. Give Me the Flowers While I'm Livin' - Champion Jack Dupree

Disc: 6
1. Nobody Knows The Trouble I've Seen - Charles Brown
2. Texas Flood - Roomful Of Blues with Duke Robillard
3. Green Light - Ronnie Earl
4. Help The Poor - Larry Davis
5. Gimme A Break - Ron Levy
6. My Jug and I - Persuasions
7. Red Beans - Marcia Ball
8. You're My Brand - Smokin' Joe Kubek Band/Bnois King
9. Full Time Lover - Ann Peebles/Little Jimmy King
10. I Wanna Do It To You baby - Smokey Wilson
11. You Got What It Takes - Michelle Willson/Sugar Ray Norcia
12. Tomorrow - Jimmy McCracklin/Irma Thomas
13. Beale St. Boogaloo - Preston Shannon Band
14. What A Way To Go - Johnny Nocturne Band
15. Love is the Bottom Line - Lowell Fulson

Disc: 7
01. The Old Home Place - J.D. Crowe & The New South
02. Along About Daybreak - Joe Val
03. High On A Mountain - Del McCoury
04. Barrel of Fun - Country Cooking
05. West Virginia, My Home - Hazel Dickens
06. Blue Eyed Boston Boy - Bluegrass Cardinals
07. The Old Swinging Bridge - TED LUNDY
08. Golden Ring - Dry Branch Fire Squad
09. Things In Life - Don Stover
10. The Last Old Shovel - Phyllis Boyens
11. Sourwood Mountain - Allen Shelton
12. When Someone Wants To Leave - The Allen Brothers
13. I Ain't Broke (But I'm Badly Bent) - David Grisman
14. Take Me Back To Happy Valley - Bailey Brothers
15. Home Is Where The Heart Is - Connie and Babe & The Backwoods Boys
16. Drifting Too Far FromThe Shore - Boone Creek
17. Montana Cowboy - Hazel And Alice
18. At The End - Leon Morris/Buzz Busby
19. You Tried To Ruin My Name - Wilma Lee Cooper
20. I'll Be On That Good Road Someday - Butch Robins
21. Crazy Creek - Bill Keith
22. When Springtime Comes Again - Vern Williams
23. Old Train - Tony Rice
24. Ragtime Annie - Byron Berline
25. Blue Days, Black Nights - Tasty Licks
26. The Model Church - The Bluegrass Album Band

Disc: 8
01. Leavin' - James King
02. Lonesome River - HERE TODAY
03. Hard Hearted - Jim And Jesse
04. My Better Years - The Johnson Mountain Boys
05. Second Wind - Claire Lynch
06. New Faces in the Field - IIIrd Tyme Out
07. New York Chimes - Tony Trischka
08. Is The Blue Moon Still Shining? - Laurie Lewis/Kathy Kallick
09. Flop Eared mule - David Grier/Mike Compton
10. Every Time You Say Goodbye - Alison Krauss
11. Cold on the Shoulder - Tony Rice
12. Who's That Knocking At My Door? - Dreadful Snakes
13. Mr. Engineer - J.D. Crowe
14. You'll Get No More of Me - Lynn Morris
15. Every Humble Knee Must Bow - Nashville Bluegrass Band
16. Mamma's Hand - Hazel Dickens
17. Sleepy Eyed John/Tom and Jerry - Laurie Lewis/Tom Rozum
18. Whitewater - Bela Fleck
19. You're That Certain Someone - Warrior River Boys
20. I Feel the Blues Moving In - Del McCoury
21. When God Dips His Pen of Love in My Heart - The Cox Family
22. River of Jordan - Ricky Skaggs
23. We Believe in Happy Endings - Dry Branch Fire Squad

Disc: 9 Bonus
01. Short Holler - Leonard Emmanuel
02. C & NW Railroad Blues - Snuffy Jenkins/Pappy Sherill
03. Just Because - George Pegram
04. Happy Wanderer - Brave Combo
05. La Zenaida - Sol Y Canto
06. Stagger Lee - Sleepy LaBeef
07. Homesick Boy - George Thorogood And The Destroyers
08. Winter Sun - Breakfast Special
09. Synergy - Holy Modal Rounders
10. Dos Keshenever Shtikele - Klezmer Conservatory Band
11. Just A Strand From A Yellow Curl - Blue Sky Boys
12. Since She Started to Ride - Jonathan Richman
13. If I Could Hear My Mother Pray Again - Joseph Spence
14. Cumbia Del Sol - The Balzers
15. El Cool Dude/La Pierdrera - Los Pinkys/Isidro Samilpa
16. Who Borke The Lock? - Highwoods String Band
17. All Around the Kitchen - Mike & Peggy Seeger
18. Sala Noki Pascal - Tabu Ley Rochereau
19. Lady Be Good - John Miller
20. Mama's Last Stand - Last Roundup
21. Cowboy Calypso - Russ Barenberg
22. Too Much Fun - Cowboy Jazz
23. Tuning The Kora - Alhaji Bai Konte

X Lossless Decoder version 20191004 (152.0)

XLD extraction logfile from 2020-06-03 20:58:02 -0500

Various Artists / 25 Years Of Rounder Records - Hills Of Home Disc 1

Used drive : HL-DT-ST DVDRAM GP50NB40 (revision 1.01)
Media type : Pressed CD

Ripper mode : XLD Secure Ripper
Disable audio cache : OK for the drive with a cache less than 1375KiB
Make use of C2 pointers : NO
Read offset correction : 6
Max retry count : 20
Gap status : Analyzed, Appended (except HTOA)

TOC of the extracted CD
Track | Start | Length | Start sector | End sector
––––––––––––––––––––––––––––-
1 | 00:00:00 | 02:42:37 | 0 | 12186
2 | 02:42:37 | 03:04:38 | 12187 | 26024
3 | 05:47:00 | 02:53:37 | 26025 | 39036
4 | 08:40:37 | 04:44:38 | 39037 | 60374
5 | 13:25:00 | 03:12:00 | 60375 | 74774
6 | 16:37:00 | 03:33:00 | 74775 | 90749
7 | 20:10:00 | 02:35:00 | 90750 | 102374
8 | 22:45:00 | 03:40:00 | 102375 | 118874
9 | 26:25:00 | 04:05:00 | 118875 | 137249
10 | 30:30:00 | 03:35:00 | 137250 | 153374
11 | 34:05:00 | 03:52:35 | 153375 | 170809
12 | 37:57:35 | 04:03:40 | 170810 | 189074
13 | 42:01:00 | 02:33:00 | 189075 | 200549
14 | 44:34:00 | 02:24:00 | 200550 | 211349
15 | 46:58:00 | 02:48:00 | 211350 | 223949
16 | 49:46:00 | 01:59:00 | 223950 | 232874
17 | 51:45:00 | 02:59:00 | 232875 | 246299
18 | 54:44:00 | 03:44:00 | 246300 | 263099
19 | 58:28:00 | 03:18:35 | 263100 | 277984
20 | 61:46:35 | 03:57:00 | 277985 | 295759

List of alternate offset correction values
# | Absolute | Relative | Confidence
–––––––––––––––––––––
1 | -988 | -994 | 36
2 | -893 | -899 | 4
3 | -1445 | -1451 | 3

AccurateRip Summary (DiscID: 002fb5fb-02bb3641-2d0f6714)
Track 01 : OK (v1+v2, confidence 11/54)
Track 02 : OK (v1+v2, confidence 11/54)
Track 03 : OK (v1+v2, confidence 11/53)
Track 04 : OK (v1+v2, confidence 11/53)
Track 05 : OK (v1+v2, confidence 11/53)
Track 06 : OK (v1+v2, confidence 11/53)
Track 07 : OK (v1+v2, confidence 11/53)
Track 08 : OK (v1+v2, confidence 11/53)
Track 09 : OK (v1+v2, confidence 11/53)
Track 10 : OK (v1+v2, confidence 11/52)
Track 11 : OK (v1+v2, confidence 11/53)
Track 12 : OK (v1+v2, confidence 11/53)
Track 13 : OK (v1+v2, confidence 11/52)
Track 14 : OK (v1+v2, confidence 11/53)
Track 15 : OK (v1+v2, confidence 11/52)
Track 16 : OK (v1+v2, confidence 11/53)
Track 17 : OK (v1+v2, confidence 11/52)
Track 18 : OK (v1+v2, confidence 11/52)
Track 19 : OK (v1+v2, confidence 11/49)
Track 20 : OK (v1+v2, confidence 11/50)
->All tracks accurately ripped.

All Tracks
Album gain : -1.07 dB
Peak : 0.999969
Statistics
Read error : 0
Jitter error (maybe fixed) : 0
Retry sector count : 0
Damaged sector count : 0

Track 01
Filename : /rips/Compilations - 25 Years Of Rounder Records - Hills Of Home Disc 1 [FLAC]/01 - Woody Guthrie - Do-Re-Mi.flac
Pre-gap length : 00:02:00

Track gain : 0.02 dB
Peak : 0.777649
CRC32 hash (test run) : B51C41D2
CRC32 hash : B51C41D2
CRC32 hash (skip zero) : 7F692AB7
AccurateRip v1 signature : A09F3CBC
AccurateRip v2 signature : 8B78B408
->Accurately ripped (v1+v2, confidence 6+5/54)
Statistics
Read error : 0
Jitter error (maybe fixed) : 0
Retry sector count : 0
Damaged sector count : 0

Track 02
Filename : /rips/Compilations - 25 Years Of Rounder Records - Hills Of Home Disc 1 [FLAC]/02 - Whitstein Brothers - Where The Old Red River Flows.flac

Track gain : -2.38 dB
Peak : 0.977234
CRC32 hash (test run) : 2B60904B
CRC32 hash : 2B60904B
CRC32 hash (skip zero) : E1BB0CBD
AccurateRip v1 signature : 485C13B1
AccurateRip v2 signature : 01427F7D
->Accurately ripped (v1+v2, confidence 6+5/54)
Statistics
Read error : 0
Jitter error (maybe fixed) : 0
Retry sector count : 0
Damaged sector count : 0

Track 03
Filename : /rips/Compilations - 25 Years Of Rounder Records - Hills Of Home Disc 1 [FLAC]/03 - Norman Blake - Church Street Blues.flac

Track gain : -1.19 dB
Peak : 0.977875
CRC32 hash (test run) : 4A43C99B
CRC32 hash : 4A43C99B
CRC32 hash (skip zero) : FB459BF5
AccurateRip v1 signature : B5494DB6
AccurateRip v2 signature : 41283226
->Accurately ripped (v1+v2, confidence 6+5/53)
Statistics
Read error : 0
Jitter error (maybe fixed) : 0
Retry sector count : 0
Damaged sector count : 0

Track 04
Filename : /rips/Compilations - 25 Years Of Rounder Records - Hills Of Home Disc 1 [FLAC]/04 - Mississippi John Hurt - Worried Blues.flac

Track gain : 0.37 dB
Peak : 0.785217
CRC32 hash (test run) : AE8D856D
CRC32 hash : AE8D856D
CRC32 hash (skip zero) : 4C8E99DC
AccurateRip v1 signature : 64A1B4F2
AccurateRip v2 signature : FDB2CE4E
->Accurately ripped (v1+v2, confidence 6+5/53)
Statistics
Read error : 0
Jitter error (maybe fixed) : 0
Retry sector count : 0
Damaged sector count : 0

Track 05
Filename : /rips/Compilations - 25 Years Of Rounder Records - Hills Of Home Disc 1 [FLAC]/05 - Rory Block - Joliet Bound.flac

Track gain : -3.11 dB
Peak : 0.596893
CRC32 hash (test run) : 095ACBB1
CRC32 hash : 095ACBB1
CRC32 hash (skip zero) : 7BB76508
AccurateRip v1 signature : B29B5D20
AccurateRip v2 signature : 7FEC3FC4
->Accurately ripped (v1+v2, confidence 6+5/53)
Statistics
Read error : 0
Jitter error (maybe fixed) : 0
Retry sector count : 0
Damaged sector count : 0

Track 06
Filename : /rips/Compilations - 25 Years Of Rounder Records - Hills Of Home Disc 1 [FLAC]/06 - Le Trio Cadien - J'Etais Au Bal.flac

Track gain : -2.42 dB
Peak : 0.988586
CRC32 hash (test run) : 7E536592
CRC32 hash : 7E536592
CRC32 hash (skip zero) : A562B5BC
AccurateRip v1 signature : 39DF88C3
AccurateRip v2 signature : B86BC87F
->Accurately ripped (v1+v2, confidence 6+5/53)
Statistics
Read error : 0
Jitter error (maybe fixed) : 0
Retry sector count : 0
Damaged sector count : 0

Track 07
Filename : /rips/Compilations - 25 Years Of Rounder Records - Hills Of Home Disc 1 [FLAC]/07 - Joseph Cormier - Annie Is My Darling Medley - The Red Shoes.flac

Track gain : -1.91 dB
Peak : 0.787781
CRC32 hash (test run) : DECE0EA2
CRC32 hash : DECE0EA2
CRC32 hash (skip zero) : DDD19ADA
AccurateRip v1 signature : 499F0239
AccurateRip v2 signature : F1429DB6
->Accurately ripped (v1+v2, confidence 6+5/53)
Statistics
Read error : 0
Jitter error (maybe fixed) : 0
Retry sector count : 0
Damaged sector count : 0

Track 08
Filename : /rips/Compilations - 25 Years Of Rounder Records - Hills Of Home Disc 1 [FLAC]/08 - John McCutcheon - Sly Old Crow - Old Blair Store.flac

Track gain : -0.75 dB
Peak : 0.852295
CRC32 hash (test run) : 499912B8
CRC32 hash : 499912B8
CRC32 hash (skip zero) : 425D5AB2
AccurateRip v1 signature : 04F506FA
AccurateRip v2 signature : DF549946
->Accurately ripped (v1+v2, confidence 6+5/53)
Statistics
Read error : 0
Jitter error (maybe fixed) : 0
Retry sector count : 0
Damaged sector count : 0

Track 09
Filename : /rips/Compilations - 25 Years Of Rounder Records - Hills Of Home Disc 1 [FLAC]/09 - Tony Rice Unit, The - Midnight On The Stormy Deep.flac

Track gain : -2.04 dB
Peak : 0.988556
CRC32 hash (test run) : C546880B
CRC32 hash : C546880B
CRC32 hash (skip zero) : A9976728
AccurateRip v1 signature : C5F20BA7
AccurateRip v2 signature : 78DC404A
->Accurately ripped (v1+v2, confidence 6+5/53)
Statistics
Read error : 0
Jitter error (maybe fixed) : 0
Retry sector count : 0
Damaged sector count : 0

Track 10
Filename : /rips/Compilations - 25 Years Of Rounder Records - Hills Of Home Disc 1 [FLAC]/10 - Tish Hinojosa - Corazon Viajero.flac

Track gain : -1.25 dB
Peak : 0.890808
CRC32 hash (test run) : FD6BDF86
CRC32 hash : FD6BDF86
CRC32 hash (skip zero) : E1D4AF03
AccurateRip v1 signature : CBAD5E88
AccurateRip v2 signature : B5A99179
->Accurately ripped (v1+v2, confidence 6+5/52)
Statistics
Read error : 0
Jitter error (maybe fixed) : 0
Retry sector count : 0
Damaged sector count : 0

Track 11
Filename : /rips/Compilations - 25 Years Of Rounder Records - Hills Of Home Disc 1 [FLAC]/11 - David Bromberg - Come All You Fair And Tender Maidens.flac

Track gain : 0.20 dB
Peak : 0.876007
CRC32 hash (test run) : B41F2A24
CRC32 hash : B41F2A24
CRC32 hash (skip zero) : 99B8CBAB
AccurateRip v1 signature : 56E005E3
AccurateRip v2 signature : A9D61E8A
->Accurately ripped (v1+v2, confidence 6+5/53)
Statistics
Read error : 0
Jitter error (maybe fixed) : 0
Retry sector count : 0
Damaged sector count : 0

Track 12
Filename : /rips/Compilations - 25 Years Of Rounder Records - Hills Of Home Disc 1 [FLAC]/12 - Michael Hurley & Holy Modal Rounders - Sweet Lucy.flac

Track gain : -1.04 dB
Peak : 0.831299
CRC32 hash (test run) : 923ED2B3
CRC32 hash : 923ED2B3
CRC32 hash (skip zero) : 054932AA
AccurateRip v1 signature : FA97DAC6
AccurateRip v2 signature : 5E3D6C09
->Accurately ripped (v1+v2, confidence 6+5/53)
Statistics
Read error : 0
Jitter error (maybe fixed) : 0
Retry sector count : 0
Damaged sector count : 0

Track 13
Filename : /rips/Compilations - 25 Years Of Rounder Records - Hills Of Home Disc 1 [FLAC]/13 - Etta Baker - One Dime Blues.flac

Track gain : 0.36 dB
Peak : 0.594147
CRC32 hash (test run) : CA1EC19C
CRC32 hash : CA1EC19C
CRC32 hash (skip zero) : DE47E41C
AccurateRip v1 signature : 18A6A505
AccurateRip v2 signature : 1F35BCF3
->Accurately ripped (v1+v2, confidence 6+5/52)
Statistics
Read error : 0
Jitter error (maybe fixed) : 0
Retry sector count : 0
Damaged sector count : 0

Track 14
Filename : /rips/Compilations - 25 Years Of Rounder Records - Hills Of Home Disc 1 [FLAC]/14 - Ricky Skaggs - Talk About Sufferin'.flac

Track gain : -0.19 dB
Peak : 0.797363
CRC32 hash (test run) : 8B605FFE
CRC32 hash : 8B605FFE
CRC32 hash (skip zero) : E1B6F7CE
AccurateRip v1 signature : 0975A095
AccurateRip v2 signature : D5DFB91C
->Accurately ripped (v1+v2, confidence 6+5/53)
Statistics
Read error : 0
Jitter error (maybe fixed) : 0
Retry sector count : 0
Damaged sector count : 0

Track 15
Filename : /rips/Compilations - 25 Years Of Rounder Records - Hills Of Home Disc 1 [FLAC]/15 - E.C. & Orna Ball - Troubles, Trials, Tribulations.flac

Track gain : -0.95 dB
Peak : 0.809235
CRC32 hash (test run) : A19BBFF0
CRC32 hash : A19BBFF0
CRC32 hash (skip zero) : 09711A1D
AccurateRip v1 signature : 29C20170
AccurateRip v2 signature : C3D845AF
->Accurately ripped (v1+v2, confidence 6+5/52)
Statistics
Read error : 0
Jitter error (maybe fixed) : 0
Retry sector count : 0
Damaged sector count : 0

Track 16
Filename : /rips/Compilations - 25 Years Of Rounder Records - Hills Of Home Disc 1 [FLAC]/16 - Country Cooking - Silver Bell.flac

Track gain : 2.43 dB
Peak : 0.698975
CRC32 hash (test run) : 00FDBCA3
CRC32 hash : 00FDBCA3
CRC32 hash (skip zero) : 19C02987
AccurateRip v1 signature : 7EFD543E
AccurateRip v2 signature : EC388C6B
->Accurately ripped (v1+v2, confidence 6+5/53)
Statistics
Read error : 0
Jitter error (maybe fixed) : 0
Retry sector count : 0
Damaged sector count : 0

Track 17
Filename : /rips/Compilations - 25 Years Of Rounder Records - Hills Of Home Disc 1 [FLAC]/17 - Mike Seeger, Maria Muldaur & David Grisman - Memory Of Your Smile, The.flac

Track gain : -2.83 dB
Peak : 0.962372
CRC32 hash (test run) : DB527089
CRC32 hash : DB527089
CRC32 hash (skip zero) : A36D7141
AccurateRip v1 signature : 25B0631C
AccurateRip v2 signature : C1AA1144
->Accurately ripped (v1+v2, confidence 6+5/52)
Statistics
Read error : 0
Jitter error (maybe fixed) : 0
Retry sector count : 0
Damaged sector count : 0

Track 18
Filename : /rips/Compilations - 25 Years Of Rounder Records - Hills Of Home Disc 1 [FLAC]/18 - Alison Krauss & The Cox Family - Never Will Give Up.flac

Track gain : -0.46 dB
Peak : 0.900726
CRC32 hash (test run) : 9AB472B2
CRC32 hash : 9AB472B2
CRC32 hash (skip zero) : B5CE5955
AccurateRip v1 signature : D8477C57
AccurateRip v2 signature : F4036BB8
->Accurately ripped (v1+v2, confidence 6+5/52)
Statistics
Read error : 0
Jitter error (maybe fixed) : 0
Retry sector count : 0
Damaged sector count : 0

Track 19
Filename : /rips/Compilations - 25 Years Of Rounder Records - Hills Of Home Disc 1 [FLAC]/19 - Pierre Bensusan - Pure Drop, The + Flax In Bloom, The [reels].flac

Track gain : 0.68 dB
Peak : 0.719086
CRC32 hash (test run) : 5A0CD229
CRC32 hash : 5A0CD229
CRC32 hash (skip zero) : EF7903ED
AccurateRip v1 signature : 27E6C3AC
AccurateRip v2 signature : 2DF8B6E9
->Accurately ripped (v1+v2, confidence 6+5/49)
Statistics
Read error : 0
Jitter error (maybe fixed) : 0
Retry sector count : 0
Damaged sector count : 0

Track 20
Filename : /rips/Compilations - 25 Years Of Rounder Records - Hills Of Home Disc 1 [FLAC]/20 - Skip Gorman - Night Herding School.flac

Track gain : 0.01 dB
Peak : 0.999969
CRC32 hash (test run) : 9A98F220
CRC32 hash : 9A98F220
CRC32 hash (skip zero) : 0F4AF579
AccurateRip v1 signature : DB6BA57E
AccurateRip v2 signature : 21F0DBA0
->Accurately ripped (v1+v2, confidence 6+5/50)
Statistics
Read error : 0
Jitter error (maybe fixed) : 0
Retry sector count : 0
Damaged sector count : 0

No errors occurred

End of status report

––-BEGIN XLD SIGNATURE––-
qZHCeEcJHUuBnP1gnUSvvdzlmUrXARDHiucHA90kIyunVv.QHgrErmgYfY6Vp5He_MatrF0bjE3yymlZVFk53HoYq.F.hIhJTaqwkC0
––-END XLD SIGNATURE––-
X Lossless Decoder version 20191004 (152.0)

XLD extraction logfile from 2020-06-02 12:12:45 -0500

Various Artists / The Real Music Box - Bonus Disc

Used drive : HL-DT-ST DVDRAM GP50NB40 (revision 1.01)
Media type : Pressed CD

Ripper mode : XLD Secure Ripper
Disable audio cache : OK for the drive with a cache less than 1375KiB
Make use of C2 pointers : NO
Read offset correction : 6
Max retry count : 20
Gap status : Analyzed, Appended (except HTOA)

TOC of the extracted CD
Track | Start | Length | Start sector | End sector
––––––––––––––––––––––––––––-
1 | 00:00:00 | 00:45:00 | 0 | 3374
2 | 00:45:00 | 02:09:37 | 3375 | 13086
3 | 02:54:37 | 02:25:00 | 13087 | 23961
4 | 05:19:37 | 02:32:00 | 23962 | 35361
5 | 07:51:37 | 05:00:38 | 35362 | 57899
6 | 12:52:00 | 05:04:37 | 57900 | 80736
7 | 17:56:37 | 03:12:40 | 80737 | 95176
8 | 21:09:02 | 02:34:73 | 95177 | 106799
9 | 23:44:00 | 03:40:37 | 106800 | 123336
10 | 27:24:37 | 02:42:38 | 123337 | 135524
11 | 30:07:00 | 02:14:37 | 135525 | 145611
12 | 32:21:37 | 02:35:03 | 145612 | 157239
13 | 34:56:40 | 03:20:55 | 157240 | 172294
14 | 38:17:20 | 05:03:55 | 172295 | 195074
15 | 43:21:00 | 04:16:37 | 195075 | 214311
16 | 47:37:37 | 02:54:00 | 214312 | 227361
17 | 50:31:37 | 01:12:38 | 227362 | 232799
18 | 51:44:00 | 02:28:00 | 232800 | 243899
19 | 54:12:00 | 01:59:37 | 243900 | 252861
20 | 56:11:37 | 02:47:38 | 252862 | 265424
21 | 58:59:00 | 03:51:37 | 265425 | 282786
22 | 62:50:37 | 03:40:08 | 282787 | 299294
23 | 66:30:45 | 01:04:65 | 299295 | 304159

List of alternate offset correction values
# | Absolute | Relative | Confidence
–––––––––––––––––––––
1 | -881 | -887 | 4

AccurateRip Summary (DiscID: 0037f9a3-03b178db-520fd717)
Track 01 : OK (v1+v2, confidence 29/33)
Track 02 : OK (v1+v2, confidence 29/33)
Track 03 : OK (v1+v2, confidence 29/33)
Track 04 : OK (v1+v2, confidence 29/33)
Track 05 : OK (v1+v2, confidence 29/33)
Track 06 : OK (v1+v2, confidence 29/33)
Track 07 : OK (v1+v2, confidence 29/33)
Track 08 : OK (v1+v2, confidence 29/33)
Track 09 : OK (v1+v2, confidence 29/33)
Track 10 : OK (v1+v2, confidence 29/33)
Track 11 : OK (v1+v2, confidence 29/33)
Track 12 : OK (v1+v2, confidence 29/33)
Track 13 : OK (v1+v2, confidence 29/33)
Track 14 : OK (v1+v2, confidence 29/33)
Track 15 : OK (v1+v2, confidence 28/32)
Track 16 : OK (v1+v2, confidence 29/33)
Track 17 : OK (v1+v2, confidence 29/33)
Track 18 : OK (v1+v2, confidence 28/32)
Track 19 : OK (v1+v2, confidence 29/33)
Track 20 : OK (v1+v2, confidence 29/33)
Track 21 : OK (v1+v2, confidence 29/33)
Track 22 : OK (v1+v2, confidence 29/33)
Track 23 : OK (v1+v2, confidence 29/33)
->All tracks accurately ripped.

All Tracks
Album gain : -1.18 dB
Peak : 0.999969
Statistics
Read error : 0
Jitter error (maybe fixed) : 0
Retry sector count : 0
Damaged sector count : 0

Track 01
Filename : /rips/Compilations - The Real Music Box - Bonus Disc [FLAC]/01 - Leonard Emanuel - Short Holler.flac
Pre-gap length : 00:02:00

Track gain : -6.80 dB
Peak : 0.947937
CRC32 hash (test run) : 60DE5B72
CRC32 hash : 60DE5B72
CRC32 hash (skip zero) : 9EDE2D19
AccurateRip v1 signature : 8315DCD7
AccurateRip v2 signature : F110484D
->Accurately ripped (v1+v2, confidence 7+22/33)
Statistics
Read error : 0
Jitter error (maybe fixed) : 0
Retry sector count : 0
Damaged sector count : 0

Track 02
Filename : /rips/Compilations - The Real Music Box - Bonus Disc [FLAC]/02 - Snuffy Jenkins & Pappy Sherrill - C & NW Railroad Blues.flac
Pre-gap length : 00:01:15

Track gain : -1.71 dB
Peak : 0.917145
CRC32 hash (test run) : 13E54845
CRC32 hash : 13E54845
CRC32 hash (skip zero) : 01E876F5
AccurateRip v1 signature : 3D57C5DC
AccurateRip v2 signature : 9DD4108A
->Accurately ripped (v1+v2, confidence 7+22/33)
Statistics
Read error : 0
Jitter error (maybe fixed) : 0
Retry sector count : 0
Damaged sector count : 0

Track 03
Filename : /rips/Compilations - The Real Music Box - Bonus Disc [FLAC]/03 - George Pegram - Just Because.flac
Pre-gap length : 00:01:25

Track gain : -1.68 dB
Peak : 0.987000
CRC32 hash (test run) : 8A2344D6
CRC32 hash : 8A2344D6
CRC32 hash (skip zero) : 90695998
AccurateRip v1 signature : C7CA7C12
AccurateRip v2 signature : 7EE5F874
->Accurately ripped (v1+v2, confidence 7+22/33)
Statistics
Read error : 0
Jitter error (maybe fixed) : 0
Retry sector count : 0
Damaged sector count : 0

Track 04
Filename : /rips/Compilations - The Real Music Box - Bonus Disc [FLAC]/04 - Brave Combo - Happy Wanderer.flac
Pre-gap length : 00:01:52

Track gain : -2.18 dB
Peak : 0.999969
CRC32 hash (test run) : 3C1FE052
CRC32 hash : 3C1FE052
CRC32 hash (skip zero) : 2502704D
AccurateRip v1 signature : DB9262AB
AccurateRip v2 signature : 77804A58
->Accurately ripped (v1+v2, confidence 7+22/33)
Statistics
Read error : 0
Jitter error (maybe fixed) : 0
Retry sector count : 0
Damaged sector count : 0

Track 05
Filename : /rips/Compilations - The Real Music Box - Bonus Disc [FLAC]/05 - Sol Y Canto - La Zenaida.flac
Pre-gap length : 00:00:55

Track gain : 0.46 dB
Peak : 0.592651
CRC32 hash (test run) : D72A9778
CRC32 hash : D72A9778
CRC32 hash (skip zero) : D6CA99B0
AccurateRip v1 signature : 42035C9C
AccurateRip v2 signature : 4B741434
->Accurately ripped (v1+v2, confidence 7+22/33)
Statistics
Read error : 0
Jitter error (maybe fixed) : 0
Retry sector count : 0
Damaged sector count : 0

Track 06
Filename : /rips/Compilations - The Real Music Box - Bonus Disc [FLAC]/06 - Sleepy LaBeef - Stagger Lee.flac
Pre-gap length : 00:00:65

Track gain : -1.50 dB
Peak : 0.595673
CRC32 hash (test run) : 93A08D5A
CRC32 hash : 93A08D5A
CRC32 hash (skip zero) : E378CD26
AccurateRip v1 signature : AA9D86EB
AccurateRip v2 signature : 799081CA
->Accurately ripped (v1+v2, confidence 7+22/33)
Statistics
Read error : 0
Jitter error (maybe fixed) : 0
Retry sector count : 0
Damaged sector count : 0

Track 07
Filename : /rips/Compilations - The Real Music Box - Bonus Disc [FLAC]/07 - George Thorogood & The Destroyers - Homesick Boys.flac
Pre-gap length : 00:01:00

Track gain : -1.26 dB
Peak : 0.668335
CRC32 hash (test run) : 22FD9C5B
CRC32 hash : 22FD9C5B
CRC32 hash (skip zero) : 7CF138CA
AccurateRip v1 signature : 7CF94FBB
AccurateRip v2 signature : C8617D5B
->Accurately ripped (v1+v2, confidence 7+22/33)
Statistics
Read error : 0
Jitter error (maybe fixed) : 0
Retry sector count : 0
Damaged sector count : 0

Track 08
Filename : /rips/Compilations - The Real Music Box - Bonus Disc [FLAC]/08 - Breakfast Special - Winter Sun.flac
Pre-gap length : 00:01:07

Track gain : -0.90 dB
Peak : 0.794312
CRC32 hash (test run) : 4470C0D7
CRC32 hash : 4470C0D7
CRC32 hash (skip zero) : 51603248
AccurateRip v1 signature : 17E1DB78
AccurateRip v2 signature : 8588A501
->Accurately ripped (v1+v2, confidence 7+22/33)
Statistics
Read error : 0
Jitter error (maybe fixed) : 0
Retry sector count : 0
Damaged sector count : 0

Track 09
Filename : /rips/Compilations - The Real Music Box - Bonus Disc [FLAC]/09 - The Holy Modal Rounders - Synergy.flac
Pre-gap length : 00:01:00

Track gain : -1.81 dB
Peak : 0.711517
CRC32 hash (test run) : BB9DF97F
CRC32 hash : BB9DF97F
CRC32 hash (skip zero) : 59246B53
AccurateRip v1 signature : AB4E8CBE
AccurateRip v2 signature : 30F058A7
->Accurately ripped (v1+v2, confidence 7+22/33)
Statistics
Read error : 0
Jitter error (maybe fixed) : 0
Retry sector count : 0
Damaged sector count : 0

Track 10
Filename : /rips/Compilations - The Real Music Box - Bonus Disc [FLAC]/10 - Klezmer Conservatory Band - Dos Keshenever.flac
Pre-gap length : 00:01:27

Track gain : -1.70 dB
Peak : 0.942932
CRC32 hash (test run) : BF8943B0
CRC32 hash : BF8943B0
CRC32 hash (skip zero) : 515079A0
AccurateRip v1 signature : D258F641
AccurateRip v2 signature : 37DBC1EF
->Accurately ripped (v1+v2, confidence 7+22/33)
Statistics
Read error : 0
Jitter error (maybe fixed) : 0
Retry sector count : 0
Damaged sector count : 0

Track 11
Filename : /rips/Compilations - The Real Music Box - Bonus Disc [FLAC]/11 - The Blue Sky Boys - Just A Strand From A Yellow Curl.flac
Pre-gap length : 00:00:53

Track gain : -0.46 dB
Peak : 0.999969
CRC32 hash (test run) : 78918FEE
CRC32 hash : 78918FEE
CRC32 hash (skip zero) : 81218548
AccurateRip v1 signature : 7566FEB6
AccurateRip v2 signature : F9AD9210
->Accurately ripped (v1+v2, confidence 7+22/33)
Statistics
Read error : 0
Jitter error (maybe fixed) : 0
Retry sector count : 0
Damaged sector count : 0

Track 12
Filename : /rips/Compilations - The Real Music Box - Bonus Disc [FLAC]/12 - Jonathan Richman - Since She Started To Ride.flac
Pre-gap length : 00:01:07

Track gain : 0.16 dB
Peak : 0.687073
CRC32 hash (test run) : B7A5D5A1
CRC32 hash : B7A5D5A1
CRC32 hash (skip zero) : 85F46334
AccurateRip v1 signature : E4816033
AccurateRip v2 signature : F9C3CBC8
->Accurately ripped (v1+v2, confidence 7+22/33)
Statistics
Read error : 0
Jitter error (maybe fixed) : 0
Retry sector count : 0
Damaged sector count : 0

Track 13
Filename : /rips/Compilations - The Real Music Box - Bonus Disc [FLAC]/13 - Joseph Spence - If I Could Hear My Mother Pray Again.flac
Pre-gap length : 00:01:05

Track gain : -1.86 dB
Peak : 0.936096
CRC32 hash (test run) : 6793E959
CRC32 hash : 6793E959
CRC32 hash (skip zero) : 43765AB7
AccurateRip v1 signature : E1CC3D59
AccurateRip v2 signature : 8A4D72A8
->Accurately ripped (v1+v2, confidence 7+22/33)
Statistics
Read error : 0
Jitter error (maybe fixed) : 0
Retry sector count : 0
Damaged sector count : 0

Track 14
Filename : /rips/Compilations - The Real Music Box - Bonus Disc [FLAC]/14 - The Blazers - Cumbia Del Sol.flac
Pre-gap length : 00:02:03

Track gain : 0.33 dB
Peak : 0.699890
CRC32 hash (test run) : 572FE909
CRC32 hash : 572FE909
CRC32 hash (skip zero) : 24C6A4B1
AccurateRip v1 signature : 52FE5F7C
AccurateRip v2 signature : 6222D191
->Accurately ripped (v1+v2, confidence 7+22/33)
Statistics
Read error : 0
Jitter error (maybe fixed) : 0
Retry sector count : 0
Damaged sector count : 0

Track 15
Filename : /rips/Compilations - The Real Music Box - Bonus Disc [FLAC]/15 - Los Pinkys With Isidro Samilpa - El Cool Dude-La Piedrera.flac
Pre-gap length : 00:00:68

Track gain : -1.20 dB
Peak : 0.660828
CRC32 hash (test run) : 32140DBB
CRC32 hash : 32140DBB
CRC32 hash (skip zero) : 10DA734F
AccurateRip v1 signature : 035F36BC
AccurateRip v2 signature : 99A9D4C0
->Accurately ripped (v1+v2, confidence 7+21/32)
Statistics
Read error : 0
Jitter error (maybe fixed) : 0
Retry sector count : 0
Damaged sector count : 0

Track 16
Filename : /rips/Compilations - The Real Music Box - Bonus Disc [FLAC]/16 - The Highwoods String Band - Who Broke The Lock.flac
Pre-gap length : 00:00:60

Track gain : -3.00 dB
Peak : 0.912048
CRC32 hash (test run) : 5C0576B7
CRC32 hash : 5C0576B7
CRC32 hash (skip zero) : 44002243
AccurateRip v1 signature : 6DF35F24
AccurateRip v2 signature : 984F59C4
->Accurately ripped (v1+v2, confidence 7+22/33)
Statistics
Read error : 0
Jitter error (maybe fixed) : 0
Retry sector count : 0
Damaged sector count : 0

Track 17
Filename : /rips/Compilations - The Real Music Box - Bonus Disc [FLAC]/17 - Mike Seeger & Peggy Seeger - All Around The Kitchen.flac
Pre-gap length : 00:01:02

Track gain : 4.25 dB
Peak : 0.975464
CRC32 hash (test run) : 143F8D2F
CRC32 hash : 143F8D2F
CRC32 hash (skip zero) : 63163C99
AccurateRip v1 signature : F0CD4642
AccurateRip v2 signature : 1D340F7B
->Accurately ripped (v1+v2, confidence 7+22/33)
Statistics
Read error : 0
Jitter error (maybe fixed) : 0
Retry sector count : 0
Damaged sector count : 0

Track 18
Filename : /rips/Compilations - The Real Music Box - Bonus Disc [FLAC]/18 - Tabu Ley Rochereau & L'Afrisa International - Sala Noki Pascal.flac
Pre-gap length : 00:00:73

Track gain : -1.35 dB
Peak : 0.436554
CRC32 hash (test run) : 4878D24E
CRC32 hash : 4878D24E
CRC32 hash (skip zero) : B35F9FD4
AccurateRip v1 signature : 8C550440
AccurateRip v2 signature : 37A2385B
->Accurately ripped (v1+v2, confidence 7+21/32)
Statistics
Read error : 0
Jitter error (maybe fixed) : 0
Retry sector count : 0
Damaged sector count : 0

Track 19
Filename : /rips/Compilations - The Real Music Box - Bonus Disc [FLAC]/19 - John Miller - Lady Be Good.flac
Pre-gap length : 00:00:53

Track gain : 1.69 dB
Peak : 0.894012
CRC32 hash (test run) : 6AB1CE36
CRC32 hash : 6AB1CE36
CRC32 hash (skip zero) : 01119E63
AccurateRip v1 signature : 23D00371
AccurateRip v2 signature : E731A183
->Accurately ripped (v1+v2, confidence 7+22/33)
Statistics
Read error : 0
Jitter error (maybe fixed) : 0
Retry sector count : 0
Damaged sector count : 0

Track 20
Filename : /rips/Compilations - The Real Music Box - Bonus Disc [FLAC]/20 - Last Roundup - Mama's Last Stand.flac
Pre-gap length : 00:00:72

Track gain : -0.61 dB
Peak : 0.570435
CRC32 hash (test run) : C8B3A6BC
CRC32 hash : C8B3A6BC
CRC32 hash (skip zero) : 1644CDB3
AccurateRip v1 signature : 46F348A0
AccurateRip v2 signature : CEC2C115
->Accurately ripped (v1+v2, confidence 7+22/33)
Statistics
Read error : 0
Jitter error (maybe fixed) : 0
Retry sector count : 0
Damaged sector count : 0

Track 21
Filename : /rips/Compilations - The Real Music Box - Bonus Disc [FLAC]/21 - Russ Barenberg - Cowboy Calypso.flac

Track gain : -0.78 dB
Peak : 0.780914
CRC32 hash (test run) : 891FFD3A
CRC32 hash : 891FFD3A
CRC32 hash (skip zero) : C7C6FB2D
AccurateRip v1 signature : BEE190EE
AccurateRip v2 signature : F501AEB2
->Accurately ripped (v1+v2, confidence 7+22/33)
Statistics
Read error : 0
Jitter error (maybe fixed) : 0
Retry sector count : 0
Damaged sector count : 0

Track 22
Filename : /rips/Compilations - The Real Music Box - Bonus Disc [FLAC]/22 - Cowboy Jazz - Too Much Fun.flac
Pre-gap length : 00:01:10

Track gain : -2.18 dB
Peak : 0.660706
CRC32 hash (test run) : 07A11A0D
CRC32 hash : 07A11A0D
CRC32 hash (skip zero) : C843E10A
AccurateRip v1 signature : 4BDF61D9
AccurateRip v2 signature : FB3E4D22
->Accurately ripped (v1+v2, confidence 7+22/33)
Statistics
Read error : 0
Jitter error (maybe fixed) : 0
Retry sector count : 0
Damaged sector count : 0

Track 23
Filename : /rips/Compilations - The Real Music Box - Bonus Disc [FLAC]/23 - Alhaji Bai Konte - Tuning The Kora.flac
Pre-gap length : 00:01:10

Track gain : 3.25 dB
Peak : 0.999969
CRC32 hash (test run) : 556C0E00
CRC32 hash : 556C0E00
CRC32 hash (skip zero) : 160415BC
AccurateRip v1 signature : 7EA5C778
AccurateRip v2 signature : F82B38A5
->Accurately ripped (v1+v2, confidence 7+22/33)
Statistics
Read error : 0
Jitter error (maybe fixed) : 0
Retry sector count : 0
Damaged sector count : 0

No errors occurred

End of status report

––-BEGIN XLD SIGNATURE––-
Go_x7yVgU_v7umXw_19ZMiwfDhwnsIw21ofOKMuOFs3DDnKU1lnlxVu9j5Rf5sjeB8XzRVmOEGx.vZt6RYyKqO53Dl4aQ.hoSrgb3hO
––-END XLD SIGNATURE––-


Various Artists - The Real Music Box: 25 Years of Rounder Records (1995) {9CD Set, Rounder Records ‎CDAN25}

Various Artists - The Real Music Box: 25 Years of Rounder Records (1995) {9CD Set, Rounder Records ‎CDAN25}

Various Artists - The Real Music Box: 25 Years of Rounder Records (1995) {9CD Set, Rounder Records ‎CDAN25}



===