Subcategories
Tags
Language
Tags

Various Artists - The Edge Of The Eighties (2008) {3 CD Set Sony BMG 88697293402}

Posted By: ruskaval
Various Artists - The Edge Of The Eighties (2008) {3 CD Set Sony BMG 88697293402}

Various Artists - The Edge Of The Eighties (2008) {3 CD Set Sony BMG 88697293402}
EAC rip (secure mode) | FLAC (tracks)+CUE+LOG -> 1.34 Gb | MP3 @320 -> 477 Mb
Full Artwork @ 300 dpi (jpg) -> 16 Mb | 5% repair rar
© 2008 Sony BMG Music | 88697293402
Pop / New Wave / Synth Pop

The early 80's is now a quarter of a century ago! Whilst there have been many 80's compilations we feel now is a good time to release an `edgier', cooler tracklisting highlighting some of the artists and tracks that may not be as familiar, but still defined the times. Many of these tracks have only previously been available on vinyl. "Great mix of eighties music that goes that little bit deeper then the usual eighties collection. A mix of classic eighties and the obscure. I would strongly recommend this to anyone who wants to relive that eighties feeling".
There are so many 80s music collections being released these days that I must admit to being more than slightly bored by most of them. The trouble is, so many of them are either padded out with singles that are so obscure that I can’t even remember them or they have the same repetitive handful of hits from the likes of Culture Club, Duran and Dead Or Alive. If I get one more CD with ‘You Spin Me Round’, I swear I’ll tear up my leotard!
I’m glad to say that the newly released Edge Of the Eighties (3 CD) set is a good deal better than the average. It begins magisterially with two of the truly great songs of the early ‘80s, Ultravox’s Vienna and Visage’s Fade To Grey… But then it branches out into some less obvious highways and byways of 80s music. There’s Soft Cell singing the wonderful ‘Torch’ rather than the more frequently anthologized ‘Tainted Love’. There’s David Bowie singing the far from obvious ‘Up The Hill Backwards’ - and there is, inevitably, Dead Or Alive but (for a nice change) singing one of their other hits - ‘That’s The Way (I Like It)’.
There is a pretty good mix of 80s music here, as a matter of fact - ranging from the super well-known performers such as Adam and the Ants and Siouxsie and the Banshees to the unjustifiably forgotten (by all but their fans, that is!) bands such as Telex and Swansway.
Various Artists - The Edge Of The Eighties (2008) {3 CD Set Sony BMG 88697293402}


Track Listing & Musicians

Disc: 1

1. Ultravox - Vienna
2. Visage - Fade To Grey
3. Soft Cell - Torch
4. Passions - I'm In Love With A German Filmstar
5. Japan - Quiet Life
6. Landscape - Einstein A Go-Go
7. Simple Minds - Glittering Prize
8. Adam & The Ants - Dog Eat Dog
9. Bow Wow Wow - Go Wild In The Country
10. Altered Images - Don't Talk To Me About Love
11. Fiction Factory - Feels Like Heaven
12. Furniture - Brilliant Mind
13. Lotus Eaters - The First Picture Of You
14. David Sylvian - Red Guitar
15. Associates - Party Fears Two
16. ABC - That Was Then
17. Haysi Fantayzee - John Wayne Is Big Leggy
18. Haircut 100 - Favourite Shirts

Various Artists - The Edge Of The Eighties (2008) {3 CD Set Sony BMG 88697293402}


Disc: 2
1. New Order - Temptation
2. Propaganda - Duel
3. Swansway - Soul Train
4. Joy Division - Atmosphere
5. Cocteau Twins - Pearly Dewrdrops\x{2019} Drops
6. Mobiles - Drowning In Berlin
7. Pretenders - Talk Of The Town
8. Susan Fassbender - Twilight Café
9. Art Of Noise - Beatbox
10. SPK - Metal Dance
11. A Flock Of Seagulls - I Ran
12. Tears For Fears - Pale Shelter
13. Blue Zoo - Cry Boy Cry
14. B-Movie - Remembrance Day
15. Thompson Twins - In The Name Of Love
16. Blancmange - Living On The Ceiling
17. Men Without Hats - Safety Dance
18. H20 - I Dream To Sleep

Various Artists - The Edge Of The Eighties (2008) {3 CD Set Sony BMG 88697293402}


Disc: 3
1. Siouxsie & The Banshees - Dear Prudence
2. The Cure - The Walk
3. Scritti Politti - Absolute
4. Talk Talk - It's My Life
5. Japan - Life In Tokyo
6. David Bowie - Up The Hill Backwards
7. Devo - Whip It
8. Our Daughters Wedding - Lawnchairs
9. Bauhaus - Kick In The Eye
10. Spear Of Destiny - Liberator
11. Echo & The Bunnymen - The Back Of Love
12. Bow Wow Wow - Chihuahua
13. Dead Or Alive - That's The Way (I Like It)
14. Psychedelic Furs - Love My Way
15. Stranglers - European Female
16. Telex - Moskow Diskow
17. Laurie Anderson - O Superman

Various Artists - The Edge Of The Eighties (2008) {3 CD Set Sony BMG 88697293402}


Exact Audio Copy V1.0 beta 1 from 15. November 2010

EAC extraction logfile from 19. December 2011, 19:58

Various / The Edge Of The Eighties [Disc-1]

Used drive : ATAPI iHAP122 9 Adapter: 0 ID: 1

Read mode : Secure
Utilize accurate stream : Yes
Defeat audio cache : Yes
Make use of C2 pointers : No

Read offset correction : 6
Overread into Lead-In and Lead-Out : No
Fill up missing offset samples with silence : Yes
Delete leading and trailing silent blocks : No
Null samples used in CRC calculations : Yes
Used interface : Installed external ASPI interface
Gap handling : Appended to previous track

Used output format : User Defined Encoder
Selected bitrate : 896 kBit/s
Quality : High
Add ID3 tag : No
Command line compressor : C:\Program Files\Exact Audio Copy\Flac\flac.exe
Additional command line options : -8 -V -T "ARTIST=%a" -T "TITLE=%t" -T "ALBUM=%g" -T "DATE=%y" -T "TRACKNUMBER=%n" -T "TOTALTRACKS=%x" -T "GENRE=%m" -T "ALBUMARTIST=%v" -T "ALBUM ARTIST=%v" -T "COMMENT=EAC Secure Mode, Test & Copy, AccurateRip, FLAC -8" %s


TOC of the extracted CD

Track | Start | Length | Start sector | End sector
––––––––––––––––––––––––––––-
1 | 0:00.00 | 4:40.17 | 0 | 21016
2 | 4:40.17 | 3:49.71 | 21017 | 38262
3 | 8:30.13 | 4:09.20 | 38263 | 56957
4 | 12:39.33 | 3:58.35 | 56958 | 74842
5 | 16:37.68 | 3:35.37 | 74843 | 91004
6 | 20:13.30 | 3:01.21 | 91005 | 104600
7 | 23:14.51 | 3:58.46 | 104601 | 122496
8 | 27:13.22 | 3:10.43 | 122497 | 136789
9 | 30:23.65 | 3:00.30 | 136790 | 150319
10 | 33:24.20 | 3:49.17 | 150320 | 167511
11 | 37:13.37 | 3:31.49 | 167512 | 183385
12 | 40:45.11 | 3:42.69 | 183386 | 200104
13 | 44:28.05 | 3:39.65 | 200105 | 216594
14 | 48:07.70 | 5:03.05 | 216595 | 239324
15 | 53:11.00 | 4:07.67 | 239325 | 257916
16 | 57:18.67 | 3:35.06 | 257917 | 274047
17 | 60:53.73 | 3:22.28 | 274048 | 289225
18 | 64:16.26 | 3:58.55 | 289226 | 307130


Track 1

Filename C:\Program Files\Exact Audio Copy\Flac\01 - Ultravox - Vienna.wav

Pre-gap length 0:00:02.00

Peak level 99.8 %
Extraction speed 2.9 X
Track quality 99.9 %
Test CRC 92724379
Copy CRC 92724379
Accurately ripped (confidence 2) [F4E8EA91]
Copy OK

Track 2

Filename C:\Program Files\Exact Audio Copy\Flac\02 - Visage - Fade To Grey.wav

Pre-gap length 0:00:01.51

Peak level 99.8 %
Extraction speed 3.4 X
Track quality 100.0 %
Test CRC 702FF7D2
Copy CRC 702FF7D2
Accurately ripped (confidence 2) [71182FF4]
Copy OK

Track 3

Filename C:\Program Files\Exact Audio Copy\Flac\03 - Soft Cell - Torch.wav

Pre-gap length 0:00:01.51

Peak level 99.8 %
Extraction speed 3.4 X
Track quality 100.0 %
Test CRC 2F99383E
Copy CRC 2F99383E
Accurately ripped (confidence 2) [2364A20C]
Copy OK

Track 4

Filename C:\Program Files\Exact Audio Copy\Flac\04 - The Passions - I'm In Love With A German Film Star.wav

Pre-gap length 0:00:01.51

Peak level 99.8 %
Extraction speed 3.4 X
Track quality 100.0 %
Test CRC 040F345C
Copy CRC 040F345C
Accurately ripped (confidence 2) [163C128E]
Copy OK

Track 5

Filename C:\Program Files\Exact Audio Copy\Flac\05 - Japan - Quiet Life.wav

Pre-gap length 0:00:01.51

Peak level 99.8 %
Extraction speed 2.9 X
Track quality 99.9 %
Test CRC E3DDF426
Copy CRC E3DDF426
Accurately ripped (confidence 2) [94DB516E]
Copy OK

Track 6

Filename C:\Program Files\Exact Audio Copy\Flac\06 - Landscape - Einstein A Go-Go.wav

Pre-gap length 0:00:01.51

Peak level 99.8 %
Extraction speed 3.3 X
Track quality 100.0 %
Test CRC 075E3973
Copy CRC 075E3973
Accurately ripped (confidence 2) [92AB6098]
Copy OK

Track 7

Filename C:\Program Files\Exact Audio Copy\Flac\07 - Simple Minds - Glittering Prize.wav

Pre-gap length 0:00:01.51

Peak level 99.8 %
Extraction speed 3.4 X
Track quality 100.0 %
Test CRC 785351A8
Copy CRC 785351A8
Accurately ripped (confidence 2) [4093D6E7]
Copy OK

Track 8

Filename C:\Program Files\Exact Audio Copy\Flac\08 - Adam And The Ants - Dog Eat Dog.wav

Pre-gap length 0:00:01.51

Peak level 99.8 %
Extraction speed 2.8 X
Track quality 99.9 %
Test CRC 943FC728
Copy CRC 943FC728
Accurately ripped (confidence 2) [A2C8881C]
Copy OK

Track 9

Filename C:\Program Files\Exact Audio Copy\Flac\09 - Bow Wow Wow - Go Wild In The Country.wav

Pre-gap length 0:00:01.51

Peak level 99.8 %
Extraction speed 3.3 X
Track quality 100.0 %
Test CRC AE833A96
Copy CRC AE833A96
Accurately ripped (confidence 2) [7C916EE3]
Copy OK

Track 10

Filename C:\Program Files\Exact Audio Copy\Flac\10 - Altered Images - Don't Talk To Me About Love.wav

Pre-gap length 0:00:01.51

Peak level 99.8 %
Extraction speed 3.5 X
Track quality 100.0 %
Test CRC DB47DE22
Copy CRC DB47DE22
Accurately ripped (confidence 2) [4F6613A9]
Copy OK

Track 11

Filename C:\Program Files\Exact Audio Copy\Flac\11 - Fiction Factory - (Feels Like) Heaven.wav

Pre-gap length 0:00:01.51

Peak level 99.8 %
Extraction speed 3.4 X
Track quality 100.0 %
Test CRC B3C43C1B
Copy CRC B3C43C1B
Accurately ripped (confidence 2) [ECDA2FA7]
Copy OK

Track 12

Filename C:\Program Files\Exact Audio Copy\Flac\12 - Furniture - Brilliant Mind.wav

Pre-gap length 0:00:01.51

Peak level 99.8 %
Extraction speed 3.5 X
Track quality 100.0 %
Test CRC 7282DD6A
Copy CRC 7282DD6A
Accurately ripped (confidence 2) [E0E3B725]
Copy OK

Track 13

Filename C:\Program Files\Exact Audio Copy\Flac\13 - Lotus Eaters - The First Picture Of You.wav

Pre-gap length 0:00:01.51

Peak level 99.8 %
Extraction speed 3.5 X
Track quality 100.0 %
Test CRC FAF7F05E
Copy CRC FAF7F05E
Accurately ripped (confidence 2) [F76E759B]
Copy OK

Track 14

Filename C:\Program Files\Exact Audio Copy\Flac\14 - David Sylvian - Red Guitar.wav

Pre-gap length 0:00:01.51

Peak level 99.8 %
Extraction speed 3.6 X
Track quality 100.0 %
Test CRC BD131A9E
Copy CRC BD131A9E
Accurately ripped (confidence 2) [678B088F]
Copy OK

Track 15

Filename C:\Program Files\Exact Audio Copy\Flac\15 - The Associates - Party Fears Two.wav

Pre-gap length 0:00:01.51

Peak level 99.8 %
Extraction speed 3.5 X
Track quality 100.0 %
Test CRC 869BADF7
Copy CRC 869BADF7
Accurately ripped (confidence 2) [03AE02AC]
Copy OK

Track 16

Filename C:\Program Files\Exact Audio Copy\Flac\16 - ABC - That Was Then But This Is Now.wav

Pre-gap length 0:00:01.51

Peak level 99.8 %
Extraction speed 3.4 X
Track quality 100.0 %
Test CRC 3BC99789
Copy CRC 3BC99789
Accurately ripped (confidence 2) [CBB43D69]
Copy OK

Track 17

Filename C:\Program Files\Exact Audio Copy\Flac\17 - Haysi Fantayzee - John Wayne Is Big Leggy.wav

Pre-gap length 0:00:01.51

Peak level 99.8 %
Extraction speed 3.4 X
Track quality 100.0 %
Test CRC 9FCC54F8
Copy CRC 9FCC54F8
Accurately ripped (confidence 2) [A54B639B]
Copy OK

Track 18

Filename C:\Program Files\Exact Audio Copy\Flac\18 - Marilyn - Calling Your Name.wav

Pre-gap length 0:00:01.51

Peak level 99.8 %
Extraction speed 2.8 X
Track quality 99.9 %
Test CRC 51FFF9AC
Copy CRC 51FFF9AC
Accurately ripped (confidence 2) [89A3595E]
Copy OK


All tracks accurately ripped

No errors occurred

End of status report

==== Log checksum C29B5228DD50CDC15E0F7CCD09A5E4260A30F4693F0BBB3BB4ADAAA681608026 ====
Exact Audio Copy V1.0 beta 1 from 15. November 2010

EAC extraction logfile from 20. December 2011, 0:24

Various Artists / The Edge Of The Eighties [Disc-2]

Used drive : ATAPI iHAP122 9 Adapter: 0 ID: 1

Read mode : Secure
Utilize accurate stream : Yes
Defeat audio cache : Yes
Make use of C2 pointers : No

Read offset correction : 6
Overread into Lead-In and Lead-Out : No
Fill up missing offset samples with silence : Yes
Delete leading and trailing silent blocks : No
Null samples used in CRC calculations : Yes
Used interface : Installed external ASPI interface
Gap handling : Appended to previous track

Used output format : User Defined Encoder
Selected bitrate : 896 kBit/s
Quality : High
Add ID3 tag : No
Command line compressor : C:\Program Files\Exact Audio Copy\Flac\flac.exe
Additional command line options : -8 -V -T "ARTIST=%a" -T "TITLE=%t" -T "ALBUM=%g" -T "DATE=%y" -T "TRACKNUMBER=%n" -T "TOTALTRACKS=%x" -T "GENRE=%m" -T "ALBUMARTIST=%v" -T "ALBUM ARTIST=%v" -T "COMMENT=EAC Secure Mode, Test & Copy, AccurateRip, FLAC -8" %s


TOC of the extracted CD

Track | Start | Length | Start sector | End sector
––––––––––––––––––––––––––––-
1 | 0:00.00 | 5:24.27 | 0 | 24326
2 | 5:24.27 | 4:44.72 | 24327 | 45698
3 | 10:09.24 | 3:15.21 | 45699 | 60344
4 | 13:24.45 | 4:10.42 | 60345 | 79136
5 | 17:35.12 | 3:26.60 | 79137 | 94646
6 | 21:01.72 | 3:14.40 | 94647 | 109236
7 | 24:16.37 | 3:20.66 | 109237 | 124302
8 | 27:37.28 | 4:02.23 | 124303 | 142475
9 | 31:39.51 | 3:12.16 | 142476 | 156891
10 | 34:51.67 | 3:41.74 | 156892 | 173540
11 | 38:33.66 | 4:27.49 | 173541 | 193614
12 | 43:01.40 | 3:57.11 | 193615 | 211400
13 | 46:58.51 | 4:04.64 | 211401 | 229764
14 | 51:03.40 | 3:47.26 | 229765 | 246815
15 | 54:50.66 | 4:01.53 | 246816 | 264943
16 | 58:52.44 | 2:46.13 | 264944 | 277406
17 | 61:38.57 | 3:06.68 | 277407 | 291424
18 | 64:45.50 | 3:57.38 | 291425 | 309237


Track 1

Filename C:\Program Files\Exact Audio Copy\Flac\01 - New Order - Temptation.wav

Pre-gap length 0:00:02.00

Peak level 99.8 %
Extraction speed 3.5 X
Track quality 100.0 %
Test CRC 8E57E713
Copy CRC 8E57E713
Accurately ripped (confidence 2) [4BCA2099]
Copy OK

Track 2

Filename C:\Program Files\Exact Audio Copy\Flac\02 - Propaganda - Duel.wav

Pre-gap length 0:00:01.51

Peak level 99.8 %
Extraction speed 3.5 X
Track quality 100.0 %
Test CRC 3F61168C
Copy CRC 3F61168C
Accurately ripped (confidence 2) [CE3FFEC2]
Copy OK

Track 3

Filename C:\Program Files\Exact Audio Copy\Flac\03 - Swansway - Soul Train.wav

Pre-gap length 0:00:01.51

Peak level 99.8 %
Extraction speed 3.3 X
Track quality 100.0 %
Test CRC 09CD7455
Copy CRC 09CD7455
Accurately ripped (confidence 2) [702B5A33]
Copy OK

Track 4

Filename C:\Program Files\Exact Audio Copy\Flac\04 - Joy Division - Atmosphere.wav

Pre-gap length 0:00:01.51

Peak level 99.8 %
Extraction speed 3.5 X
Track quality 100.0 %
Test CRC 9303BE16
Copy CRC 9303BE16
Accurately ripped (confidence 2) [14E65937]
Copy OK

Track 5

Filename C:\Program Files\Exact Audio Copy\Flac\05 - Mobiles - Drowning In Berlin.wav

Pre-gap length 0:00:01.51

Peak level 99.8 %
Extraction speed 3.3 X
Track quality 100.0 %
Test CRC 99E4B017
Copy CRC 99E4B017
Accurately ripped (confidence 2) [A88CA4C6]
Copy OK

Track 6

Filename C:\Program Files\Exact Audio Copy\Flac\06 - Pretenders - Talk Of The Town.wav

Pre-gap length 0:00:01.51

Peak level 99.8 %
Extraction speed 3.3 X
Track quality 100.0 %
Test CRC 20864EAF
Copy CRC 20864EAF
Accurately ripped (confidence 2) [74C473AA]
Copy OK

Track 7

Filename C:\Program Files\Exact Audio Copy\Flac\07 - Susan Fassbender - Twilight Cafe.wav

Pre-gap length 0:00:01.51

Peak level 99.8 %
Extraction speed 2.8 X
Track quality 99.9 %
Test CRC 8BB74012
Copy CRC 8BB74012
Accurately ripped (confidence 2) [340B2DA7]
Copy OK

Track 8

Filename C:\Program Files\Exact Audio Copy\Flac\08 - Art Of Noise - Beat Box.wav

Pre-gap length 0:00:01.51

Peak level 99.8 %
Extraction speed 3.5 X
Track quality 100.0 %
Test CRC C1DFEF05
Copy CRC C1DFEF05
Accurately ripped (confidence 2) [F9ED8690]
Copy OK

Track 9

Filename C:\Program Files\Exact Audio Copy\Flac\09 - Aztec Camera - Oblivious.wav

Pre-gap length 0:00:01.51

Peak level 99.8 %
Extraction speed 3.3 X
Track quality 100.0 %
Test CRC 93A955CC
Copy CRC 93A955CC
Accurately ripped (confidence 2) [64C9C84A]
Copy OK

Track 10

Filename C:\Program Files\Exact Audio Copy\Flac\10 - A Flock Of Seagulls - I Ran (So Far Away).wav

Pre-gap length 0:00:01.51

Peak level 99.8 %
Extraction speed 3.4 X
Track quality 100.0 %
Test CRC 03799E9D
Copy CRC 03799E9D
Accurately ripped (confidence 2) [A1F378E1]
Copy OK

Track 11

Filename C:\Program Files\Exact Audio Copy\Flac\11 - Tears For Fears - Pale Shelter.wav

Pre-gap length 0:00:01.51

Peak level 99.8 %
Extraction speed 3.1 X
Track quality 99.9 %
Test CRC 1116C95A
Copy CRC 1116C95A
Accurately ripped (confidence 2) [28FAC9FF]
Copy OK

Track 12

Filename C:\Program Files\Exact Audio Copy\Flac\12 - Blue Zoo - Cry Boy Cry.wav

Pre-gap length 0:00:01.51

Peak level 99.8 %
Extraction speed 3.5 X
Track quality 100.0 %
Test CRC 3E79C1D1
Copy CRC 3E79C1D1
Accurately ripped (confidence 2) [98EA8C6F]
Copy OK

Track 13

Filename C:\Program Files\Exact Audio Copy\Flac\13 - B-Movie - Remembrance Day.wav

Pre-gap length 0:00:01.51

Peak level 99.8 %
Extraction speed 3.5 X
Track quality 100.0 %
Test CRC 48FAB6D6
Copy CRC 48FAB6D6
Accurately ripped (confidence 2) [B8502C46]
Copy OK

Track 14

Filename C:\Program Files\Exact Audio Copy\Flac\14 - Thompson Twins - In The Name Of Love.wav

Pre-gap length 0:00:01.51

Peak level 99.8 %
Extraction speed 3.5 X
Track quality 100.0 %
Test CRC E8D9DE51
Copy CRC E8D9DE51
Accurately ripped (confidence 2) [C291AD72]
Copy OK

Track 15

Filename C:\Program Files\Exact Audio Copy\Flac\15 - Blancmange - Living On The Ceiling.wav

Pre-gap length 0:00:01.51

Peak level 99.8 %
Extraction speed 3.5 X
Track quality 100.0 %
Test CRC A034FE92
Copy CRC A034FE92
Accurately ripped (confidence 2) [B4805AB0]
Copy OK

Track 16

Filename C:\Program Files\Exact Audio Copy\Flac\16 - Men Without Hats - Safety Dance.wav

Pre-gap length 0:00:01.51

Peak level 99.8 %
Extraction speed 3.3 X
Track quality 100.0 %
Test CRC 69CA8997
Copy CRC 69CA8997
Accurately ripped (confidence 2) [C2C081D2]
Copy OK

Track 17

Filename C:\Program Files\Exact Audio Copy\Flac\17 - Haircut 100 - Favourite Shirts (Boy Meets Girl).wav

Pre-gap length 0:00:01.51

Peak level 99.8 %
Extraction speed 3.4 X
Track quality 100.0 %
Test CRC 3C41D08F
Copy CRC 3C41D08F
Accurately ripped (confidence 2) [41BA75DE]
Copy OK

Track 18

Filename C:\Program Files\Exact Audio Copy\Flac\18 - H20 - Dream To Sleep.wav

Pre-gap length 0:00:01.51

Peak level 99.8 %
Extraction speed 3.4 X
Track quality 100.0 %
Test CRC 79601322
Copy CRC 79601322
Accurately ripped (confidence 2) [2AD713B7]
Copy OK


All tracks accurately ripped

No errors occurred

End of status report

==== Log checksum 917F53CA329192BC3BC8F72CD3617963993FC17E516380C09895428B14C311B7 ====
Exact Audio Copy V1.0 beta 1 from 15. November 2010

EAC extraction logfile from 20. December 2011, 13:08

Various Artists / The Edge Of The Eighties [Disc-3]

Used drive : ATAPI iHAP122 9 Adapter: 0 ID: 1

Read mode : Secure
Utilize accurate stream : Yes
Defeat audio cache : Yes
Make use of C2 pointers : No

Read offset correction : 6
Overread into Lead-In and Lead-Out : No
Fill up missing offset samples with silence : Yes
Delete leading and trailing silent blocks : No
Null samples used in CRC calculations : Yes
Used interface : Installed external ASPI interface
Gap handling : Appended to previous track

Used output format : User Defined Encoder
Selected bitrate : 896 kBit/s
Quality : High
Add ID3 tag : No
Command line compressor : C:\Program Files\Exact Audio Copy\Flac\flac.exe
Additional command line options : -8 -V -T "ARTIST=%a" -T "TITLE=%t" -T "ALBUM=%g" -T "DATE=%y" -T "TRACKNUMBER=%n" -T "TOTALTRACKS=%x" -T "GENRE=%m" -T "ALBUMARTIST=%v" -T "ALBUM ARTIST=%v" -T "COMMENT=EAC Secure Mode, Test & Copy, AccurateRip, FLAC -8" %s


TOC of the extracted CD

Track | Start | Length | Start sector | End sector
––––––––––––––––––––––––––––-
1 | 0:00.00 | 3:50.45 | 0 | 17294
2 | 3:50.45 | 3:30.41 | 17295 | 33085
3 | 7:21.11 | 3:31.58 | 33086 | 48968
4 | 10:52.69 | 3:15.46 | 48969 | 63639
5 | 14:08.40 | 2:40.04 | 63640 | 75643
6 | 16:48.44 | 3:27.16 | 75644 | 91184
7 | 20:15.60 | 3:36.62 | 91185 | 107446
8 | 23:52.47 | 3:40.41 | 107447 | 123987
9 | 27:33.13 | 3:15.02 | 123988 | 138614
10 | 30:48.15 | 3:25.26 | 138615 | 154015
11 | 34:13.41 | 3:09.52 | 154016 | 168242
12 | 37:23.18 | 3:49.66 | 168243 | 185483
13 | 41:13.09 | 3:06.61 | 185484 | 199494
14 | 44:19.70 | 3:33.70 | 199495 | 215539
15 | 47:53.65 | 4:02.66 | 215540 | 233755
16 | 51:56.56 | 4:08.24 | 233756 | 252379
17 | 56:05.05 | 8:24.49 | 252380 | 290228


Track 1

Filename C:\Program Files\Exact Audio Copy\Flac\01 - Siouxsie & The Banshees - Dear Prudence.wav

Pre-gap length 0:00:02.00

Peak level 99.8 %
Extraction speed 3.2 X
Track quality 100.0 %
Test CRC 173CAF69
Copy CRC 173CAF69
Accurately ripped (confidence 2) [BC027041]
Copy OK

Track 2

Filename C:\Program Files\Exact Audio Copy\Flac\02 - The Cure - The Walk.wav

Pre-gap length 0:00:01.51

Peak level 99.8 %
Extraction speed 3.2 X
Track quality 100.0 %
Test CRC EC613E28
Copy CRC EC613E28
Accurately ripped (confidence 2) [FDE9CBD7]
Copy OK

Track 3

Filename C:\Program Files\Exact Audio Copy\Flac\03 - Japan - Life In Tokyo.wav

Pre-gap length 0:00:01.51

Peak level 99.8 %
Extraction speed 3.3 X
Track quality 100.0 %
Test CRC 574A4F7E
Copy CRC 574A4F7E
Accurately ripped (confidence 2) [E23ECAEC]
Copy OK

Track 4

Filename C:\Program Files\Exact Audio Copy\Flac\04 - David Bowie - Up The Hill Backwards.wav

Pre-gap length 0:00:01.51

Peak level 99.8 %
Extraction speed 2.7 X
Track quality 99.9 %
Test CRC 0A7B408D
Copy CRC 0A7B408D
Accurately ripped (confidence 2) [8752E97F]
Copy OK

Track 5

Filename C:\Program Files\Exact Audio Copy\Flac\05 - Devo - Whip It.wav

Pre-gap length 0:00:01.51

Peak level 99.9 %
Extraction speed 2.6 X
Track quality 99.9 %
Test CRC 3174B0D2
Copy CRC 3174B0D2
Accurately ripped (confidence 2) [A65149D0]
Copy OK

Track 6

Filename C:\Program Files\Exact Audio Copy\Flac\06 - Our Daughter's Wedding - Lawn Chairs.wav

Pre-gap length 0:00:01.51

Peak level 99.8 %
Extraction speed 2.8 X
Track quality 99.9 %
Test CRC 6939E4B1
Copy CRC 6939E4B1
Accurately ripped (confidence 2) [9F019BF1]
Copy OK

Track 7

Filename C:\Program Files\Exact Audio Copy\Flac\07 - Bauhaus - Kick In The Eye.wav

Pre-gap length 0:00:01.51

Peak level 99.8 %
Extraction speed 2.8 X
Track quality 99.9 %
Test CRC CD87E4E7
Copy CRC CD87E4E7
Accurately ripped (confidence 2) [1324B5EB]
Copy OK

Track 8

Filename C:\Program Files\Exact Audio Copy\Flac\08 - Spear Of Destiny - Liberator.wav

Pre-gap length 0:00:01.51

Peak level 99.8 %
Extraction speed 3.4 X
Track quality 100.0 %
Test CRC BA19A510
Copy CRC BA19A510
Accurately ripped (confidence 2) [3AF67CEB]
Copy OK

Track 9

Filename C:\Program Files\Exact Audio Copy\Flac\09 - Echo & The Bunnymen - Back Of Love.wav

Pre-gap length 0:00:01.51

Peak level 99.8 %
Extraction speed 3.3 X
Track quality 100.0 %
Test CRC 9F0A5016
Copy CRC 9F0A5016
Accurately ripped (confidence 2) [F69658F5]
Copy OK

Track 10

Filename C:\Program Files\Exact Audio Copy\Flac\10 - The Teardrop Explodes - Passionate Friend.wav

Pre-gap length 0:00:01.51

Peak level 99.8 %
Extraction speed 3.4 X
Track quality 100.0 %
Test CRC AA6126DF
Copy CRC AA6126DF
Accurately ripped (confidence 2) [736EDF97]
Copy OK

Track 11

Filename C:\Program Files\Exact Audio Copy\Flac\11 - Altered Images - See Those Eyes.wav

Pre-gap length 0:00:01.51

Peak level 99.8 %
Extraction speed 3.3 X
Track quality 100.0 %
Test CRC 59061F01
Copy CRC 59061F01
Accurately ripped (confidence 2) [A04F60CC]
Copy OK

Track 12

Filename C:\Program Files\Exact Audio Copy\Flac\12 - Bow Wow Wow - Chihuahua.wav

Pre-gap length 0:00:01.51

Peak level 99.8 %
Extraction speed 3.4 X
Track quality 100.0 %
Test CRC 651CA39F
Copy CRC 651CA39F
Accurately ripped (confidence 2) [A63515C5]
Copy OK

Track 13

Filename C:\Program Files\Exact Audio Copy\Flac\13 - Dead Or Alive - That's The Way (I Like It).wav

Pre-gap length 0:00:01.51

Peak level 99.8 %
Extraction speed 3.3 X
Track quality 100.0 %
Test CRC 66342A99
Copy CRC 66342A99
Accurately ripped (confidence 2) [E109CB57]
Copy OK

Track 14

Filename C:\Program Files\Exact Audio Copy\Flac\14 - The Psychedelic Furs - Love My Way.wav

Pre-gap length 0:00:01.51

Peak level 99.8 %
Extraction speed 3.4 X
Track quality 100.0 %
Test CRC F5562959
Copy CRC F5562959
Accurately ripped (confidence 2) [0A688B7D]
Copy OK

Track 15

Filename C:\Program Files\Exact Audio Copy\Flac\15 - The Stranglers - European Female.wav

Pre-gap length 0:00:01.51

Peak level 99.8 %
Extraction speed 3.5 X
Track quality 100.0 %
Test CRC FA988827
Copy CRC FA988827
Accurately ripped (confidence 2) [0725AB97]
Copy OK

Track 16

Filename C:\Program Files\Exact Audio Copy\Flac\16 - Telex - Moskow Discow.wav

Pre-gap length 0:00:01.51

Peak level 99.8 %
Extraction speed 3.5 X
Track quality 100.0 %
Test CRC 86D38488
Copy CRC 86D38488
Accurately ripped (confidence 2) [EBD4B697]
Copy OK

Track 17

Filename C:\Program Files\Exact Audio Copy\Flac\17 - Laurie Anderson - O Superman.wav

Pre-gap length 0:00:01.51

Peak level 99.8 %
Extraction speed 3.7 X
Track quality 100.0 %
Test CRC 99D74F9C
Copy CRC 99D74F9C
Accurately ripped (confidence 2) [4BC0620A]
Copy OK


All tracks accurately ripped

No errors occurred

End of status report

==== Log checksum BC0A864AEE95B0D37590F22174B95EEC39FE3EB30BCEFC1FF8A30D1B3268CECD ====


Various Artists - The Edge Of The Eighties (2008) {3 CD Set Sony BMG 88697293402}



===