Subcategories

VA - The Rough Guide To The Music Of New Orleans (2012)

Posted By: delpotro
VA - The Rough Guide To The Music Of New Orleans (2012)

VA - The Rough Guide To The Music Of New Orleans (2012)
EAC Rip | FLAC (tracks+log+.cue) | Digital booklet | 01:42:34 | 642 Mb
Jazz, Blues, Soul, Funk | Label: World Music Network

From the 19th century African music gatherings in Congo Square to the birth of jazz and its offshoots, New Orleans is one of America's most important music cities, and with the Rough Guide to the Music of New Orleans collection, listeners get a well-rounded taste of the Crescent City's musical gumbo. The collection touches on traditional jazz torchbearers (Dr. Michael White), classic R&B (Jessie Hill, Earl King), down-home funk (the Meters), Mardi Gras-ready brass players (Kermit Ruffins, Hot 8 Brass Band), global-influenced groovers (Los Hombres Calientes), and artists on the rise (Papa Grows Funk). While it's impossible to capture the full spectrum of New Orleans music on a single disc – women artists are underrepresented, and the NOLA hip-hop scene that's emerged since the 1990s is skipped entirely – this Rough Guide is a spirited introduction, and as a bonus is accompanied by a second disc featuring emerging heavy funk purveyors Dumpstaphunk.
Tracklist:
Disc 1 (01:05:14)
1. Jessie Hill – Ooh Poo Pah Doo (02:16)
2. The Meters – Look-Ka Py Py (03:12)
3. Earl King – Street Parade - Part 1 (03:14)
4. Big Chief Monk Boudreaux – Monk's Mardi Gras (03:43)
5. James Andrews & Troy Andrews – Zulu King (04:42)
6. Kermit Ruffins – Treme Mardi Gras (05:05)
7. Papa Grows Funk – Soul Second Line (06:33)
8. The New Orleans Nightcrawlers – Hold 'Em Joe (05:01)
9. The Hot 8 Brass Band – Sexual Healing (Re-Edit) (04:58)
10. Dumpstaphunk – Sheez Music (04:46)
11. Jon Cleary And The Absolute Monster Gentlemen – When You Get Back (04:12)
12. Los Hombres Calientes – El Barrio (03:55)
13. Professor Longhair – Big Chief (Live) (03:50)
14. Dr John – Mac's Boogie (03:58)
15. Dr Michael White – Basin' Street Blues (05:49)

Disc 2 (36:29)
1. Dumpstaphunk – Shake It Off (05:55)
2. Dumpstaphunk – Meanwhile… (03:58)
3. Dumpstaphunk – Stinky (06:17)
4. Dumpstaphunk – Turn This Thing Around (04:45)
5. Dumpstaphunk – Deeper (05:01)
6. Dumpstaphunk – Oughta Know Better (04:46)
7. Dumpstaphunk – Living Ina World Gone Mad (05:47)

Exact Audio Copy V1.3 from 2. September 2016

EAC extraction logfile from 2. March 2018, 12:07

Various Artists / The Rough Guide To The Music Of New Orleans

Used drive : HL-DT-STDVD+-RW GH30N Adapter: 1 ID: 1

Read mode : Secure
Utilize accurate stream : Yes
Defeat audio cache : Yes
Make use of C2 pointers : No

Read offset correction : 102
Overread into Lead-In and Lead-Out : Yes
Fill up missing offset samples with silence : Yes
Delete leading and trailing silent blocks : No
Null samples used in CRC calculations : Yes
Used interface : Native Win32 interface for Win NT & 2000
Gap handling : Appended to previous track

Used output format : User Defined Encoder
Selected bitrate : 768 kBit/s
Quality : High
Add ID3 tag : No
Command line compressor : C:\Program Files (x86)\FLAC\win64\flac.exe
Additional command line options : -8 -V -T "ARTIST=%artist%" -T "TITLE=%title%" -T "ALBUM=%albumtitle%" -T "DATE=%year%" -T "TRACKNUMBER=%tracknr%" -T "GENRE=%genre%" -T "PERFORMER=%albuminterpret%" -T "COMPOSER=%composer%" %haslyrics%–tag-from-file=LYRICS="%lyricsfile%"%haslyrics% -T "ALBUMARTIST=%albumartist%" -T "DISCNUMBER=%cdnumber%" -T "TOTALDISCS=%totalcds%" -T "TOTALTRACKS=%numtracks%" -T "COMMENT=%comment%" %source% -o %dest%


TOC of the extracted CD

Track | Start | Length | Start sector | End sector
––––––––––––––––––––––––––––-
1 | 0:00.00 | 2:18.43 | 0 | 10392
2 | 2:18.43 | 3:14.25 | 10393 | 24967
3 | 5:32.68 | 3:16.60 | 24968 | 39727
4 | 8:49.53 | 3:45.34 | 39728 | 56636
5 | 12:35.12 | 4:44.42 | 56637 | 77978
6 | 17:19.54 | 5:07.16 | 77979 | 101019
7 | 22:26.70 | 6:35.46 | 101020 | 130690
8 | 29:02.41 | 5:03.44 | 130691 | 153459
9 | 34:06.10 | 5:00.46 | 153460 | 176005
10 | 39:06.56 | 4:48.06 | 176006 | 197611
11 | 43:54.62 | 4:14.71 | 197612 | 216732
12 | 48:09.58 | 3:57.47 | 216733 | 234554
13 | 52:07.30 | 3:52.58 | 234555 | 252012
14 | 56:00.13 | 4:00.46 | 252013 | 270058
15 | 60:00.59 | 5:49.62 | 270059 | 296295


Track 1

Filename C:\EACRips\01 - Jessie Hill - Ooh Poo Pah Doo.wav

Pre-gap length 0:00:02.00

Peak level 95.5 %
Extraction speed 1.4 X
Track quality 100.0 %
Test CRC C311FE28
Copy CRC C311FE28
Accurately ripped (confidence 15) [69C9A95E] (AR v2)
Copy OK

Track 2

Filename C:\EACRips\02 - The Meters - Look-Ka Py Py.wav

Pre-gap length 0:00:02.00

Peak level 95.5 %
Extraction speed 1.6 X
Track quality 100.0 %
Test CRC 0B9CDA3F
Copy CRC 0B9CDA3F
Accurately ripped (confidence 15) [15823D7F] (AR v2)
Copy OK

Track 3

Filename C:\EACRips\03 - Earl King - Street Parade - Part 1.wav

Pre-gap length 0:00:02.00

Peak level 95.3 %
Extraction speed 1.7 X
Track quality 100.0 %
Test CRC 1BE262DF
Copy CRC 1BE262DF
Accurately ripped (confidence 15) [FE26F440] (AR v2)
Copy OK

Track 4

Filename C:\EACRips\04 - Big Chief Monk Boudreaux - Monk's Mardi Gras.wav

Pre-gap length 0:00:02.00

Peak level 56.8 %
Extraction speed 1.7 X
Track quality 99.9 %
Test CRC C1BE5561
Copy CRC C1BE5561
Accurately ripped (confidence 15) [9B2281D6] (AR v2)
Copy OK

Track 5

Filename C:\EACRips\05 - James & Troy Andrews - Zulu King.wav

Pre-gap length 0:00:02.00

Peak level 50.1 %
Extraction speed 2.1 X
Track quality 100.0 %
Test CRC 2E13DCD1
Copy CRC 2E13DCD1
Accurately ripped (confidence 15) [80C3D190] (AR v2)
Copy OK

Track 6

Filename C:\EACRips\06 - Kermit Ruffins - Treme Mardi Gras.wav

Pre-gap length 0:00:02.00

Peak level 58.2 %
Extraction speed 2.3 X
Track quality 100.0 %
Test CRC AF29948F
Copy CRC AF29948F
Accurately ripped (confidence 14) [5536D641] (AR v2)
Copy OK

Track 7

Filename C:\EACRips\07 - Papa Grows Funk - Soul Second Line.wav

Pre-gap length 0:00:02.00

Peak level 59.5 %
Extraction speed 2.6 X
Track quality 100.0 %
Test CRC 88C4E162
Copy CRC 88C4E162
Accurately ripped (confidence 15) [653BEB1D] (AR v2)
Copy OK

Track 8

Filename C:\EACRips\08 - New Orleans Nightcrawlers - Hold 'Em Joe.wav

Pre-gap length 0:00:02.00

Peak level 63.8 %
Extraction speed 2.6 X
Track quality 100.0 %
Test CRC 183F6C64
Copy CRC 183F6C64
Accurately ripped (confidence 15) [FA472B63] (AR v2)
Copy OK

Track 9

Filename C:\EACRips\09 - The Hot 8 Grass Band - Sexual Healing (Re-Edit).wav

Pre-gap length 0:00:02.00

Peak level 65.2 %
Extraction speed 2.7 X
Track quality 100.0 %
Test CRC 42046C7F
Copy CRC 42046C7F
Accurately ripped (confidence 15) [33802BF8] (AR v2)
Copy OK

Track 10

Filename C:\EACRips\10 - Dumpstaphunk - Sheez Music.wav

Pre-gap length 0:00:02.00

Peak level 49.5 %
Extraction speed 2.8 X
Track quality 100.0 %
Test CRC DF05B341
Copy CRC DF05B341
Accurately ripped (confidence 15) [40CF7684] (AR v2)
Copy OK

Track 11

Filename C:\EACRips\11 - Jon Cleary & The Absolute Monster Gentlemen - When You Get Back.wav

Pre-gap length 0:00:02.00

Peak level 53.0 %
Extraction speed 2.6 X
Track quality 99.9 %
Test CRC 7277E582
Copy CRC 7277E582
Accurately ripped (confidence 15) [DC7D987D] (AR v2)
Copy OK

Track 12

Filename C:\EACRips\12 - Los Hombres Calientes - El Barrio.wav

Pre-gap length 0:00:02.00

Peak level 90.1 %
Extraction speed 3.0 X
Track quality 100.0 %
Test CRC 26C1A007
Copy CRC 26C1A007
Accurately ripped (confidence 15) [C04FBC85] (AR v2)
Copy OK

Track 13

Filename C:\EACRips\13 - Professor Longhair - Big Chief (Live).wav

Pre-gap length 0:00:02.00

Peak level 95.5 %
Extraction speed 3.1 X
Track quality 100.0 %
Test CRC 5D6677FF
Copy CRC 5D6677FF
Accurately ripped (confidence 15) [C3337FAD] (AR v2)
Copy OK

Track 14

Filename C:\EACRips\14 - Dr. John - Mac's Boogie.wav

Pre-gap length 0:00:02.00

Peak level 68.3 %
Extraction speed 3.1 X
Track quality 100.0 %
Test CRC 5BBD93F6
Copy CRC 5BBD93F6
Accurately ripped (confidence 15) [AC3C5EC5] (AR v2)
Copy OK

Track 15

Filename C:\EACRips\15 - Dr. Michael White - Basin' Street Blues.wav

Pre-gap length 0:00:02.00

Peak level 87.2 %
Extraction speed 3.7 X
Track quality 100.0 %
Test CRC F6DA77CE
Copy CRC F6DA77CE
Accurately ripped (confidence 13) [763CEE75] (AR v2)
Copy OK


All tracks accurately ripped

No errors occurred

End of status report

–– CUETools DB Plugin V2.1.6

[CTDB TOCID: gHHRS30vOMiSnosiQr0UoCjKLN0-] found
Submit result: gHHRS30vOMiSnosiQr0UoCjKLN0- has been confirmed
Track | CTDB Status
1 | (30/31) Accurately ripped
2 | (31/31) Accurately ripped
3 | (31/31) Accurately ripped
4 | (31/31) Accurately ripped
5 | (31/31) Accurately ripped
6 | (30/31) Accurately ripped
7 | (30/31) Accurately ripped
8 | (31/31) Accurately ripped
9 | (31/31) Accurately ripped
10 | (31/31) Accurately ripped
11 | (31/31) Accurately ripped
12 | (31/31) Accurately ripped
13 | (31/31) Accurately ripped
14 | (28/31) Accurately ripped
15 | (30/31) Accurately ripped


==== Log checksum D674D5C4CF3E6C6A71A91B8077767A08E7C4B670F596E2F686FC8A6D36B6BA22 ====

Exact Audio Copy V1.3 from 2. September 2016

EAC extraction logfile from 2. March 2018, 12:46

Dumpstaphunk / Listen Hear (Extended Version)

Used drive : HL-DT-STDVD+-RW GH30N Adapter: 1 ID: 1

Read mode : Secure
Utilize accurate stream : Yes
Defeat audio cache : Yes
Make use of C2 pointers : No

Read offset correction : 102
Overread into Lead-In and Lead-Out : Yes
Fill up missing offset samples with silence : Yes
Delete leading and trailing silent blocks : No
Null samples used in CRC calculations : Yes
Used interface : Native Win32 interface for Win NT & 2000
Gap handling : Appended to previous track

Used output format : User Defined Encoder
Selected bitrate : 768 kBit/s
Quality : High
Add ID3 tag : No
Command line compressor : C:\Program Files (x86)\FLAC\win64\flac.exe
Additional command line options : -8 -V -T "ARTIST=%artist%" -T "TITLE=%title%" -T "ALBUM=%albumtitle%" -T "DATE=%year%" -T "TRACKNUMBER=%tracknr%" -T "GENRE=%genre%" -T "PERFORMER=%albuminterpret%" -T "COMPOSER=%composer%" %haslyrics%–tag-from-file=LYRICS="%lyricsfile%"%haslyrics% -T "ALBUMARTIST=%albumartist%" -T "DISCNUMBER=%cdnumber%" -T "TOTALDISCS=%totalcds%" -T "TOTALTRACKS=%numtracks%" -T "COMMENT=%comment%" %source% -o %dest%


TOC of the extracted CD

Track | Start | Length | Start sector | End sector
––––––––––––––––––––––––––––-
1 | 0:00.00 | 5:57.33 | 0 | 26807
2 | 5:57.33 | 4:00.19 | 26808 | 44826
3 | 9:57.52 | 6:19.27 | 44827 | 73278
4 | 16:17.04 | 4:47.28 | 73279 | 94831
5 | 21:04.32 | 5:03.34 | 94832 | 117590
6 | 26:07.66 | 4:48.20 | 117591 | 139210
7 | 30:56.11 | 5:47.74 | 139211 | 165309


Track 1

Filename C:\EACRips\01 - Shake It Off.wav

Pre-gap length 0:00:02.00

Peak level 69.9 %
Extraction speed 1.7 X
Track quality 100.0 %
Test CRC 99263CF0
Copy CRC 99263CF0
Accurately ripped (confidence 15) [701B1EED] (AR v2)
Copy OK

Track 2

Filename C:\EACRips\02 - Meanwhile….wav

Pre-gap length 0:00:02.00

Peak level 64.5 %
Extraction speed 1.8 X
Track quality 100.0 %
Test CRC 20E997B4
Copy CRC 20E997B4
Accurately ripped (confidence 15) [B45CA05A] (AR v2)
Copy OK

Track 3

Filename C:\EACRips\03 - Stinky.wav

Pre-gap length 0:00:02.00

Peak level 58.8 %
Extraction speed 2.1 X
Track quality 100.0 %
Test CRC C9F38DAC
Copy CRC C9F38DAC
Accurately ripped (confidence 15) [8EB18908] (AR v2)
Copy OK

Track 4

Filename C:\EACRips\04 - Turn This Thing Around.wav

Pre-gap length 0:00:02.00

Peak level 66.8 %
Extraction speed 2.3 X
Track quality 100.0 %
Test CRC 4995ACEC
Copy CRC 4995ACEC
Accurately ripped (confidence 15) [A826E40F] (AR v2)
Copy OK

Track 5

Filename C:\EACRips\05 - Deeper.wav

Pre-gap length 0:00:02.00

Peak level 76.4 %
Extraction speed 2.2 X
Track quality 99.9 %
Test CRC CA6680E6
Copy CRC CA6680E6
Accurately ripped (confidence 15) [9C727F8E] (AR v2)
Copy OK

Track 6

Filename C:\EACRips\06 - Oughta Know Better.wav

Pre-gap length 0:00:02.00

Peak level 95.5 %
Extraction speed 2.6 X
Track quality 100.0 %
Test CRC 3FE3B39F
Copy CRC 3FE3B39F
Accurately ripped (confidence 15) [3E776B5D] (AR v2)
Copy OK

Track 7

Filename C:\EACRips\07 - Livin Ina World Gone Mad.wav

Pre-gap length 0:00:02.00

Peak level 57.5 %
Extraction speed 3.0 X
Track quality 100.0 %
Test CRC 781C1281
Copy CRC 781C1281
Accurately ripped (confidence 15) [BCC7590A] (AR v2)
Copy OK


All tracks accurately ripped

No errors occurred

End of status report

–– CUETools DB Plugin V2.1.6

[CTDB TOCID: 2G1hNbfTLp37URTWaKeaZ7jZBN8-] found
Submit result: 2G1hNbfTLp37URTWaKeaZ7jZBN8- has been confirmed
Track | CTDB Status
1 | (28/28) Accurately ripped
2 | (28/28) Accurately ripped
3 | (28/28) Accurately ripped
4 | (28/28) Accurately ripped
5 | (28/28) Accurately ripped
6 | (27/28) Accurately ripped
7 | (28/28) Accurately ripped


==== Log checksum E0D2F8D160730480892CCA4C28BE580D2D1CAA70F70E2456F87417943F76CEC3 ====

Thanks to the Original ripper leontrotsky !