Tags
Language
Tags

VA - The Secret Museum of Mankind, Vol. 5: Ethnic Music Classics 1925-48 (1998)

Posted By:
VA - The Secret Museum of Mankind, Vol. 5: Ethnic Music Classics 1925-48 (1998)

VA - The Secret Museum of Mankind, Vol. 5: Ethnic Music Classics 1925-48 (1998)
EAC Rip | FLAC (tracks+log+.cue) - 235 Mb | MP3 CBR 320 kbps - 162 Mb | Digital booklet | 01:07:55
World | Label: Yazoo Records

Compiled here are many of the greatest performances of world and ethnic music ever recorded. This volume represents a trip around the world, stopping at each port to sample one of that country’s finest recordings of its indigenous music. Each of these recordings was captured at a period during the golden age of recording when traditional styles were at their peak of power and emotion. Included inside are extensive notes a beautiful period photographs that work together with the music to communicate an exciting sense of discovery.

Volume 5 of The Secret Museum of Mankind series is an outstanding compilation of early international phonograph and gramophone recordings. In the span of 24 tracks, the producer of this series, Pat Conte, manages to introduce musical cultures from South America (Peru and Argentina), North America (Mississippi), Africa (French Guinea, Rhodesia, Lesotho, Malawi), Asia (India, Siam), the Middle East (Syria), Europe (Finland, Ukraine), and points in between and beyond. From a 1920s recording of an Indian brother duo – one an accomplished mandolin player and the other a virtuoso on the jalatarang (a series of porcelain cups tuned by adjusting their water levels) – to a non-dated recording of a blues pan pipe player from Mississippi, the entirety of this CD spans a wide selection of musical genres and stands as another example of The Secret Museum's valuable contribution to both historical preservation and the production of great music.
Tracklist:
1. Anon. Minstrels – French Guinea: Kahira (02:15)
2. Master Vyas – India: Jala-Tarang (03:20)
3. Stavros Petrides – Pontus: To Nufoparman (03:19)
4. Estanislao Medina – Peru: Adios, Puebla De Ayacucho (02:56)
5. The Ncubes & Chuma – S. Rhodesia: Amanxila (02:41)
6. Orchestre Du Bal Antillais – Martinique: Nana Du Gros Zozo (03:11)
7. Ardino Marras – Sardinia: A Su Duce Italianu (03:47)
8. Anon. Chorus – Raiatea: Himene Tarava (02:44)
9. A. Kevorkian – Armenia: Shivari (03:08)
10. Anna & Amalia Hatzidakis – Agean Islands: Mes Tou Aigaiou Ta Nezia (03:29)
11. Khan Shushinsky – Transcaucasia: Shikestei Fars (02:19)
12. Ukrainska Orchestra – Ukraine: Hutzulka W Semereczni (03:08)
13. Aliwal North Sesuto Choir – Lesotho: Setsepise Ngoanan (02:52)
14. Andres Chazarreta – Argentina: Gato Cordobes (01:54)
15. Don Tre Pa-Yam "Rabbit" – Siam: Plaing Si'am Gai Nyo (03:10)
16. Ulla Kantajavuori – Finland: Karelsk Vagguisa (02:25)
17. Rosina Xiberres – Malta: Ix-Xieh U Ix-Xieha (03:14)
18. Agrupacion Folklorica – Mallorcas: Parado De Valldemdosa (01:58)
19. Francis Saloman & Ensemble – Mauritius: Boire Comma Mo Boire (02:29)
20. Youssef Harb – Syria: Ya Albi Keef Ja Fak (02:50)
21. Jack Armstrong – Northumbria: Chevy Chase; The Cott (02:57)
22. Private Lassimon & Regiment – Malawi: Marching Songs (03:18)
23. "Big Boy" Cleveland – Mississippi, USA: Quill Blues (02:42)
24. Girls Of Bunana – B.S.I.P.: Untitled (01:48)

Exact Audio Copy V1.3 from 2. September 2016

EAC extraction logfile from 7. April 2018, 14:13

Various Artists / The Secret Museum Of Mankind Vol. 5: Ethnic Music Classics, 1925-48

Used drive : PBDS CD-ROM DH-48N1S Adapter: 1 ID: 0

Read mode : Secure
Utilize accurate stream : Yes
Defeat audio cache : Yes
Make use of C2 pointers : No

Read offset correction : 6
Overread into Lead-In and Lead-Out : No
Fill up missing offset samples with silence : Yes
Delete leading and trailing silent blocks : No
Null samples used in CRC calculations : Yes
Used interface : Native Win32 interface for Win NT & 2000
Gap handling : Appended to previous track

Used output format : User Defined Encoder
Selected bitrate : 768 kBit/s
Quality : High
Add ID3 tag : No
Command line compressor : C:\Program Files (x86)\FLAC\win64\flac.exe
Additional command line options : -8 -V -T "ARTIST=%artist%" -T "TITLE=%title%" -T "ALBUM=%albumtitle%" -T "DATE=%year%" -T "TRACKNUMBER=%tracknr%" -T "GENRE=%genre%" -T "PERFORMER=%albuminterpret%" -T "COMPOSER=%composer%" %haslyrics%–tag-from-file=LYRICS="%lyricsfile%"%haslyrics% -T "ALBUMARTIST=%albumartist%" -T "DISCNUMBER=%cdnumber%" -T "TOTALDISCS=%totalcds%" -T "TOTALTRACKS=%numtracks%" -T "COMMENT=%comment%" %source% -o %dest%


TOC of the extracted CD

Track | Start | Length | Start sector | End sector
––––––––––––––––––––––––––––-
1 | 0:00.00 | 2:15.00 | 0 | 10124
2 | 2:15.00 | 3:19.57 | 10125 | 25106
3 | 5:34.57 | 3:19.33 | 25107 | 40064
4 | 8:54.15 | 2:56.30 | 40065 | 53294
5 | 11:50.45 | 2:41.32 | 53295 | 65401
6 | 14:32.02 | 3:11.10 | 65402 | 79736
7 | 17:43.12 | 3:46.58 | 79737 | 96744
8 | 21:29.70 | 2:44.22 | 96745 | 109066
9 | 24:14.17 | 3:08.33 | 109067 | 123199
10 | 27:22.50 | 3:29.12 | 123200 | 138886
11 | 30:51.62 | 2:19.00 | 138887 | 149311
12 | 33:10.62 | 3:07.47 | 149312 | 163383
13 | 36:18.34 | 2:51.43 | 163384 | 176251
14 | 39:10.02 | 1:53.60 | 176252 | 184786
15 | 41:03.62 | 3:10.03 | 184787 | 199039
16 | 44:13.65 | 2:25.30 | 199040 | 209944
17 | 46:39.20 | 3:13.42 | 209945 | 224461
18 | 49:52.62 | 1:58.05 | 224462 | 233316
19 | 51:50.67 | 2:29.08 | 233317 | 244499
20 | 54:20.00 | 2:49.52 | 244500 | 257226
21 | 57:09.52 | 2:56.48 | 257227 | 270474
22 | 60:06.25 | 3:18.30 | 270475 | 285354
23 | 63:24.55 | 2:42.22 | 285355 | 297526
24 | 66:07.02 | 1:48.28 | 297527 | 305654


Track 1

Filename C:\EACRips\01 - Anon. Minstrels - Kahira.wav

Pre-gap length 0:00:02.00

Peak level 86.1 %
Extraction speed 3.4 X
Track quality 100.0 %
Test CRC 2DDFFF5D
Copy CRC 2DDFFF5D
Accurately ripped (confidence 2) [C754A9B0] (AR v1)
Copy OK

Track 2

Filename C:\EACRips\02 - Master Vyas - Jala-Tarang.wav

Peak level 72.5 %
Extraction speed 4.2 X
Track quality 100.0 %
Test CRC 0E596FEA
Copy CRC 0E596FEA
Accurately ripped (confidence 2) [E195C48A] (AR v1)
Copy OK

Track 3

Filename C:\EACRips\03 - Stavros Petrides - To Mufoparman.wav

Peak level 84.4 %
Extraction speed 4.9 X
Track quality 100.0 %
Test CRC 12AFE312
Copy CRC 12AFE312
Accurately ripped (confidence 2) [46028D70] (AR v1)
Copy OK

Track 4

Filename C:\EACRips\04 - Estanislao Medina - Adios, Puebla de Ayacucho.wav

Peak level 78.5 %
Extraction speed 5.1 X
Track quality 100.0 %
Test CRC 7BDD2302
Copy CRC 7BDD2302
Accurately ripped (confidence 2) [FF34A193] (AR v1)
Copy OK

Track 5

Filename C:\EACRips\05 - The Ncubes & Chuma - Amanxila.wav

Peak level 87.6 %
Extraction speed 5.3 X
Track quality 100.0 %
Test CRC B82C5AF0
Copy CRC B82C5AF0
Accurately ripped (confidence 2) [488EA71F] (AR v1)
Copy OK

Track 6

Filename C:\EACRips\06 - Orchestre Du Bal Antillais - Nana Du Gros Zozo.wav

Peak level 94.5 %
Extraction speed 5.7 X
Track quality 100.0 %
Test CRC F9D1ED67
Copy CRC F9D1ED67
Accurately ripped (confidence 2) [A2046199] (AR v1)
Copy OK

Track 7

Filename C:\EACRips\07 - Ardino Marras - A Su Duce Italianu.wav

Peak level 94.3 %
Extraction speed 5.9 X
Track quality 100.0 %
Test CRC 59D60FB0
Copy CRC 59D60FB0
Accurately ripped (confidence 2) [1F7C5719] (AR v1)
Copy OK

Track 8

Filename C:\EACRips\08 - Anon. Chorus - Himene Tarava.wav

Peak level 81.0 %
Extraction speed 6.1 X
Track quality 100.0 %
Test CRC F1C3F177
Copy CRC F1C3F177
Accurately ripped (confidence 2) [C36229EB] (AR v1)
Copy OK

Track 9

Filename C:\EACRips\09 - A. Kevorkian - Shivari.wav

Peak level 88.2 %
Extraction speed 6.4 X
Track quality 100.0 %
Test CRC 7A5B37B3
Copy CRC 7A5B37B3
Accurately ripped (confidence 2) [06772486] (AR v1)
Copy OK

Track 10

Filename C:\EACRips\10 - Anna & Amalia Hatzidakis - Mes Tou Aigaiou Ta Nezia.wav

Peak level 87.9 %
Extraction speed 5.5 X
Track quality 99.9 %
Test CRC 1198BFAE
Copy CRC 1198BFAE
Accurately ripped (confidence 2) [6E8859A9] (AR v1)
Copy OK

Track 11

Filename C:\EACRips\11 - Khan Shushinsky - Shikestei Fars.wav

Peak level 72.2 %
Extraction speed 6.4 X
Track quality 100.0 %
Test CRC 02E95A0C
Copy CRC 02E95A0C
Accurately ripped (confidence 2) [8D37BBF1] (AR v1)
Copy OK

Track 12

Filename C:\EACRips\12 - Ukrainska Orchestra - Hutzulka w Semereczni.wav

Peak level 73.9 %
Extraction speed 6.9 X
Track quality 100.0 %
Test CRC 50A1D0F5
Copy CRC 50A1D0F5
Accurately ripped (confidence 2) [15B541EC] (AR v1)
Copy OK

Track 13

Filename C:\EACRips\13 - Aliwal North Sesuto Choir - Setsepise Ngoanan.wav

Peak level 85.4 %
Extraction speed 6.9 X
Track quality 100.0 %
Test CRC A8674820
Copy CRC A8674820
Accurately ripped (confidence 2) [3BFAA50D] (AR v1)
Copy OK

Track 14

Filename C:\EACRips\14 - Andres Chazarreta - Gato Cordobes.wav

Peak level 72.1 %
Extraction speed 6.4 X
Track quality 100.0 %
Test CRC 66A4B924
Copy CRC 66A4B924
Accurately ripped (confidence 2) [18C12625] (AR v1)
Copy OK

Track 15

Filename C:\EACRips\15 - Don Tre Pa-Yam ''Rabbit'' - Plaing Si'am Gai Nyo.wav

Peak level 42.3 %
Extraction speed 7.4 X
Track quality 100.0 %
Test CRC 37572640
Copy CRC 37572640
Accurately ripped (confidence 2) [45893099] (AR v1)
Copy OK

Track 16

Filename C:\EACRips\16 - Ulla Kantajavuori - Karelsk Vagguisa.wav

Peak level 70.8 %
Extraction speed 5.9 X
Track quality 99.9 %
Test CRC D26F9E61
Copy CRC D26F9E61
Accurately ripped (confidence 2) [859DD01D] (AR v1)
Copy OK

Track 17

Filename C:\EACRips\17 - Rosina Xiberres - Ix-Xieh U Ix-Xieha.wav

Peak level 83.7 %
Extraction speed 6.4 X
Track quality 99.9 %
Test CRC 42EECCCE
Copy CRC 42EECCCE
Accurately ripped (confidence 2) [30D9095D] (AR v1)
Copy OK

Track 18

Filename C:\EACRips\18 - Agrupacion Folklorica - Parado De Valldemdosa.wav

Peak level 69.5 %
Extraction speed 7.0 X
Track quality 100.0 %
Test CRC 30B6A30F
Copy CRC 30B6A30F
Accurately ripped (confidence 2) [A84BABA3] (AR v1)
Copy OK

Track 19

Filename C:\EACRips\19 - Francis Saloman & Ensemble - Boire Comma Mo Boire.wav

Peak level 72.4 %
Extraction speed 7.4 X
Track quality 100.0 %
Test CRC 14810911
Copy CRC 14810911
Accurately ripped (confidence 2) [F24AED6B] (AR v1)
Copy OK

Track 20

Filename C:\EACRips\20 - Youssef Harb - Ya Albi Keef Ja Fak.wav

Peak level 78.1 %
Extraction speed 8.0 X
Track quality 100.0 %
Test CRC 0F6F1C19
Copy CRC 0F6F1C19
Accurately ripped (confidence 2) [AACC2049] (AR v1)
Copy OK

Track 21

Filename C:\EACRips\21 - Jack Armstrong Chevy Chase - The Cott.wav

Peak level 57.8 %
Extraction speed 5.2 X
Track quality 99.9 %
Test CRC ED74838E
Copy CRC ED74838E
Accurately ripped (confidence 2) [DB0C1FE9] (AR v1)
Copy OK

Track 22

Filename C:\EACRips\22 - Private Lassimon & Regiment - Marching Songs.wav

Peak level 89.8 %
Extraction speed 6.3 X
Track quality 100.0 %
Test CRC C0D2B698
Copy CRC C0D2B698
Accurately ripped (confidence 2) [3D0A3796] (AR v1)
Copy OK

Track 23

Filename C:\EACRips\23 - ''Big Boy'' Cleveland - Quill Blues.wav

Peak level 59.3 %
Extraction speed 8.1 X
Track quality 100.0 %
Test CRC 00207586
Copy CRC 00207586
Accurately ripped (confidence 2) [B1BEE082] (AR v1)
Copy OK

Track 24

Filename C:\EACRips\24 - Girls Of Bunana - Untitled.wav

Peak level 82.4 %
Extraction speed 7.3 X
Track quality 100.0 %
Test CRC 8C2B6C8F
Copy CRC 8C2B6C8F
Accurately ripped (confidence 2) [D79A9F34] (AR v1)
Copy OK


All tracks accurately ripped

No errors occurred

End of status report

–– CUETools DB Plugin V2.1.6

[CTDB TOCID: sIu9UZnKta5sQ4KsTR7_RKaAavU-] found
Submit result: already submitted
Track | CTDB Status
1 | (9/9) Accurately ripped
2 | (9/9) Accurately ripped
3 | (9/9) Accurately ripped
4 | (9/9) Accurately ripped
5 | (9/9) Accurately ripped
6 | (9/9) Accurately ripped
7 | (9/9) Accurately ripped
8 | (9/9) Accurately ripped
9 | (9/9) Accurately ripped
10 | (9/9) Accurately ripped
11 | (9/9) Accurately ripped
12 | (9/9) Accurately ripped
13 | (9/9) Accurately ripped
14 | (9/9) Accurately ripped
15 | (9/9) Accurately ripped
16 | (9/9) Accurately ripped
17 | (9/9) Accurately ripped
18 | (9/9) Accurately ripped
19 | (9/9) Accurately ripped
20 | (9/9) Accurately ripped
21 | (9/9) Accurately ripped
22 | (9/9) Accurately ripped
23 | (6/9) Accurately ripped
24 | (6/9) Accurately ripped


==== Log checksum BE6379DA6761366CD796003E7B8F5A8995E767C3E176248A98AA0F8166002DF7 ====

Thanks to the Original ripper leontrotsky !