Tags
Language
Tags

VA - The Secret Museum of Mankind, Vol. 4: Ethnic Music Classics 1925-48 (1997)

Posted By:
VA - The Secret Museum of Mankind, Vol. 4: Ethnic Music Classics 1925-48 (1997)

VA - The Secret Museum of Mankind, Vol. 4: Ethnic Music Classics 1925-48 (1997)
EAC Rip | FLAC (tracks+log+.cue) - 233 Mb | MP3 CBR 320 kbps - 154 Mb | 01:07:06
World | Label: Yazoo Records

Compiled here are many of the greatest performances of world and ethnic music ever recorded. This volume represents a trip around the world, stopping at each port to sample one of that country’s finest recordings of its indigenous music. Each of these recordings was captured at a period during the golden age of recording when traditional styles were at their peak of power and emotion. Included inside are extensive notes a beautiful period photographs that work together with the music to communicate an exciting sense of discovery.

This fourth volume is yet another solid contribution from The Secret Museum of Mankind. Once again, long forgotten 78s have been salvaged from oblivion, dusted off, and digitally remastered onto CDs by the museum's industrious staff. This release, not unlike the others in this series, is comprised of selections that span a vast spectrum of musical and cultural genres. The first track features a Swedish herder calling her flock with a high-pitched croon that must have penetrated the deep Scandinavian forests with ease. A track from Pakistan displays a mesmerizing fusion of the Scottish war-pipes, a North Indian melodic sensibility, and Hindustani percussion. Captivating examples of Brazilian, Egyptian, Bolivian, Italian, Turkish, Hungarian, Albanian, Serbian, Kuwaiti, and Balinese music help round out the remaining 22 cuts. All in all, this CD brings together variance and difference in a format that allows any listener (not just an ethnomusicologist) the chance to appreciate nearly forgotten world musics.
Tracklist:
01 - Elin Lisslass - Locklatar
02 - Alberto Ruiz - Tonada de Tarka con Callaguas
03 - Black Jim - Syrtas Kizzamitika
04 - Squadra di Bel Canto - Il Bel Mazzolino
05 - Mme. Ravao & Rajoro - Anio No Mba Hisoka
06 - R. Singh Bikhul - Been
07 - Solomon Linda's Original Evening Birds - Mbube
08 - Regionale Orchestra - Caboclo Do Matto
09 - Djamris Batagah - Randai Parjdain
10 - Hardingfeletrioen - Fjell - Ljom
11 - Haffouz Burhan - Mahur Gazel
12 - Simbo Island Band - Beautiful Body
13 - William Mullaley - Tory Island Reel
14 - Abdul el Fadallah - Fouad Burban el Amaría
15 - A. Potchvershuy - Dariko
16 - El Jarocho - La Bamba
17 - Ahmed Abdul Kader - Oudet el Bahara Illa Watanhom
18 - Guyok Himself - Sidi Ma Sidi Batai
19 - Villeneuve & Bouchard - Talencourt
20 - Archibald Grant - Eilean Mocaridh
21 - Luajne Sazet Populare - Valle E Gadjes
22 - Vojin Lutic - Siroko Lisce Borovo
23 - Cigan Group - Untitled Dance
24 - Ni Lemon & Dari Djangger - Lagoe Taboehgari

Exact Audio Copy V1.3 from 2. September 2016

EAC extraction logfile from 7. March 2017, 9:12

Various Artists / The Secret Museum of Mankind, Volume 4: Ethnic Music Classics 1925-48

Used drive : HL-DT-STDVD+-RW GT80N Adapter: 1 ID: 0

Read mode : Secure
Utilize accurate stream : Yes
Defeat audio cache : Yes
Make use of C2 pointers : No

Read offset correction : 102
Overread into Lead-In and Lead-Out : No
Fill up missing offset samples with silence : Yes
Delete leading and trailing silent blocks : No
Null samples used in CRC calculations : Yes
Used interface : Native Win32 interface for Win NT & 2000
Gap handling : Appended to previous track

Used output format : User Defined Encoder
Selected bitrate : 1024 kBit/s
Quality : High
Add ID3 tag : No
Command line compressor : C:\Program Files\Exact Audio Copy\FLAC\FLAC.EXE
Additional command line options : -8 -V -T "ARTIST=%artist%" -T "TITLE=%title%" -T "ALBUM=%albumtitle%" -T "DATE=%year%" -T "TRACKNUMBER=%tracknr%" -T "GENRE=%genre%" -T "PERFORMER=%albuminterpret%" -T "COMPOSER=%composer%" %haslyrics%–tag-from-file=LYRICS="%lyricsfile%"%haslyrics% -T "ALBUMARTIST=%albumartist%" -T "DISCNUMBER=%cdnumber%" -T "TOTALDISCS=%totalcds%" -T "TOTALTRACKS=%numtracks%" -T "COMMENT=%comment%" %source% -o %dest%


TOC of the extracted CD

Track | Start | Length | Start sector | End sector
––––––––––––––––––––––––––––-
1 | 0:00.00 | 1:35.07 | 0 | 7131
2 | 1:35.07 | 2:48.23 | 7132 | 19754
3 | 4:23.30 | 3:13.22 | 19755 | 34251
4 | 7:36.52 | 1:59.10 | 34252 | 43186
5 | 9:35.62 | 2:43.63 | 43187 | 55474
6 | 12:19.50 | 3:06.12 | 55475 | 69436
7 | 15:25.62 | 2:51.38 | 69437 | 82299
8 | 18:17.25 | 2:41.00 | 82300 | 94374
9 | 20:58.25 | 3:10.47 | 94375 | 108671
10 | 24:08.72 | 2:43.08 | 108672 | 120904
11 | 26:52.05 | 3:04.52 | 120905 | 134756
12 | 29:56.57 | 3:17.15 | 134757 | 149546
13 | 33:13.72 | 2:42.60 | 149547 | 161756
14 | 35:56.57 | 3:06.43 | 161757 | 175749
15 | 39:03.25 | 2:38.35 | 175750 | 187634
16 | 41:41.60 | 2:41.40 | 187635 | 199749
17 | 44:23.25 | 3:14.10 | 199750 | 214309
18 | 47:37.35 | 3:11.70 | 214310 | 228704
19 | 50:49.30 | 2:54.70 | 228705 | 241824
20 | 53:44.25 | 3:08.00 | 241825 | 255924
21 | 56:52.25 | 2:50.47 | 255925 | 268721
22 | 59:42.72 | 2:52.73 | 268722 | 281694
23 | 62:35.70 | 1:23.15 | 281695 | 287934
24 | 63:59.10 | 3:07.15 | 287935 | 301974


Track 1

Filename C:\Users\drm5w\Desktop\Music\Ivy\Various - The Secret Museum of Mankind, Volume 4 (1995) [flac]\01 - Elin Lisslass - Locklatar.wav

Pre-gap length 0:00:02.00

Peak level 71.5 %
Extraction speed 1.3 X
Track quality 100.0 %
Test CRC 3BE62408
Copy CRC 3BE62408
Accurately ripped (confidence 2) [498107E3] (AR v1)
Copy OK

Track 2

Filename C:\Users\drm5w\Desktop\Music\Ivy\Various - The Secret Museum of Mankind, Volume 4 (1995) [flac]\02 - Alberto Ruiz - Tonada de Tarka con Callaguas.wav

Pre-gap length 0:00:01.62

Peak level 91.4 %
Extraction speed 1.3 X
Track quality 99.9 %
Test CRC B9725E8B
Copy CRC B9725E8B
Accurately ripped (confidence 2) [2C67ED24] (AR v1)
Copy OK

Track 3

Filename C:\Users\drm5w\Desktop\Music\Ivy\Various - The Secret Museum of Mankind, Volume 4 (1995) [flac]\03 - Black Jim - Syrtas Kizzamitika.wav

Pre-gap length 0:00:01.46

Peak level 72.6 %
Extraction speed 1.7 X
Track quality 100.0 %
Test CRC E0238B0F
Copy CRC E0238B0F
Accurately ripped (confidence 2) [9541D0D7] (AR v1)
Copy OK

Track 4

Filename C:\Users\drm5w\Desktop\Music\Ivy\Various - The Secret Museum of Mankind, Volume 4 (1995) [flac]\04 - Squadra di Bel Canto - Il Bel Mazzolino.wav

Pre-gap length 0:00:01.73

Peak level 86.8 %
Extraction speed 1.6 X
Track quality 100.0 %
Test CRC C6BDF7ED
Copy CRC C6BDF7ED
Accurately ripped (confidence 2) [879EA227] (AR v1)
Copy OK

Track 5

Filename C:\Users\drm5w\Desktop\Music\Ivy\Various - The Secret Museum of Mankind, Volume 4 (1995) [flac]\05 - Mme. Ravao & Rajoro - Anio No Mba Hisoka.wav

Pre-gap length 0:00:01.17

Peak level 96.0 %
Extraction speed 1.8 X
Track quality 100.0 %
Test CRC 57C375CF
Copy CRC 57C375CF
Accurately ripped (confidence 2) [C78E3142] (AR v1)
Copy OK

Track 6

Filename C:\Users\drm5w\Desktop\Music\Ivy\Various - The Secret Museum of Mankind, Volume 4 (1995) [flac]\06 - R. Singh Bikhul - Been.wav

Pre-gap length 0:00:00.97

Peak level 91.5 %
Extraction speed 1.9 X
Track quality 100.0 %
Test CRC 5F1BAE26
Copy CRC 5F1BAE26
Accurately ripped (confidence 2) [5EAD815A] (AR v1)
Copy OK

Track 7

Filename C:\Users\drm5w\Desktop\Music\Ivy\Various - The Secret Museum of Mankind, Volume 4 (1995) [flac]\07 - Solomon Linda's Original Evening Birds - Mbube.wav

Pre-gap length 0:00:01.09

Peak level 88.9 %
Extraction speed 2.0 X
Track quality 100.0 %
Test CRC B6F84E38
Copy CRC B6F84E38
Accurately ripped (confidence 2) [3ADC4725] (AR v1)
Copy OK

Track 8

Filename C:\Users\drm5w\Desktop\Music\Ivy\Various - The Secret Museum of Mankind, Volume 4 (1995) [flac]\08 - Regionale Orchestra - Caboclo Do Matto.wav

Pre-gap length 0:00:01.17

Peak level 91.9 %
Extraction speed 1.7 X
Track quality 99.9 %
Test CRC 82B923BE
Copy CRC 82B923BE
Accurately ripped (confidence 2) [C44203D5] (AR v1)
Copy OK

Track 9

Filename C:\Users\drm5w\Desktop\Music\Ivy\Various - The Secret Museum of Mankind, Volume 4 (1995) [flac]\09 - Djamris Batagah - Randai Parjdain.wav

Pre-gap length 0:00:01.53

Peak level 96.0 %
Extraction speed 2.2 X
Track quality 100.0 %
Test CRC 20919C8E
Copy CRC 20919C8E
Accurately ripped (confidence 2) [4A08BDA5] (AR v1)
Copy OK

Track 10

Filename C:\Users\drm5w\Desktop\Music\Ivy\Various - The Secret Museum of Mankind, Volume 4 (1995) [flac]\10 - Hardingfeletrioen - Fjell - Ljom.wav

Pre-gap length 0:00:02.09

Peak level 85.1 %
Extraction speed 2.2 X
Track quality 100.0 %
Test CRC 67FF5181
Copy CRC 67FF5181
Accurately ripped (confidence 2) [8BC70512] (AR v1)
Copy OK

Track 11

Filename C:\Users\drm5w\Desktop\Music\Ivy\Various - The Secret Museum of Mankind, Volume 4 (1995) [flac]\11 - Haffouz Burhan - Mahur Gazel.wav

Pre-gap length 0:00:00.93

Peak level 95.9 %
Extraction speed 2.3 X
Track quality 100.0 %
Test CRC 6EC357C3
Copy CRC 6EC357C3
Accurately ripped (confidence 2) [50DEA9F6] (AR v1)
Copy OK

Track 12

Filename C:\Users\drm5w\Desktop\Music\Ivy\Various - The Secret Museum of Mankind, Volume 4 (1995) [flac]\12 - Simbo Island Band - Beautiful Body.wav

Pre-gap length 0:00:00.96

Peak level 92.5 %
Extraction speed 2.1 X
Track quality 99.9 %
Test CRC 80658D66
Copy CRC 80658D66
Accurately ripped (confidence 2) [C36473E0] (AR v1)
Copy OK

Track 13

Filename C:\Users\drm5w\Desktop\Music\Ivy\Various - The Secret Museum of Mankind, Volume 4 (1995) [flac]\13 - William Mullaley - Tory Island Reel.wav

Pre-gap length 0:00:01.00

Peak level 88.6 %
Extraction speed 2.4 X
Track quality 100.0 %
Test CRC 0F2B39D4
Copy CRC 0F2B39D4
Accurately ripped (confidence 2) [10D2FB05] (AR v1)
Copy OK

Track 14

Filename C:\Users\drm5w\Desktop\Music\Ivy\Various - The Secret Museum of Mankind, Volume 4 (1995) [flac]\14 - Abdul el Fadallah - Fouad Burban el Amaría.wav

Pre-gap length 0:00:01.82

Peak level 79.1 %
Extraction speed 2.1 X
Track quality 99.9 %
Test CRC 0625402D
Copy CRC 0625402D
Accurately ripped (confidence 1) [5D45A473] (AR v2)
Copy OK

Track 15

Filename C:\Users\drm5w\Desktop\Music\Ivy\Various - The Secret Museum of Mankind, Volume 4 (1995) [flac]\15 - A. Potchvershuy - Dariko.wav

Pre-gap length 0:00:02.30

Peak level 87.0 %
Extraction speed 2.5 X
Track quality 100.0 %
Test CRC 73329FBC
Copy CRC 73329FBC
Accurately ripped (confidence 2) [ACC63DE7] (AR v1)
Copy OK

Track 16

Filename C:\Users\drm5w\Desktop\Music\Ivy\Various - The Secret Museum of Mankind, Volume 4 (1995) [flac]\16 - El Jarocho - La Bamba.wav

Pre-gap length 0:00:01.40

Peak level 94.6 %
Extraction speed 2.5 X
Track quality 100.0 %
Test CRC 041AE237
Copy CRC 041AE237
Accurately ripped (confidence 2) [2738DE77] (AR v1)
Copy OK

Track 17

Filename C:\Users\drm5w\Desktop\Music\Ivy\Various - The Secret Museum of Mankind, Volume 4 (1995) [flac]\17 - Ahmed Abdul Kader - Oudet el Bahara Illa Watanhom.wav

Pre-gap length 0:00:00.90

Peak level 95.5 %
Extraction speed 2.7 X
Track quality 100.0 %
Test CRC DDA23037
Copy CRC DDA23037
Accurately ripped (confidence 2) [5983BD56] (AR v1)
Copy OK

Track 18

Filename C:\Users\drm5w\Desktop\Music\Ivy\Various - The Secret Museum of Mankind, Volume 4 (1995) [flac]\18 - Guyok Himself - Sidi Ma Sidi Batai.wav

Pre-gap length 0:00:00.90

Peak level 89.0 %
Extraction speed 2.8 X
Track quality 100.0 %
Test CRC 34413C1A
Copy CRC 34413C1A
Accurately ripped (confidence 2) [9919E432] (AR v1)
Copy OK

Track 19

Filename C:\Users\drm5w\Desktop\Music\Ivy\Various - The Secret Museum of Mankind, Volume 4 (1995) [flac]\19 - Villeneuve & Bouchard - Talencourt.wav

Pre-gap length 0:00:01.90

Peak level 86.6 %
Extraction speed 2.3 X
Track quality 99.9 %
Test CRC 3A730302
Copy CRC 3A730302
Accurately ripped (confidence 2) [E46CB586] (AR v1)
Copy OK

Track 20

Filename C:\Users\drm5w\Desktop\Music\Ivy\Various - The Secret Museum of Mankind, Volume 4 (1995) [flac]\20 - Archibald Grant - Eilean Mocaridh.wav

Pre-gap length 0:00:01.17

Peak level 84.8 %
Extraction speed 2.9 X
Track quality 100.0 %
Test CRC EA1ADC6D
Copy CRC EA1ADC6D
Accurately ripped (confidence 2) [F11B40FC] (AR v1)
Copy OK

Track 21

Filename C:\Users\drm5w\Desktop\Music\Ivy\Various - The Secret Museum of Mankind, Volume 4 (1995) [flac]\21 - Luajne Sazet Populare - Valle E Gadjes.wav

Pre-gap length 0:00:01.10

Peak level 82.4 %
Extraction speed 2.4 X
Track quality 99.9 %
Test CRC 058A99E0
Copy CRC 058A99E0
Accurately ripped (confidence 2) [A1CA03CB] (AR v1)
Copy OK

Track 22

Filename C:\Users\drm5w\Desktop\Music\Ivy\Various - The Secret Museum of Mankind, Volume 4 (1995) [flac]\22 - Vojin Lutic - Siroko Lisce Borovo.wav

Pre-gap length 0:00:01.69

Peak level 95.9 %
Extraction speed 2.5 X
Track quality 99.9 %
Test CRC 29660F6A
Copy CRC 29660F6A
Accurately ripped (confidence 1) [53A60D81] (AR v2)
Copy OK

Track 23

Filename C:\Users\drm5w\Desktop\Music\Ivy\Various - The Secret Museum of Mankind, Volume 4 (1995) [flac]\23 - Cigan Group - Untitled Dance.wav

Pre-gap length 0:00:02.20

Peak level 79.8 %
Extraction speed 2.4 X
Track quality 100.0 %
Test CRC 59B32383
Copy CRC 59B32383
Accurately ripped (confidence 2) [A2E6749B] (AR v1)
Copy OK

Track 24

Filename C:\Users\drm5w\Desktop\Music\Ivy\Various - The Secret Museum of Mankind, Volume 4 (1995) [flac]\24 - Ni Lemon & Dari Djangger - Lagoe Taboehgari.wav

Pre-gap length 0:00:03.10

Peak level 88.5 %
Extraction speed 3.0 X
Track quality 100.0 %
Test CRC 28E4E97E
Copy CRC 28E4E97E
Accurately ripped (confidence 1) [5597377D] (AR v2)
Copy OK


All tracks accurately ripped

No errors occurred

End of status report

–– CUETools DB Plugin V2.1.6

[CTDB TOCID: XbsTC9pb93rlRWOh4YOul7U2YdM-] found
Submit result: XbsTC9pb93rlRWOh4YOul7U2YdM- has been confirmed
Track | CTDB Status
1 | (3/3) Accurately ripped
2 | (3/3) Accurately ripped
3 | (3/3) Accurately ripped
4 | (3/3) Accurately ripped
5 | (3/3) Accurately ripped
6 | (3/3) Accurately ripped
7 | (3/3) Accurately ripped
8 | (3/3) Accurately ripped
9 | (3/3) Accurately ripped
10 | (3/3) Accurately ripped
11 | (3/3) Accurately ripped
12 | (3/3) Accurately ripped
13 | (3/3) Accurately ripped
14 | (3/3) Accurately ripped
15 | (3/3) Accurately ripped
16 | (3/3) Accurately ripped
17 | (3/3) Accurately ripped
18 | (3/3) Accurately ripped
19 | (3/3) Accurately ripped
20 | (3/3) Accurately ripped
21 | (3/3) Accurately ripped
22 | (3/3) Accurately ripped
23 | (3/3) Accurately ripped
24 | (3/3) Accurately ripped


==== Log checksum F9D2E58C82E02D8F88D9D0DF0602570CA6F77DCEAB5A6266C7C8CF67B758CF02 ====

Thanks to the Original ripper shutupbirdie !