Tags
Language
Tags

VA - The Secret Museum Of Mankind, Vol. 1: Ethnic Music Classics 1925-1948 (1995)

Posted By:
VA - The Secret Museum Of Mankind, Vol. 1: Ethnic Music Classics 1925-1948 (1995)

VA - The Secret Museum Of Mankind, Vol. 1: Ethnic Music Classics 1925-1948 (1995)
EAC Rip | FLAC (tracks+log+.cue) - 246 Mb | MP3 CBR 320 kbps - 160 Mb | 01:09:59
World | Label: Yazoo Records

This series of CDs compiles many of the greatest performances of world and ethnic music ever recorded. This volume represents a trip around the world, stopping at each port to sample one of that country’s finest recordings of its indigenous music. Each of these recordings was captured at a period during the golden age of recording when traditional styles were at their peak of power and emotion. Included inside are extensive notes a beautiful period photographs that work together with the music to communicate an exciting sense of discovery. Music from Nigeria, Sardinia, Russia, Ceylon, Rajahstan, Cuba, Rumania, Vietnam, Macedonia, Society Islands, Morocco, South Africa, Japan, India, The Basque, Sweden, Yiddish, Poland, Jamaica, Abyssinia, Andalucia, Visayan Islands, Fiji.

AllMusic Review by John Vallier:
World music recorded during the first half of the 20th century, once etched onto wax cylinders and brittle 78s, has been diligently rescued and revived for presentation on this, the first volume from The Secret Museum of Mankind. This CD opens with a late '30s recording of an alluring yet laid back performance by a Nigerian choral, organ, and drum ensemble. An impressive Sardinian launeddas (triple read pipe) solo rendered by an experienced player comes next. Circular breathing and lightning fast chops highlight the Herculean nature of this master musician's effort. Other noteworthy tracks on this CD include a rare '20s recording of Japan's serene Imperial Household Orchestra, a performance by Hindustani musicians that feature melodic clusters of suspended bells, a 1924 recording of a trombonist's "Jewish Jazz" band, and a Vietnamese string and vocal ensemble's graceful rendition of "Worthy Gem." The superb musicianship and creative approaches displayed on these varied recordings makes this CD a must-have for any real "world music" fan.
Tracklist:
01 - Eleja Choir - Jubilee Anthem
02 - Efisio Melis - Fiorassio
03 - Savelli Walevitch - Techudo Techudiessa
04 - Fonseka and Party - Kapirigna
05 - Bhoora Singh and Party - Jat Song
06 - Septeto Matamoros - Oye Mi Coro
07 - [anonymous group] - Dance Song
08 - Hoang-Vúy - Ló'i Sông Nui
09 - Stephanya G. Penchevya - Selska Ratschentitza
10 - Les Tamaru - 'Upa-'Upa
11 - Raoul Journo - Ma Thama Zinek
12 - Zwabesho Sibisi - Angihambe
13 - Imperial Household Orchestra - Ise'-no-Umi.
14 - Master Manahar Barve - Gungru Tarang
15 - Triki-Triki - Te Quiero Bilbaina
16 - Eric Sahlström - Byggnan
17 - Raderman-Beckerman Orchestra - A Europaische Kolomyka
18 - Goralska Orkiestra - Nie Smucćie Sie Tatry
19 - Lord Composer - Hill and Gully Ride , Mandeville Road
20 - Haile, Ighigou, et al. - Medina
21 - La Niña de los Peines - Alegrías
22 - Duetto Pamolinao - Naidasay Toy Pusoc
23 - Andi Thakambau - Isa Lei

Exact Audio Copy V1.3 from 2. September 2016

EAC extraction logfile from 6. March 2017, 13:15

Various Artists / The Secret Museum of Mankind, Volume 1: Ethnic Music Classics 1925-48

Used drive : HL-DT-STDVD+-RW GT80N Adapter: 1 ID: 0

Read mode : Secure
Utilize accurate stream : Yes
Defeat audio cache : Yes
Make use of C2 pointers : No

Read offset correction : 102
Overread into Lead-In and Lead-Out : No
Fill up missing offset samples with silence : Yes
Delete leading and trailing silent blocks : No
Null samples used in CRC calculations : Yes
Used interface : Native Win32 interface for Win NT & 2000
Gap handling : Appended to previous track

Used output format : User Defined Encoder
Selected bitrate : 1024 kBit/s
Quality : High
Add ID3 tag : No
Command line compressor : C:\Program Files\Exact Audio Copy\FLAC\FLAC.EXE
Additional command line options : -8 -V -T "ARTIST=%artist%" -T "TITLE=%title%" -T "ALBUM=%albumtitle%" -T "DATE=%year%" -T "TRACKNUMBER=%tracknr%" -T "GENRE=%genre%" -T "PERFORMER=%albuminterpret%" -T "COMPOSER=%composer%" %haslyrics%–tag-from-file=LYRICS="%lyricsfile%"%haslyrics% -T "ALBUMARTIST=%albumartist%" -T "DISCNUMBER=%cdnumber%" -T "TOTALDISCS=%totalcds%" -T "TOTALTRACKS=%numtracks%" -T "COMMENT=%comment%" %source% -o %dest%


TOC of the extracted CD

Track | Start | Length | Start sector | End sector
––––––––––––––––––––––––––––-
1 | 0:00.32 | 2:55.08 | 32 | 13164
2 | 2:55.40 | 3:10.52 | 13165 | 27466
3 | 6:06.17 | 2:33.35 | 27467 | 38976
4 | 8:39.52 | 4:32.15 | 38977 | 59391
5 | 13:11.67 | 3:13.68 | 59392 | 73934
6 | 16:25.60 | 3:04.40 | 73935 | 87774
7 | 19:30.25 | 3:15.30 | 87775 | 102429
8 | 22:45.55 | 3:08.15 | 102430 | 116544
9 | 25:53.70 | 3:05.42 | 116545 | 130461
10 | 28:59.37 | 2:43.10 | 130462 | 142696
11 | 31:42.47 | 2:43.45 | 142697 | 154966
12 | 34:26.17 | 2:17.23 | 154967 | 165264
13 | 36:43.40 | 3:05.00 | 165265 | 179139
14 | 39:48.40 | 3:20.07 | 179140 | 194146
15 | 43:08.47 | 2:52.05 | 194147 | 207051
16 | 46:00.52 | 3:11.03 | 207052 | 221379
17 | 49:11.55 | 2:52.40 | 221380 | 234319
18 | 52:04.20 | 3:10.15 | 234320 | 248584
19 | 55:14.35 | 3:04.10 | 248585 | 262394
20 | 58:18.45 | 3:04.67 | 262395 | 276261
21 | 61:23.37 | 2:42.70 | 276262 | 288481
22 | 64:06.32 | 3:20.20 | 288482 | 303501
23 | 67:26.52 | 2:32.60 | 303502 | 314961


Track 1

Filename C:\Users\drm5w\Desktop\Music\Ivy\Various - The Secret Museum of Mankind, Volume 1 (1995) [flac]\01 - Eleja Choir - Jubilee Anthem.wav

Pre-gap length 0:00:02.42

Peak level 87.0 %
Extraction speed 2.8 X
Track quality 100.0 %
Test CRC 98468BCF
Copy CRC 98468BCF
Accurately ripped (confidence 5) [D80C8AB1] (AR v1)
Copy OK

Track 2

Filename C:\Users\drm5w\Desktop\Music\Ivy\Various - The Secret Museum of Mankind, Volume 1 (1995) [flac]\02 - Efisio Melis - Fiorassio.wav

Pre-gap length 0:00:00.84

Peak level 76.3 %
Extraction speed 3.0 X
Track quality 100.0 %
Test CRC 4523DC97
Copy CRC 4523DC97
Accurately ripped (confidence 5) [44EE5C70] (AR v1)
Copy OK

Track 3

Filename C:\Users\drm5w\Desktop\Music\Ivy\Various - The Secret Museum of Mankind, Volume 1 (1995) [flac]\03 - Savelli Walevitch - Techudo Techudiessa.wav

Pre-gap length 0:00:00.82

Peak level 95.2 %
Extraction speed 3.1 X
Track quality 100.0 %
Test CRC FCA4AF17
Copy CRC FCA4AF17
Accurately ripped (confidence 5) [36E1A9D5] (AR v1)
Copy OK

Track 4

Filename C:\Users\drm5w\Desktop\Music\Ivy\Various - The Secret Museum of Mankind, Volume 1 (1995) [flac]\04 - Fonseka and Party - Kapirigna.wav

Pre-gap length 0:00:00.82

Peak level 87.0 %
Extraction speed 3.6 X
Track quality 100.0 %
Test CRC C02F27F1
Copy CRC C02F27F1
Accurately ripped (confidence 5) [4F22213A] (AR v1)
Copy OK

Track 5

Filename C:\Users\drm5w\Desktop\Music\Ivy\Various - The Secret Museum of Mankind, Volume 1 (1995) [flac]\05 - Bhoora Singh and Party - Jat Song.wav

Pre-gap length 0:00:00.82

Peak level 85.3 %
Extraction speed 3.6 X
Track quality 100.0 %
Test CRC FA0801CB
Copy CRC FA0801CB
Accurately ripped (confidence 5) [F6489871] (AR v1)
Copy OK

Track 6

Filename C:\Users\drm5w\Desktop\Music\Ivy\Various - The Secret Museum of Mankind, Volume 1 (1995) [flac]\06 - Septeto Matamoros - Oye Mi Coro.wav

Pre-gap length 0:00:00.84

Peak level 82.6 %
Extraction speed 3.7 X
Track quality 100.0 %
Test CRC F7072F60
Copy CRC F7072F60
Accurately ripped (confidence 5) [B431D448] (AR v1)
Copy OK

Track 7

Filename C:\Users\drm5w\Desktop\Music\Ivy\Various - The Secret Museum of Mankind, Volume 1 (1995) [flac]\07 - [anonymous group] - Dance Song.wav

Pre-gap length 0:01:00.84

Peak level 82.7 %
Extraction speed 3.7 X
Track quality 100.0 %
Test CRC B0400007
Copy CRC B0400007
Accurately ripped (confidence 5) [36A26180] (AR v1)
Copy OK

Track 8

Filename C:\Users\drm5w\Desktop\Music\Ivy\Various - The Secret Museum of Mankind, Volume 1 (1995) [flac]\08 - Hoang-Vúy - Ló'i Sông Nui.wav

Pre-gap length 0:00:00.84

Peak level 72.8 %
Extraction speed 3.0 X
Track quality 99.9 %
Test CRC 4573E4A8
Copy CRC 4573E4A8
Accurately ripped (confidence 5) [26B1AB0F] (AR v1)
Copy OK

Track 9

Filename C:\Users\drm5w\Desktop\Music\Ivy\Various - The Secret Museum of Mankind, Volume 1 (1995) [flac]\09 - Stephanya G. Penchevya - Selska Ratschentitza.wav

Pre-gap length 0:00:00.84

Peak level 86.3 %
Extraction speed 3.1 X
Track quality 99.9 %
Test CRC DC3E5BEC
Copy CRC DC3E5BEC
Accurately ripped (confidence 5) [A7C73BE8] (AR v1)
Copy OK

Track 10

Filename C:\Users\drm5w\Desktop\Music\Ivy\Various - The Secret Museum of Mankind, Volume 1 (1995) [flac]\10 - Les Tamaru - 'Upa-'Upa.wav

Pre-gap length 0:00:00.82

Peak level 90.7 %
Extraction speed 4.0 X
Track quality 100.0 %
Test CRC C1BCEB7F
Copy CRC C1BCEB7F
Accurately ripped (confidence 5) [7C486012] (AR v1)
Copy OK

Track 11

Filename C:\Users\drm5w\Desktop\Music\Ivy\Various - The Secret Museum of Mankind, Volume 1 (1995) [flac]\11 - Raoul Journo - Ma Thama Zinek.wav

Pre-gap length 0:00:00.82

Peak level 85.5 %
Extraction speed 3.8 X
Track quality 100.0 %
Test CRC 07454841
Copy CRC 07454841
Accurately ripped (confidence 5) [14DAA7CC] (AR v1)
Copy OK

Track 12

Filename C:\Users\drm5w\Desktop\Music\Ivy\Various - The Secret Museum of Mankind, Volume 1 (1995) [flac]\12 - Zwabesho Sibisi - Angihambe.wav

Pre-gap length 0:00:00.82

Peak level 70.1 %
Extraction speed 3.6 X
Track quality 100.0 %
Test CRC D6C32CCD
Copy CRC D6C32CCD
Accurately ripped (confidence 5) [4A6A3530] (AR v1)
Copy OK

Track 13

Filename C:\Users\drm5w\Desktop\Music\Ivy\Various - The Secret Museum of Mankind, Volume 1 (1995) [flac]\13 - Imperial Household Orchestra - Ise'-no-Umi.wav

Pre-gap length 0:00:00.84

Peak level 66.9 %
Extraction speed 4.0 X
Track quality 100.0 %
Test CRC A6277979
Copy CRC A6277979
Accurately ripped (confidence 5) [5F074AB3] (AR v1)
Copy OK

Track 14

Filename C:\Users\drm5w\Desktop\Music\Ivy\Various - The Secret Museum of Mankind, Volume 1 (1995) [flac]\14 - Master Manahar Barve - Gungru Tarang.wav

Pre-gap length 0:00:00.84

Peak level 72.9 %
Extraction speed 4.0 X
Track quality 100.0 %
Test CRC 16E19582
Copy CRC 16E19582
Accurately ripped (confidence 5) [907B73DC] (AR v1)
Copy OK

Track 15

Filename C:\Users\drm5w\Desktop\Music\Ivy\Various - The Secret Museum of Mankind, Volume 1 (1995) [flac]\15 - Triki-Triki - Te Quiero Bilbaina.wav

Pre-gap length 0:00:00.82

Peak level 95.5 %
Extraction speed 4.1 X
Track quality 100.0 %
Test CRC EB9B4F6A
Copy CRC EB9B4F6A
Accurately ripped (confidence 5) [24331BC0] (AR v1)
Copy OK

Track 16

Filename C:\Users\drm5w\Desktop\Music\Ivy\Various - The Secret Museum of Mankind, Volume 1 (1995) [flac]\16 - Eric Sahlström - Byggnan.wav

Pre-gap length 0:00:00.82

Peak level 76.1 %
Extraction speed 4.3 X
Track quality 100.0 %
Test CRC C906D878
Copy CRC C906D878
Accurately ripped (confidence 3) [54A289AD] (AR v1)
Copy OK

Track 17

Filename C:\Users\drm5w\Desktop\Music\Ivy\Various - The Secret Museum of Mankind, Volume 1 (1995) [flac]\17 - Raderman-Beckerman Orchestra - A Europaische Kolomyka.wav

Pre-gap length 0:00:00.84

Peak level 90.1 %
Extraction speed 4.2 X
Track quality 100.0 %
Test CRC 2726444D
Copy CRC 2726444D
Accurately ripped (confidence 5) [C48AA65A] (AR v1)
Copy OK

Track 18

Filename C:\Users\drm5w\Desktop\Music\Ivy\Various - The Secret Museum of Mankind, Volume 1 (1995) [flac]\18 - Goralska Orkiestra - Nie Smucćie Sie Tatry.wav

Pre-gap length 0:00:00.84

Peak level 62.6 %
Extraction speed 3.8 X
Track quality 99.9 %
Test CRC D678B17D
Copy CRC D678B17D
Accurately ripped (confidence 5) [7E953E77] (AR v1)
Copy OK

Track 19

Filename C:\Users\drm5w\Desktop\Music\Ivy\Various - The Secret Museum of Mankind, Volume 1 (1995) [flac]\19 - Lord Composer - Hill and Gully Ride , Mandeville Road.wav

Pre-gap length 0:00:00.84

Peak level 80.2 %
Extraction speed 4.9 X
Track quality 100.0 %
Test CRC 8A36868E
Copy CRC 8A36868E
Accurately ripped (confidence 5) [F348E5AF] (AR v1)
Copy OK

Track 20

Filename C:\Users\drm5w\Desktop\Music\Ivy\Various - The Secret Museum of Mankind, Volume 1 (1995) [flac]\20 - Haile, Ighigou, et al. - Medina.wav

Pre-gap length 0:00:00.84

Peak level 64.1 %
Extraction speed 3.9 X
Track quality 99.9 %
Test CRC C31EC3D3
Copy CRC C31EC3D3
Accurately ripped (confidence 5) [EBA5D95D] (AR v1)
Copy OK

Track 21

Filename C:\Users\drm5w\Desktop\Music\Ivy\Various - The Secret Museum of Mankind, Volume 1 (1995) [flac]\21 - La Niña de los Peines - Alegrías.wav

Pre-gap length 0:00:00.82

Peak level 95.5 %
Extraction speed 4.9 X
Track quality 100.0 %
Test CRC 2E40CB8C
Copy CRC 2E40CB8C
Accurately ripped (confidence 5) [D2D24D90] (AR v1)
Copy OK

Track 22

Filename C:\Users\drm5w\Desktop\Music\Ivy\Various - The Secret Museum of Mankind, Volume 1 (1995) [flac]\22 - Duetto Pamolinao - Naidasay Toy Pusoc.wav

Pre-gap length 0:00:00.82

Peak level 65.9 %
Extraction speed 5.0 X
Track quality 100.0 %
Test CRC 34B9D287
Copy CRC 34B9D287
Accurately ripped (confidence 5) [FBC26A9E] (AR v1)
Copy OK

Track 23

Filename C:\Users\drm5w\Desktop\Music\Ivy\Various - The Secret Museum of Mankind, Volume 1 (1995) [flac]\23 - Andi Thakambau - Isa Lei.wav

Pre-gap length 0:00:00.82

Peak level 73.1 %
Extraction speed 4.7 X
Track quality 100.0 %
Test CRC EE8BCCE5
Copy CRC EE8BCCE5
Accurately ripped (confidence 5) [B149B073] (AR v1)
Copy OK


All tracks accurately ripped

No errors occurred

End of status report

–– CUETools DB Plugin V2.1.6

[CTDB TOCID: J9Bp48QAgYMsmLg1YeElqg69eXI-] found
Submit result: J9Bp48QAgYMsmLg1YeElqg69eXI- has been confirmed
Track | CTDB Status
1 | (1/1) Accurately ripped
2 | (1/1) Accurately ripped
3 | (1/1) Accurately ripped
4 | (1/1) Accurately ripped
5 | (1/1) Accurately ripped
6 | (1/1) Accurately ripped
7 | (1/1) Accurately ripped
8 | (1/1) Accurately ripped
9 | (1/1) Accurately ripped
10 | (1/1) Accurately ripped
11 | (1/1) Accurately ripped
12 | (1/1) Accurately ripped
13 | (1/1) Accurately ripped
14 | (1/1) Accurately ripped
15 | (1/1) Accurately ripped
16 | (1/1) Accurately ripped
17 | (1/1) Accurately ripped
18 | (1/1) Accurately ripped
19 | (1/1) Accurately ripped
20 | (1/1) Accurately ripped
21 | (1/1) Accurately ripped
22 | (1/1) Accurately ripped
23 | (1/1) Accurately ripped


==== Log checksum FD0878B9C9CCFA20260121FF9E3D1AD98D6DF741C11C7B7FA855B593880D7F15 ====

Thanks to the Original ripper shutupbirdie !