Tags
Language
Tags

VA - The Secret Museum of Mankind, Vol. 2: Ethnic Music Classics 1925-48 (1995)

Posted By: delpotro
VA - The Secret Museum of Mankind, Vol. 2: Ethnic Music Classics 1925-48 (1995)

VA - The Secret Museum of Mankind, Vol. 2: Ethnic Music Classics 1925-48 (1995)
EAC Rip | FLAC (tracks+log+.cue) - 227 Mb | MP3 CBR 320 kbps - 153 Mb | 01:06:49
World | Label: Yazoo Records

Compiled here are many of the greatest performances of world and ethnic music ever recorded. This volume represents a trip around the world, stopping at each port to sample one of that country’s finest recordings of its indigenous music. Each of these recordings was captured at a period during the golden age of recording when traditional styles were at their peak of power and emotion.

AllMusic Review by John Vallier:
Vol. 2 of The Secret Museum of Mankind: Ethnic Music Classics, 1925-48 is a diverse collection of old and rare international musical recordings. Opening with an all male choral bellow from a 1930s New Caledonian group, this CD jumps to a Bulgarian rachinitza, a lyrical Puerto Rican aguinaldo that's usually associated with Christmas festivities, and a Hindustani vocal display by a jamming scholar. The rest of the CD continues along in a similarly adventurous way, presenting early 20th century recordings from Turkish, Sri Lankan, Ukranian, Algerian, and Tibetan cultures, to name but a few. Of particular note is a recording of a Sundanese group. The wailing sounds of the Javanese rebab (a single stringed spiked fiddle) and the suling (bamboo flute) provide a wafting backdrop for the ether-like vocals of the group's singer, Miss Narem. From another island nation, Trinidad, comes the CD's upbeat ninth track, "Old Time Cat-O'-Nine." Backed up by his band the Tiger, Lord Invader attempts to persuade his fellow citizens to send the country's hooligans off to another island, Carrera Prison. In short, Vol. 2 is yet another interesting and great sounding contribution to The Secret Museum's set of old real "world music" recordings.
Tracklist:
01 - men's group (anonymous) - Wishes of Welcome
02 - Mita Stoycheva - Storise Khoro Goliamo
03 - Canario y Su Grupo - Aguinaldo de Navidad
04 - Prof. Narayandrao Vyas - Yari Mohi Gatai Dehi Mai Shaim
05 - Shangaan Choir - Abakwagaza (Men of Gaza)
06 - anon trio - Bahrie Tchifte Tellisi
07 - Nji Iti Narem - Soekasari
08 - Theodore J. Swystun - Yak Poidu Z Kimi Na Nicz
09 - Lord Invader - Old Time Cat-O'-Nine
10 - Evstratios Kalogeridou - Malevitziotikos Horos
11 - Corale Corse - Paghjelle
12 - Feituk A. Sumeiyat - Bengeria
13 - A. Kostis - Kaike Ena Sholio
14 - Les fréres Sciallour - Jabadao de Quimper
15 - C. Benjamin Fernando & H.D. Manuel - Manaram Sidevi
16 - Cuartetto Iberia - Zacataque
17 - Rita Abatzi - Prepei na Skeptetai Kaneis
18 - G. Kurmangaliev - Pan Koylek
19 - Angus Chisholm - Glengarry's Dirk…
20 - John Bhengu - Umakotshaha
21 - Mahieddine - Istikhbar Eraque
22 - Bau In Da Li Ga - Liau Kwo Da Tsaou Yuen
23 - men's group (anonymous) - Hotu Matua

Exact Audio Copy V1.3 from 2. September 2016

EAC extraction logfile from 6. March 2017, 13:58

Various Artists / The Secret Museum of Mankind, Volume 2: Ethnic Music Classics 1925-48

Used drive : HL-DT-STDVD+-RW GT80N Adapter: 1 ID: 0

Read mode : Secure
Utilize accurate stream : Yes
Defeat audio cache : Yes
Make use of C2 pointers : No

Read offset correction : 102
Overread into Lead-In and Lead-Out : No
Fill up missing offset samples with silence : Yes
Delete leading and trailing silent blocks : No
Null samples used in CRC calculations : Yes
Used interface : Native Win32 interface for Win NT & 2000
Gap handling : Appended to previous track

Used output format : User Defined Encoder
Selected bitrate : 1024 kBit/s
Quality : High
Add ID3 tag : No
Command line compressor : C:\Program Files\Exact Audio Copy\FLAC\FLAC.EXE
Additional command line options : -8 -V -T "ARTIST=%artist%" -T "TITLE=%title%" -T "ALBUM=%albumtitle%" -T "DATE=%year%" -T "TRACKNUMBER=%tracknr%" -T "GENRE=%genre%" -T "PERFORMER=%albuminterpret%" -T "COMPOSER=%composer%" %haslyrics%–tag-from-file=LYRICS="%lyricsfile%"%haslyrics% -T "ALBUMARTIST=%albumartist%" -T "DISCNUMBER=%cdnumber%" -T "TOTALDISCS=%totalcds%" -T "TOTALTRACKS=%numtracks%" -T "COMMENT=%comment%" %source% -o %dest%


TOC of the extracted CD

Track | Start | Length | Start sector | End sector
––––––––––––––––––––––––––––-
1 | 0:00.32 | 1:54.18 | 32 | 8599
2 | 1:54.50 | 3:11.37 | 8600 | 22961
3 | 5:06.12 | 2:58.70 | 22962 | 36381
4 | 8:05.07 | 3:08.15 | 36382 | 50496
5 | 11:13.22 | 2:48.50 | 50497 | 63146
6 | 14:01.72 | 3:20.33 | 63147 | 78179
7 | 17:22.30 | 2:58.45 | 78180 | 91574
8 | 20:21.00 | 3:10.10 | 91575 | 105834
9 | 23:31.10 | 3:14.37 | 105835 | 120421
10 | 26:45.47 | 3:21.43 | 120422 | 135539
11 | 30:07.15 | 3:03.62 | 135540 | 149326
12 | 33:11.02 | 2:42.50 | 149327 | 161526
13 | 35:53.52 | 4:09.70 | 161527 | 180271
14 | 40:03.47 | 2:40.68 | 180272 | 192339
15 | 42:44.40 | 2:56.37 | 192340 | 205576
16 | 45:41.02 | 3:00.40 | 205577 | 219116
17 | 48:41.42 | 3:14.00 | 219117 | 233666
18 | 51:55.42 | 2:40.18 | 233667 | 245684
19 | 54:35.60 | 2:52.67 | 245685 | 258651
20 | 57:28.52 | 2:34.00 | 258652 | 270201
21 | 60:02.52 | 3:12.50 | 270202 | 284651
22 | 63:15.27 | 2:26.58 | 284652 | 295659
23 | 65:42.10 | 1:07.62 | 295660 | 300746


Track 1

Filename C:\Users\drm5w\Desktop\Music\Ivy\Various - The Secret Museum of Mankind, Volume 2 (1995) [flac]\01 - men's group (anonymous) - Wishes of Welcome.wav

Pre-gap length 0:00:02.42

Peak level 86.3 %
Extraction speed 2.5 X
Track quality 100.0 %
Test CRC 6F3294D6
Copy CRC 6F3294D6
Accurately ripped (confidence 4) [E5B801CB] (AR v1)
Copy OK

Track 2

Filename C:\Users\drm5w\Desktop\Music\Ivy\Various - The Secret Museum of Mankind, Volume 2 (1995) [flac]\02 - Mita Stoycheva - Storise Khoro Goliamo.wav

Pre-gap length 0:00:00.84

Peak level 72.6 %
Extraction speed 2.9 X
Track quality 100.0 %
Test CRC 8D91E7AA
Copy CRC 8D91E7AA
Accurately ripped (confidence 4) [ACBA95E5] (AR v1)
Copy OK

Track 3

Filename C:\Users\drm5w\Desktop\Music\Ivy\Various - The Secret Museum of Mankind, Volume 2 (1995) [flac]\03 - Canario y Su Grupo - Aguinaldo de Navidad.wav

Pre-gap length 0:00:00.82

Peak level 83.3 %
Extraction speed 2.4 X
Track quality 99.9 %
Test CRC CD1C41FE
Copy CRC CD1C41FE
Accurately ripped (confidence 4) [9C68A1FC] (AR v1)
Copy OK

Track 4

Filename C:\Users\drm5w\Desktop\Music\Ivy\Various - The Secret Museum of Mankind, Volume 2 (1995) [flac]\04 - Prof. Narayandrao Vyas - Yari Mohi Gatai Dehi Mai Shaim.wav

Pre-gap length 0:00:00.82

Peak level 88.4 %
Extraction speed 2.6 X
Track quality 99.9 %
Test CRC 07423374
Copy CRC 07423374
Accurately ripped (confidence 4) [EA995733] (AR v1)
Copy OK

Track 5

Filename C:\Users\drm5w\Desktop\Music\Ivy\Various - The Secret Museum of Mankind, Volume 2 (1995) [flac]\05 - Shangaan Choir - Abakwagaza (Men of Gaza).wav

Pre-gap length 0:00:00.82

Peak level 81.1 %
Extraction speed 2.6 X
Track quality 99.9 %
Test CRC B4E90C13
Copy CRC B4E90C13
Accurately ripped (confidence 4) [D399ECE2] (AR v1)
Copy OK

Track 6

Filename C:\Users\drm5w\Desktop\Music\Ivy\Various - The Secret Museum of Mankind, Volume 2 (1995) [flac]\06 - anon trio - Bahrie Tchifte Tellisi.wav

Pre-gap length 0:00:00.82

Peak level 69.0 %
Extraction speed 3.6 X
Track quality 100.0 %
Test CRC FDB0420F
Copy CRC FDB0420F
Accurately ripped (confidence 4) [1B3E17C0] (AR v1)
Copy OK

Track 7

Filename C:\Users\drm5w\Desktop\Music\Ivy\Various - The Secret Museum of Mankind, Volume 2 (1995) [flac]\07 - Nji Iti Narem - Soekasari.wav

Pre-gap length 0:00:00.84

Peak level 69.3 %
Extraction speed 2.9 X
Track quality 99.9 %
Test CRC 8E0C4802
Copy CRC 8E0C4802
Accurately ripped (confidence 4) [62B4BF59] (AR v1)
Copy OK

Track 8

Filename C:\Users\drm5w\Desktop\Music\Ivy\Various - The Secret Museum of Mankind, Volume 2 (1995) [flac]\08 - Theodore J. Swystun - Yak Poidu Z Kimi Na Nicz.wav

Pre-gap length 0:00:00.50

Peak level 72.9 %
Extraction speed 3.9 X
Track quality 100.0 %
Test CRC 014166EF
Copy CRC 014166EF
Accurately ripped (confidence 4) [61F46E35] (AR v1)
Copy OK

Track 9

Filename C:\Users\drm5w\Desktop\Music\Ivy\Various - The Secret Museum of Mankind, Volume 2 (1995) [flac]\09 - Lord Invader - Old Time Cat-O'-Nine.wav

Pre-gap length 0:00:00.84

Peak level 79.6 %
Extraction speed 3.8 X
Track quality 100.0 %
Test CRC 072FB4C3
Copy CRC 072FB4C3
Accurately ripped (confidence 4) [5E06BF01] (AR v1)
Copy OK

Track 10

Filename C:\Users\drm5w\Desktop\Music\Ivy\Various - The Secret Museum of Mankind, Volume 2 (1995) [flac]\10 - Evstratios Kalogeridou - Malevitziotikos Horos.wav

Pre-gap length 0:00:00.82

Peak level 75.7 %
Extraction speed 3.8 X
Track quality 100.0 %
Test CRC D82C9A59
Copy CRC D82C9A59
Accurately ripped (confidence 4) [78E314A7] (AR v1)
Copy OK

Track 11

Filename C:\Users\drm5w\Desktop\Music\Ivy\Various - The Secret Museum of Mankind, Volume 2 (1995) [flac]\11 - Corale Corse - Paghjelle.wav

Pre-gap length 0:00:00.84

Peak level 91.0 %
Extraction speed 3.7 X
Track quality 100.0 %
Test CRC 13DBD1A7
Copy CRC 13DBD1A7
Accurately ripped (confidence 4) [743BE852] (AR v1)
Copy OK

Track 12

Filename C:\Users\drm5w\Desktop\Music\Ivy\Various - The Secret Museum of Mankind, Volume 2 (1995) [flac]\12 - Feituk A. Sumeiyat - Bengeria.wav

Pre-gap length 0:00:00.82

Peak level 75.6 %
Extraction speed 3.1 X
Track quality 99.9 %
Test CRC 57544BCE
Copy CRC 57544BCE
Accurately ripped (confidence 4) [80620B63] (AR v1)
Copy OK

Track 13

Filename C:\Users\drm5w\Desktop\Music\Ivy\Various - The Secret Museum of Mankind, Volume 2 (1995) [flac]\13 - A. Kostis - Kaike Ena Sholio.wav

Pre-gap length 0:00:00.76

Peak level 65.7 %
Extraction speed 4.5 X
Track quality 100.0 %
Test CRC B856C41C
Copy CRC B856C41C
Accurately ripped (confidence 4) [55D6F9CB] (AR v1)
Copy OK

Track 14

Filename C:\Users\drm5w\Desktop\Music\Ivy\Various - The Secret Museum of Mankind, Volume 2 (1995) [flac]\14 - Les fréres Sciallour - Jabadao de Quimper.wav

Pre-gap length 0:00:00.82

Peak level 53.3 %
Extraction speed 4.0 X
Track quality 100.0 %
Test CRC 6EFF866F
Copy CRC 6EFF866F
Accurately ripped (confidence 4) [6A99D0C5] (AR v1)
Copy OK

Track 15

Filename C:\Users\drm5w\Desktop\Music\Ivy\Various - The Secret Museum of Mankind, Volume 2 (1995) [flac]\15 - C. Benjamin Fernando & H.D. Manuel - Manaram Sidevi.wav

Pre-gap length 0:00:00.84

Peak level 71.8 %
Extraction speed 4.0 X
Track quality 100.0 %
Test CRC 3A1C6BED
Copy CRC 3A1C6BED
Accurately ripped (confidence 4) [D0358131] (AR v1)
Copy OK

Track 16

Filename C:\Users\drm5w\Desktop\Music\Ivy\Various - The Secret Museum of Mankind, Volume 2 (1995) [flac]\16 - Cuartetto Iberia - Zacataque.wav

Pre-gap length 0:00:00.82

Peak level 59.2 %
Extraction speed 4.1 X
Track quality 100.0 %
Test CRC C56D8A7C
Copy CRC C56D8A7C
Accurately ripped (confidence 4) [082EFE7A] (AR v1)
Copy OK

Track 17

Filename C:\Users\drm5w\Desktop\Music\Ivy\Various - The Secret Museum of Mankind, Volume 2 (1995) [flac]\17 - Rita Abatzi - Prepei na Skeptetai Kaneis.wav

Pre-gap length 0:00:00.82

Peak level 81.5 %
Extraction speed 4.4 X
Track quality 100.0 %
Test CRC D91809EC
Copy CRC D91809EC
Accurately ripped (confidence 4) [ED0A88F5] (AR v1)
Copy OK

Track 18

Filename C:\Users\drm5w\Desktop\Music\Ivy\Various - The Secret Museum of Mankind, Volume 2 (1995) [flac]\18 - G. Kurmangaliev - Pan Koylek.wav

Pre-gap length 0:00:00.82

Peak level 74.1 %
Extraction speed 4.2 X
Track quality 100.0 %
Test CRC 15632761
Copy CRC 15632761
Accurately ripped (confidence 4) [177CE4A0] (AR v1)
Copy OK

Track 19

Filename C:\Users\drm5w\Desktop\Music\Ivy\Various - The Secret Museum of Mankind, Volume 2 (1995) [flac]\19 - Angus Chisholm - Glengarry's Dirk….wav

Pre-gap length 0:00:00.84

Peak level 82.2 %
Extraction speed 4.4 X
Track quality 100.0 %
Test CRC 7606C525
Copy CRC 7606C525
Accurately ripped (confidence 4) [34F9439E] (AR v1)
Copy OK

Track 20

Filename C:\Users\drm5w\Desktop\Music\Ivy\Various - The Secret Museum of Mankind, Volume 2 (1995) [flac]\20 - John Bhengu - Umakotshaha.wav

Pre-gap length 0:00:00.82

Peak level 63.4 %
Extraction speed 3.6 X
Track quality 99.9 %
Test CRC 18E0E1E8
Copy CRC 18E0E1E8
Accurately ripped (confidence 4) [E93EB618] (AR v1)
Copy OK

Track 21

Filename C:\Users\drm5w\Desktop\Music\Ivy\Various - The Secret Museum of Mankind, Volume 2 (1995) [flac]\21 - Mahieddine - Istikhbar Eraque.wav

Pre-gap length 0:00:00.82

Peak level 84.3 %
Extraction speed 5.2 X
Track quality 100.0 %
Test CRC EFB291C0
Copy CRC EFB291C0
Accurately ripped (confidence 4) [DEFBF3EA] (AR v1)
Copy OK

Track 22

Filename C:\Users\drm5w\Desktop\Music\Ivy\Various - The Secret Museum of Mankind, Volume 2 (1995) [flac]\22 - Bau In Da Li Ga - Liau Kwo Da Tsaou Yuen.wav

Pre-gap length 0:00:00.82

Peak level 57.7 %
Extraction speed 4.7 X
Track quality 100.0 %
Test CRC 28474945
Copy CRC 28474945
Accurately ripped (confidence 4) [79628AD4] (AR v1)
Copy OK

Track 23

Filename C:\Users\drm5w\Desktop\Music\Ivy\Various - The Secret Museum of Mankind, Volume 2 (1995) [flac]\23 - men's group (anonymous) - Hotu Matua.wav

Pre-gap length 0:00:00.84

Peak level 65.3 %
Extraction speed 3.8 X
Track quality 100.0 %
Test CRC 7E20772E
Copy CRC 7E20772E
Accurately ripped (confidence 2) [08EFA727] (AR v2)
Copy OK


All tracks accurately ripped

No errors occurred

End of status report

–– CUETools DB Plugin V2.1.6

[CTDB TOCID: 0GoxGaG6T5xcanr5taqhfpXM2fE-] found
Submit result: 0GoxGaG6T5xcanr5taqhfpXM2fE- has been confirmed
Track | CTDB Status
1 | (2/2) Accurately ripped
2 | (2/2) Accurately ripped
3 | (2/2) Accurately ripped
4 | (2/2) Accurately ripped
5 | (2/2) Accurately ripped
6 | (2/2) Accurately ripped
7 | (2/2) Accurately ripped
8 | (2/2) Accurately ripped
9 | (2/2) Accurately ripped
10 | (2/2) Accurately ripped
11 | (2/2) Accurately ripped
12 | (2/2) Accurately ripped
13 | (2/2) Accurately ripped
14 | (2/2) Accurately ripped
15 | (2/2) Accurately ripped
16 | (2/2) Accurately ripped
17 | (2/2) Accurately ripped
18 | (2/2) Accurately ripped
19 | (2/2) Accurately ripped
20 | (2/2) Accurately ripped
21 | (2/2) Accurately ripped
22 | (2/2) Accurately ripped
23 | (2/2) Accurately ripped


==== Log checksum F67B1C10E15A937346839DE52F42954917C446BF3E05308A2BA434AED3BDF2DB ====

Thanks to the Original ripper shutupbirdie !