Subcategories

Waed Bouhassoun - Safar : les âmes retrouvées (Musique Du Monde/Music From The World) (2019)

Posted By: aasana
Waed Bouhassoun - Safar : les âmes retrouvées (Musique Du Monde/Music From The World) (2019)

Waed Bouhassoun - Safar : Les âmes retrouvées (2019)
EAC Rip | FLAC (tracks+.cue) | 00:56:33 | 227 MB
World, Ethnic, Folk | Label: Buda Musique

Pour ce troisième album chez Buda Musique, Waed Bouhassoun, remarquable chanteuse et joueuse de oud syrienne, dans la lignée d’Oum Kalthoum et Asmahan, par ailleurs déjà très remarquée chez Jordi Savall, s’est entourée du flûtiste turc, Kudsi Erguner, du flûtiste syrien Moslem Rahal, et du joueur de saz et chanteur kurde Rusan Filizek. Elle chante l’amour courtois en arabe, en turc ou en langue bédouine et a mis en musique de façon convaincante un poème de Clément Marot (1496-1544) dont l’élégance et l’humanisme s’accorde bien au ton des œuvres de son répertoire.Waed nous mène sur des chemins, parfois inconnus, que nous découvrons avec délices.

For this third album from Buda Musique, the remarkable singer and Syrian oud player Waed Bouhassoun is joined by the Turkish flautist Kudsi Erguner, the Syrian flautist Moslem Rahal, and Kurdish singer and saz player Rusan Filizek. Waed, who has already attracted the attention of Jordi Savall, sings of courtly love in Arabic, Turkish or Bedouin in the tradition of Oum Kalthoum and Asmahan, and has expertly put to music a poem by Clément Marot (1496-1544) whose elegance and humanism are in harmony with the tone of her repertoire. Waed leads us on paths, sometimes unknown, that we can take delight in discovering.

Tracklist:
01. Waed Bouhassoun - Layla
02. Waed Bouhassoun - Qays (Le fou de Layla)
03. Waed Bouhassoun - Ilahi Nahawand
04. Waed Bouhassoun - Ilahi Saba Tesbih
05. Waed Bouhassoun - Je dors le cœur blessé
06. Waed Bouhassoun - Amour
07. Waed Bouhassoun - Safar
08. Waed Bouhassoun - O mon ami
09. Waed Bouhassoun - Tes larmes m'empêchent de voler
10. Waed Bouhassoun - Al zahra
11. Waed Bouhassoun - Prière

Exact Audio Copy V1.3 from 2. September 2016

EAC extraction logfile from 24. June 2019, 18:59

Unknown Artist / Unknown Title

Used drive : ASUS BW-16D1HT Adapter: 1 ID: 0

Read mode : Secure
Utilize accurate stream : Yes
Defeat audio cache : Yes
Make use of C2 pointers : No

Read offset correction : 6
Overread into Lead-In and Lead-Out : No
Fill up missing offset samples with silence : Yes
Delete leading and trailing silent blocks : No
Null samples used in CRC calculations : Yes
Used interface : Native Win32 interface for Win NT & 2000
Gap handling : Appended to previous track

Used output format : User Defined Encoder
Selected bitrate : 1024 kBit/s
Quality : High
Add ID3 tag : No
Command line compressor : C:\Program Files (x86)\Exact Audio Copy\Flac\flac.exe
Additional command line options : -8 -e -V -T "ARTIST=%artist%" -T "TITLE=%title%" -T "ALBUM=%albumtitle%" -T "DATE=%year%" -T "TRACKNUMBER=%tracknr%" -T "GENRE=%genre%" -T "PERFORMER=%albuminterpret%" -T "COMPOSER=%composer%" %haslyrics%–tag-from-file=LYRICS="%lyricsfile%"%haslyrics% -T "ALBUMARTIST=%albumartist%" -T "DISCNUMBER=%cdnumber%" -T "TOTALDISCS=%totalcds%" -T "TOTALTRACKS=%numtracks%" -T "COMMENT=%comment%" %source% -o %dest%


TOC of the extracted CD

Track | Start | Length | Start sector | End sector
––––––––––––––––––––––––––––-
1 | 0:00.00 | 4:26.45 | 0 | 19994
2 | 4:26.45 | 4:49.12 | 19995 | 41681
3 | 9:15.57 | 6:07.23 | 41682 | 69229
4 | 15:23.05 | 5:29.26 | 69230 | 93930
5 | 20:52.31 | 5:57.34 | 93931 | 120739
6 | 26:49.65 | 2:43.42 | 120740 | 133006
7 | 29:33.32 | 7:44.54 | 133007 | 167860
8 | 37:18.11 | 5:20.11 | 167861 | 191871
9 | 42:38.22 | 3:39.45 | 191872 | 208341
10 | 46:17.67 | 4:03.18 | 208342 | 226584
11 | 50:21.10 | 6:12.01 | 226585 | 254485


Track 1

Filename K:\Musique\Waed Bouhassiyn - Safar, les âmes retrouvées\01 - Track01.wav

Pre-gap length 0:00:02.00

Peak level 63.9 %
Extraction speed 1.5 X
Track quality 99.9 %
Test CRC 5A803ABD
Copy CRC 5A803ABD
Track not present in AccurateRip database
Copy OK

Track 2

Filename K:\Musique\Waed Bouhassiyn - Safar, les âmes retrouvées\02 - Track02.wav

Peak level 80.6 %
Extraction speed 1.8 X
Track quality 99.9 %
Test CRC DBA1D49D
Copy CRC DBA1D49D
Track not present in AccurateRip database
Copy OK

Track 3

Filename K:\Musique\Waed Bouhassiyn - Safar, les âmes retrouvées\03 - Track03.wav

Peak level 74.9 %
Extraction speed 2.6 X
Track quality 100.0 %
Test CRC 552B8E81
Copy CRC 552B8E81
Track not present in AccurateRip database
Copy OK

Track 4

Filename K:\Musique\Waed Bouhassiyn - Safar, les âmes retrouvées\04 - Track04.wav

Peak level 73.6 %
Extraction speed 2.2 X
Track quality 99.9 %
Test CRC D3DF53B9
Copy CRC D3DF53B9
Track not present in AccurateRip database
Copy OK

Track 5

Filename K:\Musique\Waed Bouhassiyn - Safar, les âmes retrouvées\05 - Track05.wav

Peak level 93.0 %
Extraction speed 3.0 X
Track quality 100.0 %
Test CRC 255B70CC
Copy CRC 255B70CC
Track not present in AccurateRip database
Copy OK

Track 6

Filename K:\Musique\Waed Bouhassiyn - Safar, les âmes retrouvées\06 - Track06.wav

Peak level 93.0 %
Extraction speed 3.0 X
Track quality 100.0 %
Test CRC 0CDE38F7
Copy CRC 0CDE38F7
Track not present in AccurateRip database
Copy OK

Track 7

Filename K:\Musique\Waed Bouhassiyn - Safar, les âmes retrouvées\07 - Track07.wav

Peak level 36.8 %
Extraction speed 3.6 X
Track quality 100.0 %
Test CRC 07BC460C
Copy CRC 07BC460C
Track not present in AccurateRip database
Copy OK

Track 8

Filename K:\Musique\Waed Bouhassiyn - Safar, les âmes retrouvées\08 - Track08.wav

Peak level 92.9 %
Extraction speed 3.7 X
Track quality 100.0 %
Test CRC 2A6EDF34
Copy CRC 2A6EDF34
Track not present in AccurateRip database
Copy OK

Track 9

Filename K:\Musique\Waed Bouhassiyn - Safar, les âmes retrouvées\09 - Track09.wav

Peak level 71.1 %
Extraction speed 3.6 X
Track quality 100.0 %
Test CRC BCDA6809
Copy CRC BCDA6809
Track not present in AccurateRip database
Copy OK

Track 10

Filename K:\Musique\Waed Bouhassiyn - Safar, les âmes retrouvées\10 - Track10.wav

Peak level 92.9 %
Extraction speed 3.8 X
Track quality 100.0 %
Test CRC D8FDBACA
Copy CRC D8FDBACA
Track not present in AccurateRip database
Copy OK

Track 11

Filename K:\Musique\Waed Bouhassiyn - Safar, les âmes retrouvées\11 - Track11.wav

Peak level 89.1 %
Extraction speed 4.1 X
Track quality 100.0 %
Test CRC C6A9CCB9
Copy CRC C6A9CCB9
Track not present in AccurateRip database
Copy OK


None of the tracks are present in the AccurateRip database

No errors occurred

End of status report

–– CUETools DB Plugin V2.1.6

[CTDB TOCID: BdoM5RE8G5oUelCvUTQOw6XPkNg-] disk not present in database
Submit result: BdoM5RE8G5oUelCvUTQOw6XPkNg- has been uploaded


==== Log checksum EA03CA655927720E308DE6CD6E5B941A6A07FFE52470FD646696F676A9FAD0FB ====