Subcategories

Werner Müller - Salutes The Kings Of Swing (1985)

Posted By: Domestos
Werner Müller - Salutes The Kings Of Swing (1985)

Werner Müller - Salutes The Kings Of Swing (1985)
EAC Rip | FLAC (tracks+.cue, log) ~ 317.30 Mb | 53:22 | Scans included
Big Band, Swing | Country: West Germany | Label: Teldec - 8.26145

Werner Müller (2. August 1920 in Berlin; 28. Dezember 1998 in Köln) war ein deutscher Autor, Komponist, Dirigent, Arrangeur und Orchesterleiter. Eigentlich wollte Müller „Afrikaforscher“ werden, ersatzweise auch Mediziner. Sein Vater sorgte jedoch dafür, dass er eine Musikausbildung erhielt. Klavier und Geige waren die ersten Instrumente Müllers und mit 10 Jahren trat er bereits als Solist mit einem Violinkonzert von Mozart auf. 1936 ging Müller auf die Militärmusikschule in Bückeburg. Dort lernte er auch noch Posaune. Während des Wehrdienstes kam Müller in ein Musikcorps, in dem auch der Geiger Helmut Zacharias diente. In amerikanischer Kriegsgefangenschaft machte Werner Müller begeistert Bekanntschaft mit dem Swing.

1946 lernte Müller mit dem Orchester Kurt Widmann in Berlin die wohl „heißeste“ Band Berlins kennen. Noch nicht ganz 30 Jahre alt, übernahm Müller 1949 das damals neu aufgestellte Tanzorchester des RIAS Berlin, zu dessen Erfolgsrezept dank Werner Müller bald die Formel „Swing mit viel String“ gehörte. Zu den Instrumentalisten des RIAS Tanzorchesters gehörten renommierte Musiker wie Klarinettist Rolf Kühn, Baritonsaxophonist Helmut Brandt, Pianist Fritz Schulz-Reichel oder auch Gitarrist Arno Flor.

Für das „viel String“ war zuständig der Konzertmeister des RIAS-Tanzorchesters Hans-Georg Arlt mit 18 Streichern. Die weitere Zusammenstellung des Orchesters, unter anderem mit vier Trompeten, vier Posaunen, fünf Saxophonen und vier Rhythmusinstrumenten, verlieh den Aufnahmen einen unverwechselbaren Klang, der auch heute noch die Zuhörer fasziniert.

In den 1950er- und 1960er Jahren kannte jeder Kinobesucher Müllers Titel „Sport und Musik“ aus der Sportberichterstattung in der Wochenschau. Ein Welterfolg wurde Mitte der 1950er Jahre sein Arrangement von „Malagueña,“ komponiert ca. 1928 von dem Kubaner Ernesto Lecuona, in der Vokalversion mit Caterina Valente. Voller Stolz benannte Müller dann auch seine eigene Motoryacht nach diesem Titel. Müller verhalf als Produzent vielen Gesangssolisten der Nachkriegsjahre zu Starruhm, wie Rita Paul, Mona Baptiste oder auch Bully Buhlan. Aus Müllers Feder stammt die Titelmelodie der ARD Sportschau Topsy, welche ursprünglich als B-Seite der Single Schaufenster Deutschland veröffentlicht wurde.

Nach 18 Jahren in Berlin wechselte Müller 1967 über nach Köln, übernahm dort das WDR-Tanzorchester und war damit auch in vielen Fernsehshows zu sehen. Im Laufe der Zeit entstanden Dutzende von Schallplatten mit der Bezeichnung „Orchester Werner Müller“, von denen es jedoch nur sehr wenige in die CD-Zeit geschafft haben. Wegen des Umlautes „ü“ in seinem Namen nannte sich Müller für Plattenveröffentlichungen im Ausland dort auch „Ricardo Santos“. Erfolgreich wurden seine vielen Tango-Einspielungen und Instrumentaltitel wie „Baia“ von Ary Barroso oder „Siboney“ und „Malagueña“ von Ernesto Lecuona sowie viele weitere Titel.

Werner Müller war als RIAS- und WDR-Tanzorchesterchef vielfach als musikalischer Leiter für Sendungen von Hans Rosenthal verantwortlich: „Spaß muß sein“, „Allein gegen alle“, u.a. Auf dem Bildschirm produzierte er Anfang der 1960er Jahre die legendäre Sendereihe „Werner Müllers Schlager-Magazin“ (NDR/RIAS-Produktion) mit dem Moderator Harald Juhnke. Werner Müllers Komposition "Blende auf" wurde während 42 Jahren täglich als Kennmelodie in der beliebten Sendung "Autofahrer unterwegs" von Radio Wien (ORF) verwendet.

Auch als Buchautor konnte Werner Müller Erfolge verzeichnen, so 1983 mit seinem Polit-Thriller Gold für tausend Jahre (Goldmann Verlag), dem noch drei weitere Thriller folgen sollten.

Track List:
1. Opus I (Oliver) - 2:59
2. Take The 'A' Train (Strayhorn) - 3:57
3. I've Got My Love To Keep Me Warm (Berlin) - 2:55
4. On The Sunny Side Of The Street (McHugh) - 3:04
5. Skyliner (Barnet) - 2:59
6. Leap Frog (Corday, Garland) - 2:39
7. Don't Be That Way (Goodman, Edgar, Parish) - 3:03
8. Goody Goody (Mercer, Malneck) - 2:38
9. Lovers Leap (Saro) - 3:15
10. Trumpet Blues (James, Mathias) - 2:53
11. Alexander's Ragime Band (Berlin) - 3:02
12. C-Jam Blues (Ellington) - 3:14
13. St. Louis Blues-March (Handy) - 4:09
14. Tuxedo Junction (Hawkins) - 3:11
15. Johnson Rag (Hall, Kleinkauf, Lawrence) - 2:57
16. Pennsylvania 6-5-000 (Gray) - 3:13
17. Flying Home (Goodman, Hampton) - 2:29

Werner Müller - Salutes The Kings Of Swing (1985)

Exact Audio Copy V1.3 from 2. September 2016

EAC extraction logfile from 10. February 2018, 11:17

Werner Muller / Salutes The Kings Of Swing

Used drive : HL-DT-STDVDRAM GSA-T50N Adapter: 1 ID: 0

Read mode : Secure
Utilize accurate stream : Yes
Defeat audio cache : Yes
Make use of C2 pointers : No

Read offset correction : 667
Overread into Lead-In and Lead-Out : No
Fill up missing offset samples with silence : Yes
Delete leading and trailing silent blocks : No
Null samples used in CRC calculations : Yes
Used interface : Native Win32 interface for Win NT & 2000
Gap handling : Appended to previous track

Used output format : User Defined Encoder
Selected bitrate : 1024 kBit/s
Quality : High
Add ID3 tag : No
Command line compressor : C:\Program Files\Exact Audio Copy\Flac\flac.exe
Additional command line options : -V -8 -T "Genre=%genre%" -T "Artist=%artist%" -T "Title=%title%" -T "Album=%albumtitle%" -T "Date=%year%" -T "Tracknumber=%tracknr%" %source% -o %dest%

TOC of the extracted CD

Track | Start | Length | Start sector | End sector
––––––––––––––––––––––––––––-
1 | 0:00.32 | 3:01.43 | 32 | 13649
2 | 3:02.00 | 3:59.52 | 13650 | 31626
3 | 7:01.52 | 2:57.65 | 31627 | 44966
4 | 9:59.42 | 3:06.73 | 44967 | 58989
5 | 13:06.40 | 3:01.55 | 58990 | 72619
6 | 16:08.20 | 2:40.57 | 72620 | 84676
7 | 18:49.02 | 3:06.30 | 84677 | 98656
8 | 21:55.32 | 2:40.55 | 98657 | 110711
9 | 24:36.12 | 3:16.73 | 110712 | 125484
10 | 27:53.10 | 2:55.72 | 125485 | 138681
11 | 30:49.07 | 3:04.68 | 138682 | 152549
12 | 33:54.00 | 3:18.00 | 152550 | 167399
13 | 37:12.00 | 4:13.25 | 167400 | 186399
14 | 41:25.25 | 3:14.42 | 186400 | 200991
15 | 44:39.67 | 2:57.58 | 200992 | 214324
16 | 47:37.50 | 3:16.02 | 214325 | 229026
17 | 50:53.52 | 2:29.13 | 229027 | 240214

Track 1

Filename C:\MG rips\Werner Muller - Salutes The Kings Of Swing - 1985 (Teldec) [FLAC]\01 - Opus I.wav

Pre-gap length 0:00:02.32

Peak level 91.2 %
Extraction speed 1.9 X
Track quality 99.9 %
Test CRC 6768721D
Copy CRC 6768721D
Accurately ripped (confidence 1) [9626303D] (AR v2)
Copy OK

Track 2

Filename C:\MG rips\Werner Muller - Salutes The Kings Of Swing - 1985 (Teldec) [FLAC]\02 - Take The 'A' Train.wav

Peak level 80.0 %
Extraction speed 2.3 X
Track quality 99.9 %
Test CRC B4394ED7
Copy CRC B4394ED7
Accurately ripped (confidence 1) [EECBB5FC] (AR v2)
Copy OK

Track 3

Filename C:\MG rips\Werner Muller - Salutes The Kings Of Swing - 1985 (Teldec) [FLAC]\03 - I've Got My Love To Keep Me Warm.wav

Pre-gap length 0:00:02.10

Peak level 84.4 %
Extraction speed 2.6 X
Track quality 100.0 %
Test CRC A250A73B
Copy CRC A250A73B
Accurately ripped (confidence 1) [2552CA0C] (AR v2)
Copy OK

Track 4

Filename C:\MG rips\Werner Muller - Salutes The Kings Of Swing - 1985 (Teldec) [FLAC]\04 - On The Sunny Side Of The Street.wav

Pre-gap length 0:00:01.70

Peak level 91.2 %
Extraction speed 2.9 X
Track quality 100.0 %
Test CRC A66A3D60
Copy CRC A66A3D60
Accurately ripped (confidence 1) [2A0F2792] (AR v2)
Copy OK

Track 5

Filename C:\MG rips\Werner Muller - Salutes The Kings Of Swing - 1985 (Teldec) [FLAC]\05 - Skyliner.wav

Pre-gap length 0:00:02.43

Peak level 83.4 %
Extraction speed 3.0 X
Track quality 100.0 %
Test CRC 95269D0A
Copy CRC 95269D0A
Accurately ripped (confidence 1) [A02CB85B] (AR v2)
Copy OK

Track 6

Filename C:\MG rips\Werner Muller - Salutes The Kings Of Swing - 1985 (Teldec) [FLAC]\06 - Leap Frog.wav

Pre-gap length 0:00:01.56

Peak level 91.2 %
Extraction speed 3.1 X
Track quality 100.0 %
Test CRC 459056DB
Copy CRC 459056DB
Accurately ripped (confidence 1) [11ED2728] (AR v2)
Copy OK

Track 7

Filename C:\MG rips\Werner Muller - Salutes The Kings Of Swing - 1985 (Teldec) [FLAC]\07 - Don't Be That Way.wav

Peak level 91.2 %
Extraction speed 2.3 X
Track quality 99.8 %
Test CRC A0FEC4D2
Copy CRC 64FDF287
Cannot be verified as accurate (confidence 1) [3CCEE4AB], AccurateRip returned [2F774E92] (AR v2)
Copy OK

Track 8

Filename C:\MG rips\Werner Muller - Salutes The Kings Of Swing - 1985 (Teldec) [FLAC]\08 - Goody Goody.wav

Peak level 89.7 %
Extraction speed 3.3 X
Track quality 100.0 %
Test CRC 58637BEE
Copy CRC 58637BEE
Accurately ripped (confidence 1) [85E8AA48] (AR v2)
Copy OK

Track 9

Filename C:\MG rips\Werner Muller - Salutes The Kings Of Swing - 1985 (Teldec) [FLAC]\09 - Lovers Leap.wav

Peak level 90.5 %
Extraction speed 3.6 X
Track quality 100.0 %
Test CRC E330B296
Copy CRC E330B296
Accurately ripped (confidence 1) [B15DF38D] (AR v2)
Copy OK

Track 10

Filename C:\MG rips\Werner Muller - Salutes The Kings Of Swing - 1985 (Teldec) [FLAC]\10 - Trumpet Blues.wav

Peak level 87.6 %
Extraction speed 3.0 X
Track quality 99.9 %
Test CRC 98CB383C
Copy CRC 98CB383C
Accurately ripped (confidence 1) [019750CD] (AR v2)
Copy OK

Track 11

Filename C:\MG rips\Werner Muller - Salutes The Kings Of Swing - 1985 (Teldec) [FLAC]\11 - Alexander's Ragtime Band.wav

Peak level 91.2 %
Extraction speed 3.2 X
Track quality 99.9 %
Test CRC BF9FE1BE
Copy CRC BF9FE1BE
Accurately ripped (confidence 1) [69616E31] (AR v2)
Copy OK

Track 12

Filename C:\MG rips\Werner Muller - Salutes The Kings Of Swing - 1985 (Teldec) [FLAC]\12 - C-Jam Blues.wav

Peak level 91.2 %
Extraction speed 4.0 X
Track quality 100.0 %
Test CRC F4CFC746
Copy CRC F4CFC746
Accurately ripped (confidence 1) [F7E7EE2C] (AR v2)
Copy OK

Track 13

Filename C:\MG rips\Werner Muller - Salutes The Kings Of Swing - 1985 (Teldec) [FLAC]\13 - St. Louis Blues-March.wav

Peak level 91.2 %
Extraction speed 4.2 X
Track quality 100.0 %
Test CRC CA47A1D5
Copy CRC CA47A1D5
Accurately ripped (confidence 1) [1F3D4103] (AR v2)
Copy OK

Track 14

Filename C:\MG rips\Werner Muller - Salutes The Kings Of Swing - 1985 (Teldec) [FLAC]\14 - Tuxedo Junction.wav

Peak level 91.1 %
Extraction speed 3.6 X
Track quality 99.9 %
Test CRC A9170265
Copy CRC A9170265
Accurately ripped (confidence 1) [4FD015C5] (AR v2)
Copy OK

Track 15

Filename C:\MG rips\Werner Muller - Salutes The Kings Of Swing - 1985 (Teldec) [FLAC]\15 - Johnson Rag.wav

Peak level 91.1 %
Extraction speed 4.2 X
Track quality 100.0 %
Test CRC E9F97137
Copy CRC E9F97137
Accurately ripped (confidence 1) [D104619A] (AR v2)
Copy OK

Track 16

Filename C:\MG rips\Werner Muller - Salutes The Kings Of Swing - 1985 (Teldec) [FLAC]\16 - Pennsylvannia 6-5-000.wav

Peak level 91.2 %
Extraction speed 4.4 X
Track quality 100.0 %
Test CRC 5A9F61A4
Copy CRC 5A9F61A4
Accurately ripped (confidence 1) [1DE1F3BB] (AR v2)
Copy OK

Track 17

Filename C:\MG rips\Werner Muller - Salutes The Kings Of Swing - 1985 (Teldec) [FLAC]\17 - Flying Home.wav

Peak level 90.4 %
Extraction speed 4.3 X
Track quality 100.0 %
Test CRC B1191E43
Copy CRC B1191E43
Accurately ripped (confidence 1) [58D6B1DE] (AR v2)
Copy OK

16 track(s) accurately ripped
1 track(s) could not be verified as accurate

Some tracks could not be verified as accurate

No errors occurred

End of status report

==== Log checksum 1E183E055AC81A9CA65E56AB5145BF729BF6E1B8A4A886B6698BC8B38E056CBC ====

All thanks go to the Musicgate

More Music in My Blog
Follow My RSS Channel