Tags
Language
Tags

William Parker - Migration of Silence Into and Out of the Tone World (2021)

Posted By: delpotro
William Parker - Migration of Silence Into and Out of the Tone World (2021)

William Parker - Migration of Silence Into and Out of the Tone World (2021)
EAC Rip | FLAC (tracks+log+.cue) | Covers included | 09:57:30 | 3,34 Gb
Avant-Garde Jazz, Vocal Jazz | Label: AUM Fidelity

That William Parker is a bassist, composer and bandleader of extraordinary spirit and imaginative drive is common knowledge among any with an interest in the progressive jazz scene of the past 25 years or more. What’s become increasingly apparent, though, is Parker’s stature as a visionary of sound and song – an artist of melody and poetry who works beyond category, to use the Ellingtonian phrase. The latest multi-disc boxed set from Centering Records/AUM Fidelity devoted to Parker’s expansive creativity underscores his virtually peerless achievement in recent years.

Migration of Silence Into and Out of the Tone World (Volumes 1–10) is a 10-album collection of vocal and instrumental suites all recorded expressly for this set between late 2018 and early 2020, with women’s voices at its core. This is music as empathetic as it is intrepid, as philosophical as it is visceral, as resolutely modernist as it is attuned to tradition. Parker’s art not only draws from the deepest well of African-American culture; it breathes in inspiration from across the globe, with sounds drawn from Africa, Asia and Indonesia as well as Europe and the Americas; there is free improvisation and re-imagined sonic collage; there are album-length explorations of solo piano and solo voice, along with string ensembles and ancient wind instruments. There are dedications to jazz heroes, Native Americans and Mexican migrants, plus tributes to the great African-American culture of Harlem and the mix of passion and compassion Parker found in vintage Italian cinema. Migration of Silence Into and Out of The Tone World conjures a vast world of music and feeling, and its creation is a feat that ranks with that of the most ambitious talents in any genre.
Tracklist:
1. Listen [Vol. 1: BLUE LIMELIGHT] (01:26)
2. Cosmic Funk (04:24)
3. I'd Rather Be (03:51)
4. A Great Day to be Dead (06:10)
5. Jenny's Interlude (02:28)
6. Blue Limelight (06:17)
7. Bennie's Tune (07:53)
8. Recall (01:21)
9. Kachina Song (03:19)
10. All I Ever Want (02:20)
11. Where the Angels Live (02:27)
12. Old Tears (05:20)
13. Malachi's Mode [Vol. 2: CHILD OF SOUND] (05:00)
14. Malcolm's Smile (04:00)
15. This Sweet Land (03:50)
16. The Golden Light (Hymn) (03:52)
17. Mexico (04:44)
18. Broken Promises (04:56)
19. Child of Sound (05:16)
20. Sky Falling (04:53)
21. Adobe House (04:28)
22. Rez Sunset (00:37)
23. Trail of Tears I (01:23)
24. Trail of Tears II (04:47)
25. Rez Sunrise (05:53)
26. Ascending Earth (05:05)
27. Baldwin [Vol. 3: THE MAJESTY OF JAH] (08:17)
28. The Majesty of Jah (08:21)
29. Freedom (08:57)
30. Sun Song (06:50)
31. Numbers (06:30)
32. Letter To A Resurrected Slave Owner (04:53)
33. Entire Universe [Vol. 4: CHEOPS] (13:36)
34. Cheops (13:52)
35. The Map Is Precise (08:03)
36. If We Play Soft Enough (22:17)
37. Harriott (12:51)
38. Dancing at the Savoy [Vol. 5: HARLEM SPEAKS] (04:45)
39. Don't Sell My Soul (11:53)
40. Harlem Dances (11:38)
41. Harlem Speaks (07:17)
42. Paintings in the Sky (10:24)
43. Shutters as Windows (18:17)
44. Tilted Mirror [Vol. 6: MEXICO] (27:12)
45. Mexico (17:11)
46. The Bleeding Tree (11:54)
47. It Is for You (09:55)
48. Song to Lift Sadness (Morning) [Vol. 7: AFTERNOON POEM] (02:21)
49. The Sky is Always Beautiful (03:24)
50. Morning Bird (03:37)
51. Rocket Man (02:22)
52. Essence Calling Out (05:41)
53. Afternoon Poem (01:42)
54. First Vision (00:26)
55. Green and Brown (02:21)
56. I Believe (00:58)
57. I Will Die for You (03:06)
58. Song for Patricia (01:27)
59. My Cup (02:24)
60. Silent Whispers (03:27)
61. It Would Never Be Long Enough (03:08)
62. Song to Lift Sadness (Evening) (02:25)
63. Cloud And Sea Fading As Rain Falls (07:24)
64. Visconti [Vol. 8: LIGHTS IN THE RAIN] (10:25)
65. Fellini (10:45)
66. Pasolini (06:07)
67. Leone (04:51)
68. De Sica (08:36)
69. Rossellini (09:06)
70. Gospel (05:12)
71. Milano (02:28)
72. Lights in the Rain (02:41)
73. Antonioni (06:03)
74. The Elders at the Edge of the World part 1 [Vol. 9: THE FASTEST TRAIN] (04:07)
75. Cultivation (05:11)
76. Deep Spirit (02:18)
77. Family Voice (05:06)
78. Listen to the Sky (05:13)
79. Sacred Prayers (05:10)
80. Host for the Anointed (02:21)
81. Bamboo Village (04:42)
82. Blessed (04:57)
83. The Flute Reaches Out (04:00)
84. The World's Fastest Train (03:44)
85. Joyous and Delightful (06:47)
86. The Elders at the Edge of the World part 2 (07:45)
87. Charcoal Paragraphs [Vol. 10: MANZANAR] (15:18)
88. Khaen (20:23)
89. Lakota Song (07:01)
90. Manzanar (08:49)
91. On Being Native (21:16)

Exact Audio Copy V1.6 from 23. October 2020

EAC extraction logfile from 20. July 2021, 16:11

William Parker / Migration of Silence Into and Out of the Tone World

Used drive : HL-DT-STBD-RE WH16NS40 Adapter: 1 ID: 0

Read mode : Secure
Utilize accurate stream : Yes
Defeat audio cache : Yes
Make use of C2 pointers : No

Read offset correction : 6
Overread into Lead-In and Lead-Out : No
Fill up missing offset samples with silence : Yes
Delete leading and trailing silent blocks : No
Null samples used in CRC calculations : Yes
Used interface : Native Win32 interface for Win NT & 2000
Gap handling : Appended to previous track

Used output format : User Defined Encoder
Selected bitrate : 768 kBit/s
Quality : High
Add ID3 tag : No
Command line compressor : C:\Program Files (x86)\Exact Audio Copy\FLAC\FLAC.EXE
Additional command line options : -6 -V -T "ARTIST=%artist%" -T "TITLE=%title%" -T "ALBUM=%albumtitle%" -T "DATE=%year%" -T "TRACKNUMBER=%tracknr%" -T "GENRE=%genre%" -T "COMMENT=%comment%" -T "BAND=%albuminterpret%" -T "ALBUMARTIST=%albuminterpret%" -T "COMPOSER=%composer%" %haslyrics%–tag-from-file=LYRICS="%lyricsfile%"%haslyrics% -T "DISCNUMBER=%cdnumber%" -T "TOTALDISCS=%totalcds%" -T "TOTALTRACKS=%numtracks%" %hascover%–picture="%coverfile%"%hascover% %source% -o %dest%


TOC of the extracted CD

Track | Start | Length | Start sector | End sector
––––––––––––––––––––––––––––-
1 | 0:00.00 | 1:28.02 | 0 | 6601
2 | 1:28.02 | 4:24.32 | 6602 | 26433
3 | 5:52.34 | 3:51.28 | 26434 | 43786
4 | 9:43.62 | 6:09.53 | 43787 | 71514
5 | 15:53.40 | 2:28.05 | 71515 | 82619
6 | 18:21.45 | 6:17.06 | 82620 | 110900
7 | 24:38.51 | 7:53.13 | 110901 | 146388
8 | 32:31.64 | 1:20.63 | 146389 | 152451
9 | 33:52.52 | 3:18.59 | 152452 | 167360
10 | 37:11.36 | 2:20.16 | 167361 | 177876
11 | 39:31.52 | 2:27.21 | 177877 | 188922
12 | 41:58.73 | 5:17.62 | 188923 | 212759


Track 1

Filename C:\Users\Aidan\Music\wp\William Parker\Migration of Silence Into and Out of the Tone World\01 Listen.wav

Pre-gap length 0:00:02.00

Peak level 87.4 %
Extraction speed 3.5 X
Track quality 100.0 %
Test CRC A43E5424
Copy CRC A43E5424
Accurately ripped (confidence 2) [7DB1B6F5] (AR v2)
Copy OK

Track 2

Filename C:\Users\Aidan\Music\wp\William Parker\Migration of Silence Into and Out of the Tone World\02 Cosmic Funk.wav

Pre-gap length 0:00:02.00

Peak level 100.0 %
Extraction speed 4.7 X
Track quality 100.0 %
Test CRC 896466AF
Copy CRC 896466AF
Accurately ripped (confidence 2) [07BBB949] (AR v2)
Copy OK

Track 3

Filename C:\Users\Aidan\Music\wp\William Parker\Migration of Silence Into and Out of the Tone World\03 I'd Rather Be.wav

Pre-gap length 0:00:02.00

Peak level 100.0 %
Extraction speed 4.2 X
Track quality 99.9 %
Test CRC 88372D7E
Copy CRC 88372D7E
Accurately ripped (confidence 2) [AB7483A5] (AR v2)
Copy OK

Track 4

Filename C:\Users\Aidan\Music\wp\William Parker\Migration of Silence Into and Out of the Tone World\04 A Great Day to be Dead.wav

Pre-gap length 0:00:02.00

Peak level 100.0 %
Extraction speed 6.0 X
Track quality 100.0 %
Test CRC 87B5A31C
Copy CRC 87B5A31C
Accurately ripped (confidence 2) [5484F2DD] (AR v2)
Copy OK

Track 5

Filename C:\Users\Aidan\Music\wp\William Parker\Migration of Silence Into and Out of the Tone World\05 Jenny's Interlude.wav

Pre-gap length 0:00:02.00

Peak level 89.1 %
Extraction speed 4.3 X
Track quality 99.9 %
Test CRC A4A64972
Copy CRC A4A64972
Accurately ripped (confidence 2) [0603F7E3] (AR v2)
Copy OK

Track 6

Filename C:\Users\Aidan\Music\wp\William Parker\Migration of Silence Into and Out of the Tone World\06 Blue Limelight.wav

Pre-gap length 0:00:02.00

Peak level 100.0 %
Extraction speed 6.8 X
Track quality 100.0 %
Test CRC 41418365
Copy CRC 41418365
Accurately ripped (confidence 2) [5492E1A7] (AR v2)
Copy OK

Track 7

Filename C:\Users\Aidan\Music\wp\William Parker\Migration of Silence Into and Out of the Tone World\07 Bennie's Tune.wav

Pre-gap length 0:00:02.00

Peak level 100.0 %
Extraction speed 7.5 X
Track quality 100.0 %
Test CRC 8CB3F3FE
Copy CRC 8CB3F3FE
Accurately ripped (confidence 2) [5D47F39D] (AR v2)
Copy OK

Track 8

Filename C:\Users\Aidan\Music\wp\William Parker\Migration of Silence Into and Out of the Tone World\08 Recall.wav

Pre-gap length 0:00:02.00

Peak level 100.0 %
Extraction speed 5.8 X
Track quality 100.0 %
Test CRC 8EF3033E
Copy CRC 8EF3033E
Accurately ripped (confidence 2) [B661F286] (AR v2)
Copy OK

Track 9

Filename C:\Users\Aidan\Music\wp\William Parker\Migration of Silence Into and Out of the Tone World\09 Kachina Song.wav

Pre-gap length 0:00:02.00

Peak level 94.9 %
Extraction speed 7.4 X
Track quality 100.0 %
Test CRC 03B09CB7
Copy CRC 03B09CB7
Accurately ripped (confidence 2) [83CBF1D3] (AR v2)
Copy OK

Track 10

Filename C:\Users\Aidan\Music\wp\William Parker\Migration of Silence Into and Out of the Tone World\10 All I Ever Want.wav

Pre-gap length 0:00:02.00

Peak level 100.0 %
Extraction speed 6.9 X
Track quality 100.0 %
Test CRC 957272F9
Copy CRC 957272F9
Accurately ripped (confidence 2) [122AFDF9] (AR v2)
Copy OK

Track 11

Filename C:\Users\Aidan\Music\wp\William Parker\Migration of Silence Into and Out of the Tone World\11 Where the Angels Live.wav

Pre-gap length 0:00:02.00

Peak level 87.8 %
Extraction speed 7.3 X
Track quality 100.0 %
Test CRC EFE23FA1
Copy CRC EFE23FA1
Accurately ripped (confidence 2) [D093CCC4] (AR v2)
Copy OK

Track 12

Filename C:\Users\Aidan\Music\wp\William Parker\Migration of Silence Into and Out of the Tone World\12 Old Tears.wav

Pre-gap length 0:00:02.00

Peak level 100.0 %
Extraction speed 8.5 X
Track quality 100.0 %
Test CRC 8CEC49E7
Copy CRC 8CEC49E7
Accurately ripped (confidence 2) [D1760B91] (AR v2)
Copy OK


All tracks accurately ripped

No errors occurred

End of status report

–– CUETools DB Plugin V2.1.6

[CTDB TOCID: iqnB30FNKeVfF6mn8eREpH248lQ-] found
Submit result: iqnB30FNKeVfF6mn8eREpH248lQ- has been confirmed
Track | CTDB Status
1 | (3/3) Accurately ripped
2 | (3/3) Accurately ripped
3 | (3/3) Accurately ripped
4 | (3/3) Accurately ripped
5 | (3/3) Accurately ripped
6 | (3/3) Accurately ripped
7 | (3/3) Accurately ripped
8 | (3/3) Accurately ripped
9 | (3/3) Accurately ripped
10 | (3/3) Accurately ripped
11 | (3/3) Accurately ripped
12 | (3/3) Accurately ripped


==== Log checksum 9D10EA021C152E654BC20FE63A43A73C3832D6137A7D9E0AC293AC3729862FBA ====
Exact Audio Copy V1.6 from 23. October 2020

EAC extraction logfile from 20. July 2021, 17:47

William Parker / Migration of Silence Into and Out of the Tone World

Used drive : HL-DT-STBD-RE WH16NS40 Adapter: 1 ID: 0

Read mode : Secure
Utilize accurate stream : Yes
Defeat audio cache : Yes
Make use of C2 pointers : No

Read offset correction : 6
Overread into Lead-In and Lead-Out : No
Fill up missing offset samples with silence : Yes
Delete leading and trailing silent blocks : No
Null samples used in CRC calculations : Yes
Used interface : Native Win32 interface for Win NT & 2000
Gap handling : Appended to previous track

Used output format : User Defined Encoder
Selected bitrate : 768 kBit/s
Quality : High
Add ID3 tag : No
Command line compressor : C:\Program Files (x86)\Exact Audio Copy\FLAC\FLAC.EXE
Additional command line options : -6 -V -T "ARTIST=%artist%" -T "TITLE=%title%" -T "ALBUM=%albumtitle%" -T "DATE=%year%" -T "TRACKNUMBER=%tracknr%" -T "GENRE=%genre%" -T "COMMENT=%comment%" -T "BAND=%albuminterpret%" -T "ALBUMARTIST=%albuminterpret%" -T "COMPOSER=%composer%" %haslyrics%–tag-from-file=LYRICS="%lyricsfile%"%haslyrics% -T "DISCNUMBER=%cdnumber%" -T "TOTALDISCS=%totalcds%" -T "TOTALTRACKS=%numtracks%" %hascover%–picture="%coverfile%"%hascover% %source% -o %dest%


TOC of the extracted CD

Track | Start | Length | Start sector | End sector
––––––––––––––––––––––––––––-
1 | 0:00.00 | 4:59.51 | 0 | 22475
2 | 4:59.51 | 4:00.09 | 22476 | 40484
3 | 8:59.60 | 3:50.11 | 40485 | 57745
4 | 12:49.71 | 3:52.15 | 57746 | 75160
5 | 16:42.11 | 4:43.42 | 75161 | 96427
6 | 21:25.53 | 4:55.52 | 96428 | 118604
7 | 26:21.30 | 5:15.58 | 118605 | 142287
8 | 31:37.13 | 4:53.15 | 142288 | 164277
9 | 36:30.28 | 4:27.61 | 164278 | 184363
10 | 40:58.14 | 0:36.69 | 184364 | 187132
11 | 41:35.08 | 1:23.21 | 187133 | 193378
12 | 42:58.29 | 4:46.51 | 193379 | 214879
13 | 47:45.05 | 5:55.35 | 214880 | 241539
14 | 53:40.40 | 5:03.10 | 241540 | 264274


Track 1

Filename C:\Users\Aidan\Music\wp\William Parker\New folder\William Parker\Migration of Silence Into and Out of the Tone World\01 Malachi's Mode.wav

Pre-gap length 0:00:02.00

Peak level 91.9 %
Extraction speed 1.0 X
Track quality 100.0 %
Test CRC F0DD0587
Copy CRC F0DD0587
Accurately ripped (confidence 2) [4918435C] (AR v2)
Copy OK

Track 2

Filename C:\Users\Aidan\Music\wp\William Parker\New folder\William Parker\Migration of Silence Into and Out of the Tone World\02 Malcolm's Smile.wav

Pre-gap length 0:00:02.00

Peak level 96.4 %
Extraction speed 1.1 X
Track quality 100.0 %
Test CRC BB3F6743
Copy CRC BB3F6743
Accurately ripped (confidence 2) [0F8479C9] (AR v2)
Copy OK

Track 3

Filename C:\Users\Aidan\Music\wp\William Parker\New folder\William Parker\Migration of Silence Into and Out of the Tone World\03 This Sweet Land.wav

Pre-gap length 0:00:02.00

Peak level 74.7 %
Extraction speed 1.2 X
Track quality 100.0 %
Test CRC 050A95DA
Copy CRC 050A95DA
Accurately ripped (confidence 2) [BC61E605] (AR v2)
Copy OK

Track 4

Filename C:\Users\Aidan\Music\wp\William Parker\New folder\William Parker\Migration of Silence Into and Out of the Tone World\04 The Golden Light (Hymn).wav

Pre-gap length 0:00:02.00

Peak level 100.0 %
Extraction speed 1.3 X
Track quality 100.0 %
Test CRC C1299BAB
Copy CRC C1299BAB
Accurately ripped (confidence 2) [E5A48AE4] (AR v2)
Copy OK

Track 5

Filename C:\Users\Aidan\Music\wp\William Parker\New folder\William Parker\Migration of Silence Into and Out of the Tone World\05 Mexico.wav

Pre-gap length 0:00:02.00

Peak level 91.9 %
Extraction speed 1.4 X
Track quality 100.0 %
Test CRC 15BA841B
Copy CRC 15BA841B
Accurately ripped (confidence 2) [327B05AA] (AR v2)
Copy OK

Track 6

Filename C:\Users\Aidan\Music\wp\William Parker\New folder\William Parker\Migration of Silence Into and Out of the Tone World\06 Broken Promises.wav

Pre-gap length 0:00:02.00

Peak level 99.2 %
Extraction speed 1.5 X
Track quality 100.0 %
Test CRC E6328A27
Copy CRC E6328A27
Accurately ripped (confidence 2) [7E6F56BC] (AR v2)
Copy OK

Track 7

Filename C:\Users\Aidan\Music\wp\William Parker\New folder\William Parker\Migration of Silence Into and Out of the Tone World\07 Child of Sound.wav

Pre-gap length 0:00:02.00

Peak level 93.6 %
Extraction speed 1.6 X
Track quality 100.0 %
Test CRC 8E7FA40B
Copy CRC 8E7FA40B
Accurately ripped (confidence 2) [6BA9B685] (AR v2)
Copy OK

Track 8

Filename C:\Users\Aidan\Music\wp\William Parker\New folder\William Parker\Migration of Silence Into and Out of the Tone World\08 Sky Falling.wav

Pre-gap length 0:00:02.00

Peak level 98.8 %
Extraction speed 1.7 X
Track quality 100.0 %
Test CRC F1DFDA9B
Copy CRC F1DFDA9B
Accurately ripped (confidence 2) [283E71BC] (AR v2)
Copy OK

Track 9

Filename C:\Users\Aidan\Music\wp\William Parker\New folder\William Parker\Migration of Silence Into and Out of the Tone World\09 Adobe House.wav

Pre-gap length 0:00:02.00

Peak level 100.0 %
Extraction speed 1.7 X
Track quality 100.0 %
Test CRC 666105AA
Copy CRC 666105AA
Accurately ripped (confidence 2) [7B601B93] (AR v2)
Copy OK

Track 10

Filename C:\Users\Aidan\Music\wp\William Parker\New folder\William Parker\Migration of Silence Into and Out of the Tone World\10 Rez Sunset.wav

Pre-gap length 0:00:02.00

Peak level 22.4 %
Extraction speed 1.0 X
Track quality 100.0 %
Test CRC F37F149E
Copy CRC F37F149E
Accurately ripped (confidence 2) [5E8C6691] (AR v2)
Copy OK

Track 11

Filename C:\Users\Aidan\Music\wp\William Parker\New folder\William Parker\Migration of Silence Into and Out of the Tone World\11 Trail of Tears I.wav

Pre-gap length 0:00:02.00

Peak level 44.7 %
Extraction speed 1.3 X
Track quality 100.0 %
Test CRC 061CDD78
Copy CRC 061CDD78
Accurately ripped (confidence 2) [44E3F849] (AR v2)
Copy OK

Track 12

Filename C:\Users\Aidan\Music\wp\William Parker\New folder\William Parker\Migration of Silence Into and Out of the Tone World\12 Trail of Tears II.wav

Pre-gap length 0:00:02.00

Peak level 93.7 %
Extraction speed 1.8 X
Track quality 100.0 %
Test CRC 4BAF4489
Copy CRC 4BAF4489
Accurately ripped (confidence 2) [AD3AFF1B] (AR v2)
Copy OK

Track 13

Filename C:\Users\Aidan\Music\wp\William Parker\New folder\William Parker\Migration of Silence Into and Out of the Tone World\13 Rez Sunrise.wav

Pre-gap length 0:00:02.00

Peak level 98.8 %
Extraction speed 1.9 X
Track quality 100.0 %
Test CRC 795691AC
Copy CRC 795691AC
Accurately ripped (confidence 2) [9DF9DA96] (AR v2)
Copy OK

Track 14

Filename C:\Users\Aidan\Music\wp\William Parker\New folder\William Parker\Migration of Silence Into and Out of the Tone World\14 Ascending Earth.wav

Pre-gap length 0:00:02.00

Peak level 100.0 %
Extraction speed 1.7 X
Track quality 99.9 %
Test CRC EBB79B02
Copy CRC EBB79B02
Accurately ripped (confidence 2) [BEB30F67] (AR v2)
Copy OK


All tracks accurately ripped

No errors occurred

End of status report

–– CUETools DB Plugin V2.1.6

[CTDB TOCID: Kstn7jEtCDIjx0EAY9BTa2_MMCQ-] found
Submit result: Kstn7jEtCDIjx0EAY9BTa2_MMCQ- has been confirmed
Track | CTDB Status
1 | (3/3) Accurately ripped
2 | (3/3) Accurately ripped
3 | (3/3) Accurately ripped
4 | (3/3) Accurately ripped
5 | (3/3) Accurately ripped
6 | (3/3) Accurately ripped
7 | (3/3) Accurately ripped
8 | (3/3) Accurately ripped
9 | (3/3) Accurately ripped
10 | (3/3) Accurately ripped
11 | (3/3) Accurately ripped
12 | (3/3) Accurately ripped
13 | (3/3) Accurately ripped
14 | (3/3) Accurately ripped


==== Log checksum D3891FDBB6D37F26CD94A539445D23401AC55B7BAF948174517D12A2FB1CC5E7 ====
Exact Audio Copy V1.6 from 23. October 2020

EAC extraction logfile from 20. July 2021, 19:01

William Parker / Migration of Silence Into and Out of the Tone World

Used drive : HL-DT-STBD-RE WH16NS40 Adapter: 1 ID: 0

Read mode : Secure
Utilize accurate stream : Yes
Defeat audio cache : Yes
Make use of C2 pointers : No

Read offset correction : 6
Overread into Lead-In and Lead-Out : No
Fill up missing offset samples with silence : Yes
Delete leading and trailing silent blocks : No
Null samples used in CRC calculations : Yes
Used interface : Native Win32 interface for Win NT & 2000
Gap handling : Appended to previous track

Used output format : User Defined Encoder
Selected bitrate : 768 kBit/s
Quality : High
Add ID3 tag : No
Command line compressor : C:\Program Files (x86)\Exact Audio Copy\FLAC\FLAC.EXE
Additional command line options : -6 -V -T "ARTIST=%artist%" -T "TITLE=%title%" -T "ALBUM=%albumtitle%" -T "DATE=%year%" -T "TRACKNUMBER=%tracknr%" -T "GENRE=%genre%" -T "COMMENT=%comment%" -T "BAND=%albuminterpret%" -T "ALBUMARTIST=%albuminterpret%" -T "COMPOSER=%composer%" %haslyrics%–tag-from-file=LYRICS="%lyricsfile%"%haslyrics% -T "DISCNUMBER=%cdnumber%" -T "TOTALDISCS=%totalcds%" -T "TOTALTRACKS=%numtracks%" %hascover%–picture="%coverfile%"%hascover% %source% -o %dest%


TOC of the extracted CD

Track | Start | Length | Start sector | End sector
––––––––––––––––––––––––––––-
1 | 0:00.00 | 8:16.56 | 0 | 37255
2 | 8:16.56 | 8:21.05 | 37256 | 74835
3 | 16:37.61 | 8:56.58 | 74836 | 115093
4 | 25:34.44 | 6:49.45 | 115094 | 145813
5 | 32:24.14 | 6:29.70 | 145814 | 175058
6 | 38:54.09 | 4:52.04 | 175059 | 196962


Track 1

Filename C:\Users\Aidan\Music\wp\William Parker\3\William Parker\Migration of Silence Into and Out of the Tone World\01 Baldwin.wav

Pre-gap length 0:00:02.00

Peak level 100.0 %
Extraction speed 1.1 X
Track quality 100.0 %
Test CRC 7D38342E
Copy CRC 7D38342E
Accurately ripped (confidence 2) [408D84C2] (AR v2)
Copy OK

Track 2

Filename C:\Users\Aidan\Music\wp\William Parker\3\William Parker\Migration of Silence Into and Out of the Tone World\02 The Majesty of Jah.wav

Pre-gap length 0:00:02.00

Peak level 100.0 %
Extraction speed 1.3 X
Track quality 100.0 %
Test CRC 3490105A
Copy CRC 3490105A
Accurately ripped (confidence 2) [806CE9B7] (AR v2)
Copy OK

Track 3

Filename C:\Users\Aidan\Music\wp\William Parker\3\William Parker\Migration of Silence Into and Out of the Tone World\03 Freedom.wav

Pre-gap length 0:00:02.00

Peak level 100.0 %
Extraction speed 1.5 X
Track quality 100.0 %
Test CRC 107C0F4D
Copy CRC 107C0F4D
Accurately ripped (confidence 2) [55D40F98] (AR v2)
Copy OK

Track 4

Filename C:\Users\Aidan\Music\wp\William Parker\3\William Parker\Migration of Silence Into and Out of the Tone World\04 Sun Song.wav

Pre-gap length 0:00:02.00

Peak level 100.0 %
Extraction speed 1.6 X
Track quality 100.0 %
Test CRC CEDA75FD
Copy CRC CEDA75FD
Accurately ripped (confidence 2) [454F2454] (AR v2)
Copy OK

Track 5

Filename C:\Users\Aidan\Music\wp\William Parker\3\William Parker\Migration of Silence Into and Out of the Tone World\05 Numbers.wav

Pre-gap length 0:00:02.00

Peak level 100.0 %
Extraction speed 1.7 X
Track quality 100.0 %
Test CRC 53CF298C
Copy CRC 53CF298C
Accurately ripped (confidence 2) [3CB1CC9B] (AR v2)
Copy OK

Track 6

Filename C:\Users\Aidan\Music\wp\William Parker\3\William Parker\Migration of Silence Into and Out of the Tone World\06 Letter To A Resurrected Slave Owner.wav

Pre-gap length 0:00:02.00

Peak level 100.0 %
Extraction speed 1.7 X
Track quality 100.0 %
Test CRC 0CC4EFA9
Copy CRC 0CC4EFA9
Accurately ripped (confidence 2) [FC56A1E1] (AR v2)
Copy OK


All tracks accurately ripped

No errors occurred

End of status report

–– CUETools DB Plugin V2.1.6

[CTDB TOCID: cfduRc1hojr23ujkMxMOt.AzmTo-] found
Submit result: cfduRc1hojr23ujkMxMOt.AzmTo- has been confirmed
Track | CTDB Status
1 | (2/2) Accurately ripped
2 | (2/2) Accurately ripped
3 | (2/2) Accurately ripped
4 | (2/2) Accurately ripped
5 | (2/2) Accurately ripped
6 | (2/2) Accurately ripped


==== Log checksum 834963AC7E34D6311B0DE0C231A769CCC3353EC1BF4A31C02FD260833B31E024 ====
Exact Audio Copy V1.6 from 23. October 2020

EAC extraction logfile from 20. July 2021, 19:22

William Parker / Migration of Silence Into and Out of the Tone World

Used drive : HL-DT-STBD-RE WH16NS40 Adapter: 1 ID: 0

Read mode : Secure
Utilize accurate stream : Yes
Defeat audio cache : Yes
Make use of C2 pointers : No

Read offset correction : 6
Overread into Lead-In and Lead-Out : No
Fill up missing offset samples with silence : Yes
Delete leading and trailing silent blocks : No
Null samples used in CRC calculations : Yes
Used interface : Native Win32 interface for Win NT & 2000
Gap handling : Appended to previous track

Used output format : User Defined Encoder
Selected bitrate : 768 kBit/s
Quality : High
Add ID3 tag : No
Command line compressor : C:\Program Files (x86)\Exact Audio Copy\FLAC\FLAC.EXE
Additional command line options : -6 -V -T "ARTIST=%artist%" -T "TITLE=%title%" -T "ALBUM=%albumtitle%" -T "DATE=%year%" -T "TRACKNUMBER=%tracknr%" -T "GENRE=%genre%" -T "COMMENT=%comment%" -T "BAND=%albuminterpret%" -T "ALBUMARTIST=%albuminterpret%" -T "COMPOSER=%composer%" %haslyrics%–tag-from-file=LYRICS="%lyricsfile%"%haslyrics% -T "DISCNUMBER=%cdnumber%" -T "TOTALDISCS=%totalcds%" -T "TOTALTRACKS=%numtracks%" %hascover%–picture="%coverfile%"%hascover% %source% -o %dest%


TOC of the extracted CD

Track | Start | Length | Start sector | End sector
––––––––––––––––––––––––––––-
1 | 0:00.00 | 13:36.25 | 0 | 61224
2 | 13:36.25 | 13:51.38 | 61225 | 123587
3 | 27:27.63 | 8:03.37 | 123588 | 159849
4 | 35:31.25 | 22:17.04 | 159850 | 260128
5 | 57:48.29 | 12:51.36 | 260129 | 317989


Track 1

Filename C:\Users\Aidan\Music\wp\William Parker\4\William Parker\Migration of Silence Into and Out of the Tone World\01 Entire Universe.wav

Pre-gap length 0:00:02.00

Peak level 100.0 %
Extraction speed 5.6 X
Track quality 100.0 %
Test CRC 048546F9
Copy CRC 048546F9
Accurately ripped (confidence 2) [EAC7FAAB] (AR v2)
Copy OK

Track 2

Filename C:\Users\Aidan\Music\wp\William Parker\4\William Parker\Migration of Silence Into and Out of the Tone World\02 Cheops.wav

Pre-gap length 0:00:02.00

Peak level 100.0 %
Extraction speed 7.0 X
Track quality 100.0 %
Test CRC 7CC6CBA0
Copy CRC 7CC6CBA0
Accurately ripped (confidence 2) [1AECAD29] (AR v2)
Copy OK

Track 3

Filename C:\Users\Aidan\Music\wp\William Parker\4\William Parker\Migration of Silence Into and Out of the Tone World\03 The Map Is Precise.wav

Pre-gap length 0:00:02.00

Peak level 100.0 %
Extraction speed 7.8 X
Track quality 100.0 %
Test CRC D89CDE6A
Copy CRC D89CDE6A
Accurately ripped (confidence 2) [DB0DE1D9] (AR v2)
Copy OK

Track 4

Filename C:\Users\Aidan\Music\wp\William Parker\4\William Parker\Migration of Silence Into and Out of the Tone World\04 If We Play Soft Enough.wav

Pre-gap length 0:00:02.00

Peak level 100.0 %
Extraction speed 9.2 X
Track quality 100.0 %
Test CRC 5115F02E
Copy CRC 5115F02E
Accurately ripped (confidence 2) [E2AA249E] (AR v2)
Copy OK

Track 5

Filename C:\Users\Aidan\Music\wp\William Parker\4\William Parker\Migration of Silence Into and Out of the Tone World\05 Harriott.wav

Pre-gap length 0:00:02.00

Peak level 100.0 %
Extraction speed 10.2 X
Track quality 100.0 %
Test CRC 54CFB596
Copy CRC 54CFB596
Accurately ripped (confidence 1) [0E8D6628] (AR v2)
Copy OK


All tracks accurately ripped

No errors occurred

End of status report

–– CUETools DB Plugin V2.1.6

[CTDB TOCID: Fh13lGVvU9CYEaeJgmFYi.Glj7g-] found
Submit result: Fh13lGVvU9CYEaeJgmFYi.Glj7g- has been confirmed
Track | CTDB Status
1 | (2/2) Accurately ripped
2 | (2/2) Accurately ripped
3 | (2/2) Accurately ripped
4 | (2/2) Accurately ripped
5 | (2/2) Accurately ripped


==== Log checksum 4DDB78D70AFF9D5D5622A6C28C783C0A84AFF8652DB1AE7343A9F8F27D081E02 ====
Exact Audio Copy V1.6 from 23. October 2020

EAC extraction logfile from 20. July 2021, 20:34

William Parker / Migration of Silence Into and Out of the Tone World

Used drive : HL-DT-STBD-RE WH16NS40 Adapter: 1 ID: 0

Read mode : Secure
Utilize accurate stream : Yes
Defeat audio cache : Yes
Make use of C2 pointers : No

Read offset correction : 6
Overread into Lead-In and Lead-Out : No
Fill up missing offset samples with silence : Yes
Delete leading and trailing silent blocks : No
Null samples used in CRC calculations : Yes
Used interface : Native Win32 interface for Win NT & 2000
Gap handling : Appended to previous track

Used output format : User Defined Encoder
Selected bitrate : 768 kBit/s
Quality : High
Add ID3 tag : No
Command line compressor : C:\Program Files (x86)\Exact Audio Copy\FLAC\FLAC.EXE
Additional command line options : -6 -V -T "ARTIST=%artist%" -T "TITLE=%title%" -T "ALBUM=%albumtitle%" -T "DATE=%year%" -T "TRACKNUMBER=%tracknr%" -T "GENRE=%genre%" -T "COMMENT=%comment%" -T "BAND=%albuminterpret%" -T "ALBUMARTIST=%albuminterpret%" -T "COMPOSER=%composer%" %haslyrics%–tag-from-file=LYRICS="%lyricsfile%"%haslyrics% -T "DISCNUMBER=%cdnumber%" -T "TOTALDISCS=%totalcds%" -T "TOTALTRACKS=%numtracks%" %hascover%–picture="%coverfile%"%hascover% %source% -o %dest%


TOC of the extracted CD

Track | Start | Length | Start sector | End sector
––––––––––––––––––––––––––––-
1 | 0:00.00 | 4:45.24 | 0 | 21398
2 | 4:45.24 | 11:53.22 | 21399 | 74895
3 | 16:38.46 | 11:37.53 | 74896 | 127223
4 | 28:16.24 | 7:17.18 | 127224 | 160016
5 | 35:33.42 | 10:23.44 | 160017 | 206785
6 | 45:57.11 | 18:17.18 | 206786 | 289078


Track 1

Filename C:\Users\Aidan\Music\wp\William Parker\5\William Parker\Migration of Silence Into and Out of the Tone World\01 Dancing at the Savoy.wav

Pre-gap length 0:00:02.00

Peak level 100.0 %
Extraction speed 1.1 X
Track quality 100.0 %
Test CRC 2CFEFD50
Copy CRC 2CFEFD50
Accurately ripped (confidence 2) [F85B61A3] (AR v2)
Copy OK

Track 2

Filename C:\Users\Aidan\Music\wp\William Parker\5\William Parker\Migration of Silence Into and Out of the Tone World\02 Don't Sell My Soul.wav

Pre-gap length 0:00:02.00

Peak level 100.0 %
Extraction speed 1.4 X
Track quality 100.0 %
Test CRC 148EBC27
Copy CRC 148EBC27
Accurately ripped (confidence 2) [58C5A8D4] (AR v2)
Copy OK

Track 3

Filename C:\Users\Aidan\Music\wp\William Parker\5\William Parker\Migration of Silence Into and Out of the Tone World\03 Harlem Dances.wav

Pre-gap length 0:00:02.00

Peak level 100.0 %
Extraction speed 1.7 X
Track quality 100.0 %
Test CRC 90E786A3
Copy CRC 90E786A3
Accurately ripped (confidence 2) [2763AE63] (AR v2)
Copy OK

Track 4

Filename C:\Users\Aidan\Music\wp\William Parker\5\William Parker\Migration of Silence Into and Out of the Tone World\04 Harlem Speaks.wav

Pre-gap length 0:00:02.00

Peak level 100.0 %
Extraction speed 1.8 X
Track quality 99.9 %
Test CRC 7E5281AA
Copy CRC 7E5281AA
Accurately ripped (confidence 2) [B53A7D25] (AR v2)
Copy OK

Track 5

Filename C:\Users\Aidan\Music\wp\William Parker\5\William Parker\Migration of Silence Into and Out of the Tone World\05 Paintings in the Sky.wav

Pre-gap length 0:00:02.00

Peak level 100.0 %
Extraction speed 2.1 X
Track quality 100.0 %
Test CRC D4871BFB
Copy CRC D4871BFB
Accurately ripped (confidence 2) [E50365CB] (AR v2)
Copy OK

Track 6

Filename C:\Users\Aidan\Music\wp\William Parker\5\William Parker\Migration of Silence Into and Out of the Tone World\06 Shutters as Windows.wav

Pre-gap length 0:00:02.00

Peak level 100.0 %
Extraction speed 2.3 X
Track quality 99.9 %
Test CRC FF55D86F
Copy CRC FF55D86F
Accurately ripped (confidence 2) [8D4EC666] (AR v2)
Copy OK


All tracks accurately ripped

No errors occurred

End of status report

–– CUETools DB Plugin V2.1.6

[CTDB TOCID: t4aF.XMOIrgC_QLbNc7imm1aJME-] found
Submit result: t4aF.XMOIrgC_QLbNc7imm1aJME- has been confirmed
Track | CTDB Status
1 | (2/2) Accurately ripped
2 | (2/2) Accurately ripped
3 | (2/2) Accurately ripped
4 | (2/2) Accurately ripped
5 | (2/2) Accurately ripped
6 | (2/2) Accurately ripped


==== Log checksum C024F442441C79751F299C676729AAA234B298751D8EBD70B3A42CD4B82C1831 ====
Exact Audio Copy V1.6 from 23. October 2020

EAC extraction logfile from 20. July 2021, 22:53

William Parker / Migration of Silence Into and Out of the Tone World

Used drive : HL-DT-STBD-RE WH16NS40 Adapter: 1 ID: 0

Read mode : Secure
Utilize accurate stream : Yes
Defeat audio cache : Yes
Make use of C2 pointers : No

Read offset correction : 6
Overread into Lead-In and Lead-Out : No
Fill up missing offset samples with silence : Yes
Delete leading and trailing silent blocks : No
Null samples used in CRC calculations : Yes
Used interface : Native Win32 interface for Win NT & 2000
Gap handling : Appended to previous track

Used output format : User Defined Encoder
Selected bitrate : 768 kBit/s
Quality : High
Add ID3 tag : No
Command line compressor : C:\Program Files (x86)\Exact Audio Copy\FLAC\FLAC.EXE
Additional command line options : -6 -V -T "ARTIST=%artist%" -T "TITLE=%title%" -T "ALBUM=%albumtitle%" -T "DATE=%year%" -T "TRACKNUMBER=%tracknr%" -T "GENRE=%genre%" -T "COMMENT=%comment%" -T "BAND=%albuminterpret%" -T "ALBUMARTIST=%albuminterpret%" -T "COMPOSER=%composer%" %haslyrics%–tag-from-file=LYRICS="%lyricsfile%"%haslyrics% -T "DISCNUMBER=%cdnumber%" -T "TOTALDISCS=%totalcds%" -T "TOTALTRACKS=%numtracks%" %hascover%–picture="%coverfile%"%hascover% %source% -o %dest%


TOC of the extracted CD

Track | Start | Length | Start sector | End sector
––––––––––––––––––––––––––––-
1 | 0:00.00 | 27:12.01 | 0 | 122400
2 | 27:12.01 | 17:11.01 | 122401 | 199726
3 | 44:23.02 | 11:54.14 | 199727 | 253290
4 | 56:17.16 | 9:55.25 | 253291 | 297940


Track 1

Filename C:\Users\Aidan\Music\wp\William Parker\6\William Parker\Migration of Silence Into and Out of the Tone World\01 Tilted Mirror.wav

Pre-gap length 0:00:02.00

Peak level 100.0 %
Extraction speed 1.5 X
Track quality 100.0 %
Test CRC 4D412896
Copy CRC 4D412896
Accurately ripped (confidence 2) [0506DA1F] (AR v2)
Copy OK

Track 2

Filename C:\Users\Aidan\Music\wp\William Parker\6\William Parker\Migration of Silence Into and Out of the Tone World\02 Mexico.wav

Pre-gap length 0:00:02.00

Peak level 100.0 %
Extraction speed 2.0 X
Track quality 100.0 %
Test CRC 59068E08
Copy CRC 59068E08
Accurately ripped (confidence 2) [5707F110] (AR v2)
Copy OK

Track 3

Filename C:\Users\Aidan\Music\wp\William Parker\6\William Parker\Migration of Silence Into and Out of the Tone World\03 The Bleeding Tree.wav

Pre-gap length 0:00:02.00

Peak level 100.0 %
Extraction speed 2.2 X
Track quality 100.0 %
Test CRC 6EF86403
Copy CRC 6EF86403
Accurately ripped (confidence 2) [48BB3DFB] (AR v2)
Copy OK

Track 4

Filename C:\Users\Aidan\Music\wp\William Parker\6\William Parker\Migration of Silence Into and Out of the Tone World\04 t Is for You.wav

Pre-gap length 0:00:02.00

Peak level 100.0 %
Extraction speed 2.4 X
Track quality 100.0 %
Test CRC 8FA8B7A0
Copy CRC 8FA8B7A0
Accurately ripped (confidence 2) [95B1E555] (AR v2)
Copy OK


All tracks accurately ripped

No errors occurred

End of status report

–– CUETools DB Plugin V2.1.6

[CTDB TOCID: l1qS1HBhudN6IpztnzFPXXSHzTI-] found
Submit result: l1qS1HBhudN6IpztnzFPXXSHzTI- has been confirmed
Track | CTDB Status
1 | (2/2) Accurately ripped
2 | (2/2) Accurately ripped
3 | (2/2) Accurately ripped
4 | (2/2) Accurately ripped


==== Log checksum 591C237A45577A31B191C613EE0EC6DFF0A5A4E5028659F3ACCAA294CC9FC353 ====
Exact Audio Copy V1.6 from 23. October 2020

EAC extraction logfile from 21. July 2021, 9:18

William Parker / Migration of Silence Into and Out of the Tone World

Used drive : HL-DT-STBD-RE WH16NS40 Adapter: 1 ID: 0

Read mode : Secure
Utilize accurate stream : Yes
Defeat audio cache : Yes
Make use of C2 pointers : No

Read offset correction : 6
Overread into Lead-In and Lead-Out : No
Fill up missing offset samples with silence : Yes
Delete leading and trailing silent blocks : No
Null samples used in CRC calculations : Yes
Used interface : Native Win32 interface for Win NT & 2000
Gap handling : Appended to previous track

Used output format : User Defined Encoder
Selected bitrate : 768 kBit/s
Quality : High
Add ID3 tag : No
Command line compressor : C:\Program Files (x86)\Exact Audio Copy\FLAC\FLAC.EXE
Additional command line options : -6 -V -T "ARTIST=%artist%" -T "TITLE=%title%" -T "ALBUM=%albumtitle%" -T "DATE=%year%" -T "TRACKNUMBER=%tracknr%" -T "GENRE=%genre%" -T "COMMENT=%comment%" -T "BAND=%albuminterpret%" -T "ALBUMARTIST=%albuminterpret%" -T "COMPOSER=%composer%" %haslyrics%–tag-from-file=LYRICS="%lyricsfile%"%haslyrics% -T "DISCNUMBER=%cdnumber%" -T "TOTALDISCS=%totalcds%" -T "TOTALTRACKS=%numtracks%" %hascover%–picture="%coverfile%"%hascover% %source% -o %dest%


TOC of the extracted CD

Track | Start | Length | Start sector | End sector
––––––––––––––––––––––––––––-
1 | 0:00.00 | 2:21.08 | 0 | 10582
2 | 2:21.08 | 3:23.66 | 10583 | 25873
3 | 5:44.74 | 3:37.22 | 25874 | 42170
4 | 9:22.21 | 2:21.61 | 42171 | 52806
5 | 11:44.07 | 5:41.13 | 52807 | 78394
6 | 17:25.20 | 1:42.21 | 78395 | 86065
7 | 19:07.41 | 0:25.62 | 86066 | 88002
8 | 19:33.28 | 2:21.18 | 88003 | 98595
9 | 21:54.46 | 0:57.70 | 98596 | 102940
10 | 22:52.41 | 3:06.10 | 102941 | 116900
11 | 25:58.51 | 1:26.64 | 116901 | 123414
12 | 27:25.40 | 2:23.65 | 123415 | 134204
13 | 29:49.30 | 3:27.18 | 134205 | 149747
14 | 33:16.48 | 3:08.08 | 149748 | 163855
15 | 36:24.56 | 2:24.58 | 163856 | 174713
16 | 38:49.39 | 7:24.27 | 174714 | 208040


Track 1

Filename C:\Users\Aidan\Music\wp\William Parker\7\William Parker\Migration of Silence Into and Out of the Tone World\01 Song to Lift Sadness (Morning).wav

Pre-gap length 0:00:02.00

Peak level 100.0 %
Extraction speed 0.9 X
Track quality 99.9 %
Test CRC 68108FE2
Copy CRC 68108FE2
Cannot be verified as accurate (confidence 2) [4A28ADDE], AccurateRip returned [CD7AD9A1] (AR v2)
Copy OK

Track 2

Filename C:\Users\Aidan\Music\wp\William Parker\7\William Parker\Migration of Silence Into and Out of the Tone World\02 The Sky is Always Beautiful.wav

Pre-gap length 0:00:03.00

Peak level 96.2 %
Extraction speed 1.1 X
Track quality 100.0 %
Test CRC BBA64CA4
Copy CRC BBA64CA4
Cannot be verified as accurate (confidence 2) [4C2DD073], AccurateRip returned [C45066F8] (AR v2)
Copy OK

Track 3

Filename C:\Users\Aidan\Music\wp\William Parker\7\William Parker\Migration of Silence Into and Out of the Tone World\03 Morning Bird.wav

Pre-gap length 0:00:03.00

Peak level 22.9 %
Extraction speed 1.2 X
Track quality 100.0 %
Test CRC 1F147F25
Copy CRC 1F147F25
Cannot be verified as accurate (confidence 2) [695DC4F6], AccurateRip returned [8DD86503] (AR v2)
Copy OK

Track 4

Filename C:\Users\Aidan\Music\wp\William Parker\7\William Parker\Migration of Silence Into and Out of the Tone World\04 Rocket Man.wav

Pre-gap length 0:00:03.00

Peak level 86.5 %
Extraction speed 1.1 X
Track quality 100.0 %
Test CRC AC54B89A
Copy CRC AC54B89A
Cannot be verified as accurate (confidence 2) [BF49B9A8], AccurateRip returned [80051EE9] (AR v2)
Copy OK

Track 5

Filename C:\Users\Aidan\Music\wp\William Parker\7\William Parker\Migration of Silence Into and Out of the Tone World\05 Essence Calling Out.wav

Pre-gap length 0:00:03.00

Peak level 100.0 %
Extraction speed 1.4 X
Track quality 100.0 %
Test CRC BF627A02
Copy CRC BF627A02
Cannot be verified as accurate (confidence 2) [172839F4], AccurateRip returned [6F234C18] (AR v2)
Copy OK

Track 6

Filename C:\Users\Aidan\Music\wp\William Parker\7\William Parker\Migration of Silence Into and Out of the Tone World\06 Afternoon Poem.wav

Pre-gap length 0:00:03.00

Peak level 100.0 %
Extraction speed 1.2 X
Track quality 100.0 %
Test CRC 7B44598A
Copy CRC 7B44598A
Cannot be verified as accurate (confidence 2) [CFB3BE80], AccurateRip returned [58004DAD] (AR v2)
Copy OK

Track 7

Filename C:\Users\Aidan\Music\wp\William Parker\7\William Parker\Migration of Silence Into and Out of the Tone World\07 First Vision.wav

Pre-gap length 0:00:03.00

Peak level 21.2 %
Extraction speed 0.7 X
Track quality 100.0 %
Test CRC 3211F527
Copy CRC 3211F527
Cannot be verified as accurate (confidence 2) [1524D70F], AccurateRip returned [A50A0338] (AR v2)
Copy OK

Track 8

Filename C:\Users\Aidan\Music\wp\William Parker\7\William Parker\Migration of Silence Into and Out of the Tone World\08 Green and Brown.wav

Pre-gap length 0:00:03.00

Peak level 69.6 %
Extraction speed 1.3 X
Track quality 100.0 %
Test CRC 764E7023
Copy CRC 764E7023
Cannot be verified as accurate (confidence 2) [32B3C429], AccurateRip returned [75394D90] (AR v2)
Copy OK

Track 9

Filename C:\Users\Aidan\Music\wp\William Parker\7\William Parker\Migration of Silence Into and Out of the Tone World\09 I Believe.wav

Pre-gap length 0:00:03.00

Peak level 70.2 %
Extraction speed 1.1 X
Track quality 100.0 %
Test CRC FE99FA41
Copy CRC FE99FA41
Cannot be verified as accurate (confidence 2) [54176B09], AccurateRip returned [166FB6F3] (AR v2)
Copy OK

Track 10

Filename C:\Users\Aidan\Music\wp\William Parker\7\William Parker\Migration of Silence Into and Out of the Tone World\10 I Will Die for You.wav

Pre-gap length 0:00:03.00

Peak level 59.6 %
Extraction speed 1.5 X
Track quality 100.0 %
Test CRC A1BF03DB
Copy CRC A1BF03DB
Cannot be verified as accurate (confidence 2) [24A50DF7], AccurateRip returned [F18D82C0] (AR v2)
Copy OK

Track 11

Filename C:\Users\Aidan\Music\wp\William Parker\7\William Parker\Migration of Silence Into and Out of the Tone World\11 Song for Patricia.wav

Pre-gap length 0:00:03.00

Peak level 56.7 %
Extraction speed 1.3 X
Track quality 100.0 %
Test CRC C32877FE
Copy CRC C32877FE
Cannot be verified as accurate (confidence 2) [FFAC60D6], AccurateRip returned [06D7EEC4] (AR v2)
Copy OK

Track 12

Filename C:\Users\Aidan\Music\wp\William Parker\7\William Parker\Migration of Silence Into and Out of the Tone World\12 My Cup.wav

Pre-gap length 0:00:03.00

Peak level 100.0 %
Extraction speed 1.5 X
Track quality 100.0 %
Test CRC BF5F71A0
Copy CRC BF5F71A0
Cannot be verified as accurate (confidence 2) [EF686A9B], AccurateRip returned [B6BD8427] (AR v2)
Copy OK

Track 13

Filename C:\Users\Aidan\Music\wp\William Parker\7\William Parker\Migration of Silence Into and Out of the Tone World\13 Silent Whispers.wav

Pre-gap length 0:00:03.00

Peak level 79.4 %
Extraction speed 1.6 X
Track quality 100.0 %
Test CRC E2DEAE02
Copy CRC E2DEAE02
Cannot be verified as accurate (confidence 2) [870B40CC], AccurateRip returned [6E2463B0] (AR v2)
Copy OK

Track 14

Filename C:\Users\Aidan\Music\wp\William Parker\7\William Parker\Migration of Silence Into and Out of the Tone World\14 It Would Never Be Long Enough.wav

Pre-gap length 0:00:06.00

Peak level 93.2 %
Extraction speed 1.7 X
Track quality 100.0 %
Test CRC 74224453
Copy CRC 74224453
Cannot be verified as accurate (confidence 2) [666825AF], AccurateRip returned [53D67662] (AR v2)
Copy OK

Track 15

Filename C:\Users\Aidan\Music\wp\William Parker\7\William Parker\Migration of Silence Into and Out of the Tone World\15 Song to Lift Sadness (Evening).wav

Pre-gap length 0:00:03.00

Peak level 98.8 %
Extraction speed 1.5 X
Track quality 99.9 %
Test CRC 0573F30A
Copy CRC 0573F30A
Cannot be verified as accurate (confidence 2) [38E4B5B4], AccurateRip returned [D1903CBE] (AR v2)
Copy OK

Track 16

Filename C:\Users\Aidan\Music\wp\William Parker\7\William Parker\Migration of Silence Into and Out of the Tone World\16 Cloud And Sea Fading As Rain Falls.wav

Pre-gap length 0:00:06.00

Peak level 100.0 %
Extraction speed 2.0 X
Track quality 100.0 %
Test CRC 24506BE3
Copy CRC 24506BE3
Cannot be verified as accurate (confidence 2) [2427FEFD], AccurateRip returned [05FB5B57] (AR v2)
Copy OK


No tracks could be verified as accurate
You may have a different pressing from the one(s) in the database

No errors occurred

End of status report

–– CUETools DB Plugin V2.1.6

[CTDB TOCID: YwqbMXadsSw4fw9jEwTHEJsjrWQ-] found
Submit result: YwqbMXadsSw4fw9jEwTHEJsjrWQ- has been confirmed
Track | CTDB Status
1 | (2/2) Accurately ripped
2 | (2/2) Accurately ripped
3 | (2/2) Accurately ripped
4 | (2/2) Accurately ripped
5 | (2/2) Accurately ripped
6 | (2/2) Accurately ripped
7 | (2/2) Accurately ripped
8 | (2/2) Accurately ripped
9 | (2/2) Accurately ripped
10 | (2/2) Accurately ripped
11 | (2/2) Accurately ripped
12 | (2/2) Accurately ripped
13 | (2/2) Accurately ripped
14 | (2/2) Accurately ripped
15 | (2/2) Accurately ripped
16 | (2/2) Accurately ripped


==== Log checksum AC8AD6453BA4DA70DB2B336F066911EF7AC735E8FDCCDB21523BD37DA060EF97 ====
Exact Audio Copy V1.6 from 23. October 2020

EAC extraction logfile from 21. July 2021, 10:39

William Parker / Migration of Silence Into and Out of the Tone World

Used drive : HL-DT-STBD-RE WH16NS40 Adapter: 1 ID: 0

Read mode : Secure
Utilize accurate stream : Yes
Defeat audio cache : Yes
Make use of C2 pointers : No

Read offset correction : 6
Overread into Lead-In and Lead-Out : No
Fill up missing offset samples with silence : Yes
Delete leading and trailing silent blocks : No
Null samples used in CRC calculations : Yes
Used interface : Native Win32 interface for Win NT & 2000
Gap handling : Appended to previous track

Used output format : User Defined Encoder
Selected bitrate : 768 kBit/s
Quality : High
Add ID3 tag : No
Command line compressor : C:\Program Files (x86)\Exact Audio Copy\FLAC\FLAC.EXE
Additional command line options : -6 -V -T "ARTIST=%artist%" -T "TITLE=%title%" -T "ALBUM=%albumtitle%" -T "DATE=%year%" -T "TRACKNUMBER=%tracknr%" -T "GENRE=%genre%" -T "COMMENT=%comment%" -T "BAND=%albuminterpret%" -T "ALBUMARTIST=%albuminterpret%" -T "COMPOSER=%composer%" %haslyrics%–tag-from-file=LYRICS="%lyricsfile%"%haslyrics% -T "DISCNUMBER=%cdnumber%" -T "TOTALDISCS=%totalcds%" -T "TOTALTRACKS=%numtracks%" %hascover%–picture="%coverfile%"%hascover% %source% -o %dest%


TOC of the extracted CD

Track | Start | Length | Start sector | End sector
––––––––––––––––––––––––––––-
1 | 0:00.00 | 10:25.09 | 0 | 46883
2 | 10:25.09 | 10:44.39 | 46884 | 95222
3 | 21:09.48 | 6:07.15 | 95223 | 122762
4 | 27:16.63 | 4:50.42 | 122763 | 144554
5 | 32:07.30 | 8:35.58 | 144555 | 183237
6 | 40:43.13 | 9:05.43 | 183238 | 224155
7 | 49:48.56 | 5:12.14 | 224156 | 247569
8 | 55:00.70 | 2:27.53 | 247570 | 258647
9 | 57:28.48 | 2:41.11 | 258648 | 270733
10 | 60:09.59 | 6:03.18 | 270734 | 297976


Track 1

Filename C:\Users\Aidan\Music\wp\William Parker\8\William Parker\Migration of Silence Into and Out of the Tone World\01 Visconti.wav

Pre-gap length 0:00:02.00

Peak level 100.0 %
Extraction speed 1.2 X
Track quality 99.9 %
Test CRC 3770CF61
Copy CRC 3770CF61
Accurately ripped (confidence 2) [0110BDA7] (AR v2)
Copy OK

Track 2

Filename C:\Users\Aidan\Music\wp\William Parker\8\William Parker\Migration of Silence Into and Out of the Tone World\02 Fellini.wav

Pre-gap length 0:00:02.00

Peak level 100.0 %
Extraction speed 1.5 X
Track quality 100.0 %
Test CRC 928EFDE1
Copy CRC 928EFDE1
Accurately ripped (confidence 2) [87AA1F3B] (AR v2)
Copy OK

Track 3

Filename C:\Users\Aidan\Music\wp\William Parker\8\William Parker\Migration of Silence Into and Out of the Tone World\03 Pasolini.wav

Pre-gap length 0:00:02.00

Peak level 100.0 %
Extraction speed 1.6 X
Track quality 99.9 %
Test CRC F591B6AA
Copy CRC F591B6AA
Accurately ripped (confidence 2) [1D68393C] (AR v2)
Copy OK

Track 4

Filename C:\Users\Aidan\Music\wp\William Parker\8\William Parker\Migration of Silence Into and Out of the Tone World\04 Leone.wav

Pre-gap length 0:00:02.00

Peak level 100.0 %
Extraction speed 1.7 X
Track quality 100.0 %
Test CRC 5792F78F
Copy CRC 5792F78F
Accurately ripped (confidence 2) [D311C614] (AR v2)
Copy OK

Track 5

Filename C:\Users\Aidan\Music\wp\William Parker\8\William Parker\Migration of Silence Into and Out of the Tone World\05 De Sica.wav

Pre-gap length 0:00:02.00

Peak level 100.0 %
Extraction speed 1.9 X
Track quality 100.0 %
Test CRC 57BDDEDA
Copy CRC 57BDDEDA
Accurately ripped (confidence 2) [1AE6A20B] (AR v2)
Copy OK

Track 6

Filename C:\Users\Aidan\Music\wp\William Parker\8\William Parker\Migration of Silence Into and Out of the Tone World\06 Rossellini.wav

Pre-gap length 0:00:02.00

Peak level 100.0 %
Extraction speed 2.1 X
Track quality 100.0 %
Test CRC 8A9FCD21
Copy CRC 8A9FCD21
Accurately ripped (confidence 2) [BE6BD2EF] (AR v2)
Copy OK

Track 7

Filename C:\Users\Aidan\Music\wp\William Parker\8\William Parker\Migration of Silence Into and Out of the Tone World\07 Gospel.wav

Pre-gap length 0:00:02.00

Peak level 100.0 %
Extraction speed 2.1 X
Track quality 100.0 %
Test CRC 54426D99
Copy CRC 54426D99
Accurately ripped (confidence 2) [31E98341] (AR v2)
Copy OK

Track 8

Filename C:\Users\Aidan\Music\wp\William Parker\8\William Parker\Migration of Silence Into and Out of the Tone World\08 Milano.wav

Pre-gap length 0:00:02.00

Peak level 74.2 %
Extraction speed 1.6 X
Track quality 99.9 %
Test CRC 4C254E16
Copy CRC 4C254E16
Accurately ripped (confidence 2) [AA1C2AA4] (AR v2)
Copy OK

Track 9

Filename C:\Users\Aidan\Music\wp\William Parker\8\William Parker\Migration of Silence Into and Out of the Tone World\09 Lights in the Rain.wav

Pre-gap length 0:00:02.00

Peak level 100.0 %
Extraction speed 2.0 X
Track quality 100.0 %
Test CRC 8B971B11
Copy CRC 8B971B11
Accurately ripped (confidence 2) [F96A4832] (AR v2)
Copy OK

Track 10

Filename C:\Users\Aidan\Music\wp\William Parker\8\William Parker\Migration of Silence Into and Out of the Tone World\10 Antonioni.wav

Pre-gap length 0:00:02.00

Peak level 100.0 %
Extraction speed 2.1 X
Track quality 99.9 %
Test CRC 47F1F1D9
Copy CRC 47F1F1D9
Accurately ripped (confidence 2) [B5789018] (AR v2)
Copy OK


All tracks accurately ripped

No errors occurred

End of status report

–– CUETools DB Plugin V2.1.6

[CTDB TOCID: AGh0OlDgInhNuuvfjIrHYzCpn5Y-] found
Submit result: AGh0OlDgInhNuuvfjIrHYzCpn5Y- has been confirmed
Track | CTDB Status
1 | (2/2) Accurately ripped
2 | (2/2) Accurately ripped
3 | (2/2) Accurately ripped
4 | (2/2) Accurately ripped
5 | (2/2) Accurately ripped
6 | (2/2) Accurately ripped
7 | (2/2) Accurately ripped
8 | (2/2) Accurately ripped
9 | (2/2) Accurately ripped
10 | (2/2) Accurately ripped


==== Log checksum F1B8768BA656D00E27802A272EEAE7C1093A4A5196AFC422DD5B2F90603D6F81 ====
Exact Audio Copy V1.6 from 23. October 2020

EAC extraction logfile from 21. July 2021, 11:57

William Parker / Migration of Silence Into and Out of the Tone World

Used drive : HL-DT-STBD-RE WH16NS40 Adapter: 1 ID: 0

Read mode : Secure
Utilize accurate stream : Yes
Defeat audio cache : Yes
Make use of C2 pointers : No

Read offset correction : 6
Overread into Lead-In and Lead-Out : No
Fill up missing offset samples with silence : Yes
Delete leading and trailing silent blocks : No
Null samples used in CRC calculations : Yes
Used interface : Native Win32 interface for Win NT & 2000
Gap handling : Appended to previous track

Used output format : User Defined Encoder
Selected bitrate : 768 kBit/s
Quality : High
Add ID3 tag : No
Command line compressor : C:\Program Files (x86)\Exact Audio Copy\FLAC\FLAC.EXE
Additional command line options : -6 -V -T "ARTIST=%artist%" -T "TITLE=%title%" -T "ALBUM=%albumtitle%" -T "DATE=%year%" -T "TRACKNUMBER=%tracknr%" -T "GENRE=%genre%" -T "COMMENT=%comment%" -T "BAND=%albuminterpret%" -T "ALBUMARTIST=%albuminterpret%" -T "COMPOSER=%composer%" %haslyrics%–tag-from-file=LYRICS="%lyricsfile%"%haslyrics% -T "DISCNUMBER=%cdnumber%" -T "TOTALDISCS=%totalcds%" -T "TOTALTRACKS=%numtracks%" %hascover%–picture="%coverfile%"%hascover% %source% -o %dest%


TOC of the extracted CD

Track | Start | Length | Start sector | End sector
––––––––––––––––––––––––––––-
1 | 0:00.00 | 4:07.34 | 0 | 18558
2 | 4:07.34 | 5:10.74 | 18559 | 41882
3 | 9:18.33 | 2:18.02 | 41883 | 52234
4 | 11:36.35 | 5:06.24 | 52235 | 75208
5 | 16:42.59 | 5:13.04 | 75209 | 98687
6 | 21:55.63 | 5:09.69 | 98688 | 121931
7 | 27:05.57 | 2:21.01 | 121932 | 132507
8 | 29:26.58 | 4:41.69 | 132508 | 153651
9 | 34:08.52 | 4:57.06 | 153652 | 175932
10 | 39:05.58 | 4:00.23 | 175933 | 193955
11 | 43:06.06 | 3:44.35 | 193956 | 210790
12 | 46:50.41 | 6:47.12 | 210791 | 241327
13 | 53:37.53 | 7:44.74 | 241328 | 276201


Track 1

Filename C:\Users\Aidan\Music\wp\William Parker\9\William Parker\Migration of Silence Into and Out of the Tone World\01 The Elders at the Edge of the World part 1.wav

Pre-gap length 0:00:02.00

Peak level 100.0 %
Extraction speed 1.0 X
Track quality 100.0 %
Test CRC FA6955D1
Copy CRC FA6955D1
Accurately ripped (confidence 2) [203CC141] (AR v2)
Copy OK

Track 2

Filename C:\Users\Aidan\Music\wp\William Parker\9\William Parker\Migration of Silence Into and Out of the Tone World\02 Cultivation.wav

Pre-gap length 0:00:02.00

Peak level 94.7 %
Extraction speed 1.2 X
Track quality 100.0 %
Test CRC BE1F7B41
Copy CRC BE1F7B41
Accurately ripped (confidence 2) [34474982] (AR v2)
Copy OK

Track 3

Filename C:\Users\Aidan\Music\wp\William Parker\9\William Parker\Migration of Silence Into and Out of the Tone World\03 Deep Spirit.wav

Pre-gap length 0:00:02.00

Peak level 100.0 %
Extraction speed 1.2 X
Track quality 100.0 %
Test CRC 0B1BE89F
Copy CRC 0B1BE89F
Accurately ripped (confidence 2) [496B8B98] (AR v2)
Copy OK

Track 4

Filename C:\Users\Aidan\Music\wp\William Parker\9\William Parker\Migration of Silence Into and Out of the Tone World\04 Family Voice.wav

Pre-gap length 0:00:02.00

Peak level 100.0 %
Extraction speed 1.4 X
Track quality 100.0 %
Test CRC 6BB5C40F
Copy CRC 6BB5C40F
Accurately ripped (confidence 2) [C32DAC60] (AR v2)
Copy OK

Track 5

Filename C:\Users\Aidan\Music\wp\William Parker\9\William Parker\Migration of Silence Into and Out of the Tone World\05 Listen to the Sky.wav

Pre-gap length 0:00:02.00

Peak level 100.0 %
Extraction speed 1.5 X
Track quality 99.9 %
Test CRC EC1F8F42
Copy CRC EC1F8F42
Accurately ripped (confidence 2) [23FFC8B5] (AR v2)
Copy OK

Track 6

Filename C:\Users\Aidan\Music\wp\William Parker\9\William Parker\Migration of Silence Into and Out of the Tone World\06 Sacred Prayers.wav

Pre-gap length 0:00:02.00

Peak level 100.0 %
Extraction speed 1.6 X
Track quality 100.0 %
Test CRC ED2DFBC9
Copy CRC ED2DFBC9
Accurately ripped (confidence 2) [45211F4E] (AR v2)
Copy OK

Track 7

Filename C:\Users\Aidan\Music\wp\William Parker\9\William Parker\Migration of Silence Into and Out of the Tone World\07 Host for the Anointed.wav

Pre-gap length 0:00:02.00

Peak level 84.1 %
Extraction speed 1.5 X
Track quality 100.0 %
Test CRC F5A31779
Copy CRC F5A31779
Accurately ripped (confidence 2) [7E974D85] (AR v2)
Copy OK

Track 8

Filename C:\Users\Aidan\Music\wp\William Parker\9\William Parker\Migration of Silence Into and Out of the Tone World\08 Bamboo Village.wav

Pre-gap length 0:00:02.00

Peak level 61.7 %
Extraction speed 1.8 X
Track quality 100.0 %
Test CRC DB43FA5D
Copy CRC DB43FA5D
Accurately ripped (confidence 2) [C15C7370] (AR v2)
Copy OK

Track 9

Filename C:\Users\Aidan\Music\wp\William Parker\9\William Parker\Migration of Silence Into and Out of the Tone World\09 Blessed.wav

Pre-gap length 0:00:02.00

Peak level 79.4 %
Extraction speed 1.9 X
Track quality 100.0 %
Test CRC 73F17883
Copy CRC 73F17883
Accurately ripped (confidence 2) [98434CC1] (AR v2)
Copy OK

Track 10

Filename C:\Users\Aidan\Music\wp\William Parker\9\William Parker\Migration of Silence Into and Out of the Tone World\10 The Flute Reaches Out.wav

Pre-gap length 0:00:02.00

Peak level 100.0 %
Extraction speed 1.9 X
Track quality 100.0 %
Test CRC FC5E3334
Copy CRC FC5E3334
Accurately ripped (confidence 2) [D10801BC] (AR v2)
Copy OK

Track 11

Filename C:\Users\Aidan\Music\wp\William Parker\9\William Parker\Migration of Silence Into and Out of the Tone World\11 The World's Fastest Train.wav

Pre-gap length 0:00:02.00

Peak level 84.1 %
Extraction speed 1.9 X
Track quality 100.0 %
Test CRC B97C26A2
Copy CRC B97C26A2
Accurately ripped (confidence 2) [5DFC32E5] (AR v2)
Copy OK

Track 12

Filename C:\Users\Aidan\Music\wp\William Parker\9\William Parker\Migration of Silence Into and Out of the Tone World\12 Joyous and Delightful.wav

Pre-gap length 0:00:02.00

Peak level 100.0 %
Extraction speed 2.1 X
Track quality 100.0 %
Test CRC 845A002E
Copy CRC 845A002E
Accurately ripped (confidence 2) [64ED9478] (AR v2)
Copy OK

Track 13

Filename C:\Users\Aidan\Music\wp\William Parker\9\William Parker\Migration of Silence Into and Out of the Tone World\13 The Elders at the Edge of the World part 2.wav

Pre-gap length 0:00:02.00

Peak level 90.0 %
Extraction speed 2.3 X
Track quality 100.0 %
Test CRC 423694F9
Copy CRC 423694F9
Accurately ripped (confidence 2) [69E38101] (AR v2)
Copy OK


All tracks accurately ripped

No errors occurred

End of status report

–– CUETools DB Plugin V2.1.6

[CTDB TOCID: xZO245lJsyELtU47Z7vuGxtBTiY-] found
Submit result: xZO245lJsyELtU47Z7vuGxtBTiY- has been confirmed
Track | CTDB Status
1 | (2/2) Accurately ripped
2 | (2/2) Accurately ripped
3 | (2/2) Accurately ripped
4 | (2/2) Accurately ripped
5 | (2/2) Accurately ripped
6 | (2/2) Accurately ripped
7 | (2/2) Accurately ripped
8 | (2/2) Accurately ripped
9 | (2/2) Accurately ripped
10 | (2/2) Accurately ripped
11 | (2/2) Accurately ripped
12 | (2/2) Accurately ripped
13 | (2/2) Accurately ripped


==== Log checksum 2253A429CC9A0EDF39753BC5900DEA16D97EC268BBBC993282F88AC0DA8ED9FA ====
Exact Audio Copy V1.6 from 23. October 2020

EAC extraction logfile from 21. July 2021, 13:11

William Parker / Migration of Silence Into and Out of the Tone World

Used drive : HL-DT-STBD-RE WH16NS40 Adapter: 1 ID: 0

Read mode : Secure
Utilize accurate stream : Yes
Defeat audio cache : Yes
Make use of C2 pointers : No

Read offset correction : 6
Overread into Lead-In and Lead-Out : No
Fill up missing offset samples with silence : Yes
Delete leading and trailing silent blocks : No
Null samples used in CRC calculations : Yes
Used interface : Native Win32 interface for Win NT & 2000
Gap handling : Appended to previous track

Used output format : User Defined Encoder
Selected bitrate : 768 kBit/s
Quality : High
Add ID3 tag : No
Command line compressor : C:\Program Files (x86)\Exact Audio Copy\FLAC\FLAC.EXE
Additional command line options : -6 -V -T "ARTIST=%artist%" -T "TITLE=%title%" -T "ALBUM=%albumtitle%" -T "DATE=%year%" -T "TRACKNUMBER=%tracknr%" -T "GENRE=%genre%" -T "COMMENT=%comment%" -T "BAND=%albuminterpret%" -T "ALBUMARTIST=%albuminterpret%" -T "COMPOSER=%composer%" %haslyrics%–tag-from-file=LYRICS="%lyricsfile%"%haslyrics% -T "DISCNUMBER=%cdnumber%" -T "TOTALDISCS=%totalcds%" -T "TOTALTRACKS=%numtracks%" %hascover%–picture="%coverfile%"%hascover% %source% -o %dest%


TOC of the extracted CD

Track | Start | Length | Start sector | End sector
––––––––––––––––––––––––––––-
1 | 0:00.00 | 15:18.10 | 0 | 68859
2 | 15:18.10 | 20:24.38 | 68860 | 160697
3 | 35:42.48 | 7:00.58 | 160698 | 192255
4 | 42:43.31 | 8:48.72 | 192256 | 231927
5 | 51:32.28 | 21:15.43 | 231928 | 327595


Track 1

Filename C:\Users\Aidan\Music\wp\William Parker\10\William Parker\Migration of Silence Into and Out of the Tone World\01 Charcoal Paragraphs.wav

Pre-gap length 0:00:02.00

Peak level 100.0 %
Extraction speed 1.4 X
Track quality 100.0 %
Test CRC BE64DE45
Copy CRC BE64DE45
Accurately ripped (confidence 2) [0281A6CD] (AR v2)
Copy OK

Track 2

Filename C:\Users\Aidan\Music\wp\William Parker\10\William Parker\Migration of Silence Into and Out of the Tone World\02 Khaen.wav

Pre-gap length 0:00:02.00

Peak level 100.0 %
Extraction speed 1.8 X
Track quality 100.0 %
Test CRC 468D4E31
Copy CRC 468D4E31
Accurately ripped (confidence 2) [BDD09E35] (AR v2)
Copy OK

Track 3

Filename C:\Users\Aidan\Music\wp\William Parker\10\William Parker\Migration of Silence Into and Out of the Tone World\03 Lakota Song.wav

Pre-gap length 0:00:02.00

Peak level 100.0 %
Extraction speed 2.0 X
Track quality 100.0 %
Test CRC 5731CBBF
Copy CRC 5731CBBF
Accurately ripped (confidence 2) [B8A3C72E] (AR v2)
Copy OK

Track 4

Filename C:\Users\Aidan\Music\wp\William Parker\10\William Parker\Migration of Silence Into and Out of the Tone World\04 Manzanar.wav

Pre-gap length 0:00:02.00

Peak level 89.4 %
Extraction speed 2.2 X
Track quality 100.0 %
Test CRC B081463A
Copy CRC B081463A
Accurately ripped (confidence 2) [02AACECB] (AR v2)
Copy OK

Track 5

Filename C:\Users\Aidan\Music\wp\William Parker\10\William Parker\Migration of Silence Into and Out of the Tone World\05 On Being Native.wav

Pre-gap length 0:00:02.00

Peak level 100.0 %
Extraction speed 2.5 X
Track quality 100.0 %
Test CRC 7DD18976
Copy CRC 7DD18976
Accurately ripped (confidence 2) [235F7169] (AR v2)
Copy OK


All tracks accurately ripped

No errors occurred

End of status report

–– CUETools DB Plugin V2.1.6

[CTDB TOCID: uT5GOBwEbZ4lzsNCuTGXZK0DKiM-] found
Submit result: uT5GOBwEbZ4lzsNCuTGXZK0DKiM- has been confirmed
Track | CTDB Status
1 | (2/2) Accurately ripped
2 | (2/2) Accurately ripped
3 | (2/2) Accurately ripped
4 | (2/2) Accurately ripped
5 | (2/2) Accurately ripped


==== Log checksum BF7E639D4CB219975FC30E07F0FBB69165884B8E820CCDA26324EF4FAB474112 ====

Thanks to the Original ripper !