Tags
Language
Tags
February 2023
Su Mo Tu We Th Fr Sa
29 30 31 1 2 3 4
5 6 7 8 9 10 11
12 13 14 15 16 17 18
19 20 21 22 23 24 25
26 27 28 1 2 3 4

William Tyler - Goes West (2019)

Posted By: delpotro
William Tyler - Goes West (2019)

William Tyler - Goes West (2019)
EAC Rip | FLAC (tracks+log+.cue) - 259 Mb | MP3 CBR 320 kbps - 114 Mb | Scans included | 00:37:47
Acoustic, Folk, Instrumental | Label: Merge Records

William Tyler’s new record, Goes West, is the best music that he’s ever made. I’m sure of this because I know and love all of his music intimately, and this album moves me the most, and the most consistently. The first time I heard it was in the late spring in the Texas Hill Country, rolling between limestone and scrub. I was on a cleanse then—no alcohol, no drugs, no evil thoughts—and was astonished at the emotional clarity that the album held. It offered up a model for what I wanted my head to feel like. Goes West marks a sort of narrowing of focus for William’s music; it sounds as though he found a way to point himself directly towards the rich and bittersweet emotional center of his music without being distracted by side trips. Perhaps this is down to the fact that William only plays acoustic guitar on the album, a clear and conscious decision considering that he is one of Nashville’s great electric guitarists. The band that performs Goes West alongside William—including guitarists Meg Duffy and Bill Frisell, bassist and producer Brad Cook, keyboardist James Wallace, drummer Griffin Goldsmith, and engineer Tucker Martine—is the best and most sympathetic group of players that William could have assembled to play these songs.
Tracklist:
01. Alpine Star
02. Fail Safe
03. Not In Our Stars
04. Call Me When I'm Breathing Again
05. Eventual Surrender
06. Rebecca
07. Venus In Aquarius
08. Virginia Is For Loners
09. Man In A Hurry
10. Our Lady In The Desert

Exact Audio Copy V1.3 from 2. September 2016

EAC extraction logfile from 28. February 2019, 6:56

William Tyler / Goes West

Used drive : HL-DT-STDVDRAM GU90N Adapter: 1 ID: 0

Read mode : Secure
Utilize accurate stream : Yes
Defeat audio cache : Yes
Make use of C2 pointers : No

Read offset correction : 102
Overread into Lead-In and Lead-Out : No
Fill up missing offset samples with silence : Yes
Delete leading and trailing silent blocks : No
Null samples used in CRC calculations : Yes
Used interface : Native Win32 interface for Win NT & 2000
Gap handling : Appended to previous track

Used output format : User Defined Encoder
Selected bitrate : 1024 kBit/s
Quality : High
Add ID3 tag : No
Command line compressor : C:\Program Files (x86)\Exact Audio Copy\Flac\flac.exe
Additional command line options : -8 -e -p -V -T "ARTIST=%artist%" -T "TITLE=%title%" -T "ALBUM=%albumtitle%" -T "DATE=%year%" -T "TRACKNUMBER=%tracknr%" -T "GENRE=%genre%" -T "PERFORMER=%albuminterpret%" -T "COMPOSER=%composer%" -T "ALBUMARTIST=%albumartist%" -T "DISCNUMBER=%cdnumber%" -T "COMMENT=%comment%" %source% -o %dest%


TOC of the extracted CD

Track | Start | Length | Start sector | End sector
––––––––––––––––––––––––––––-
1 | 0:00.00 | 5:26.43 | 0 | 24492
2 | 5:26.43 | 3:18.06 | 24493 | 39348
3 | 8:44.49 | 3:09.52 | 39349 | 53575
4 | 11:54.26 | 3:00.56 | 53576 | 67131
5 | 14:55.07 | 3:03.41 | 67132 | 80897
6 | 17:58.48 | 4:03.01 | 80898 | 99123
7 | 22:01.49 | 5:15.62 | 99124 | 122810
8 | 27:17.36 | 3:12.65 | 122811 | 137275
9 | 30:30.26 | 3:42.32 | 137276 | 153957
10 | 34:12.58 | 3:34.22 | 153958 | 170029


Track 1

Filename C:\That is the question\William Tyler - Goes West (2019) [FLAC] {MRG645}\01 - Alpine Star.wav

Pre-gap length 0:00:02.00

Peak level 100.0 %
Extraction speed 1.3 X
Track quality 100.0 %
Test CRC 88DB522F
Copy CRC 88DB522F
Accurately ripped (confidence 1) [13620186] (AR v2)
Copy OK

Track 2

Filename C:\That is the question\William Tyler - Goes West (2019) [FLAC] {MRG645}\02 - Fail Safe.wav

Peak level 100.0 %
Extraction speed 1.4 X
Track quality 100.0 %
Test CRC EC567F55
Copy CRC EC567F55
Accurately ripped (confidence 1) [2D8D894D] (AR v2)
Copy OK

Track 3

Filename C:\That is the question\William Tyler - Goes West (2019) [FLAC] {MRG645}\03 - Not in Our Stars.wav

Peak level 100.0 %
Extraction speed 1.5 X
Track quality 100.0 %
Test CRC 8928D141
Copy CRC 8928D141
Accurately ripped (confidence 1) [15D6BDB5] (AR v2)
Copy OK

Track 4

Filename C:\That is the question\William Tyler - Goes West (2019) [FLAC] {MRG645}\04 - Call Me When I'm Breathing Again.wav

Peak level 100.0 %
Extraction speed 1.5 X
Track quality 100.0 %
Test CRC 6AE3060D
Copy CRC 6AE3060D
Accurately ripped (confidence 1) [B80A73E7] (AR v2)
Copy OK

Track 5

Filename C:\That is the question\William Tyler - Goes West (2019) [FLAC] {MRG645}\05 - Eventual Surrender.wav

Peak level 100.0 %
Extraction speed 1.6 X
Track quality 100.0 %
Test CRC 6B55E144
Copy CRC 6B55E144
Accurately ripped (confidence 1) [90DF7179] (AR v2)
Copy OK

Track 6

Filename C:\That is the question\William Tyler - Goes West (2019) [FLAC] {MRG645}\06 - Rebecca.wav

Peak level 97.7 %
Extraction speed 1.6 X
Track quality 99.9 %
Test CRC 95624BE6
Copy CRC 95624BE6
Accurately ripped (confidence 1) [325F9496] (AR v2)
Copy OK

Track 7

Filename C:\That is the question\William Tyler - Goes West (2019) [FLAC] {MRG645}\07 - Venus In Aquarius.wav

Peak level 98.6 %
Extraction speed 2.0 X
Track quality 100.0 %
Test CRC 0635530B
Copy CRC 0635530B
Accurately ripped (confidence 1) [D78F91A6] (AR v2)
Copy OK

Track 8

Filename C:\That is the question\William Tyler - Goes West (2019) [FLAC] {MRG645}\08 - Virginia is for Loners.wav

Peak level 98.6 %
Extraction speed 1.7 X
Track quality 99.9 %
Test CRC 8C4199A7
Copy CRC 8C4199A7
Accurately ripped (confidence 1) [A7746148] (AR v2)
Copy OK

Track 9

Filename C:\That is the question\William Tyler - Goes West (2019) [FLAC] {MRG645}\09 - Man In A Hurry.wav

Peak level 99.6 %
Extraction speed 1.8 X
Track quality 99.9 %
Test CRC FEC21A4B
Copy CRC FEC21A4B
Accurately ripped (confidence 1) [15AE5B68] (AR v2)
Copy OK

Track 10

Filename C:\That is the question\William Tyler - Goes West (2019) [FLAC] {MRG645}\10 - Our Lady of the Desert.wav

Peak level 100.0 %
Extraction speed 2.1 X
Track quality 100.0 %
Test CRC E9864F33
Copy CRC E9864F33
Accurately ripped (confidence 1) [DF8679CB] (AR v2)
Copy OK


All tracks accurately ripped

No errors occurred

End of status report

–– CUETools DB Plugin V2.1.6

[CTDB TOCID: nR6u5L0sRvDUqfWcQHugDt9I8.8-] found
Submit result: nR6u5L0sRvDUqfWcQHugDt9I8.8- has been confirmed
Track | CTDB Status
1 | (7/7) Accurately ripped
2 | (7/7) Accurately ripped
3 | (7/7) Accurately ripped
4 | (7/7) Accurately ripped
5 | (7/7) Accurately ripped
6 | (7/7) Accurately ripped
7 | (7/7) Accurately ripped
8 | (7/7) Accurately ripped
9 | (7/7) Accurately ripped
10 | (7/7) Accurately ripped


==== Log checksum BC11943F8A991769B8942F18217471954C23EDC034F9C85BD4748FF3E23C8BCC ====

Thanks to the Original ripper Soliloquy !