Tags
Language
Tags

Wolves In The Throne Room - Thrice Woven (2017)

Posted By: Domestos
Wolves In The Throne Room - Thrice Woven (2017)

Wolves In The Throne Room - Thrice Woven (2017)
EAC Rip | FLAC (image+.cue, log) ~ 280.64 Mb + 69.35 Mb (Scans) | 42:17
Black Metal | Country: USA | Label: Artemisia Records - DIA 015

Now, a portal into the dreamworld of Wolves in the Throne Room opens again with THRICE WOVEN. It is a glorious return to the blazing and furious Black Metal that they alone can create!

The album begins with Born From the Serpent’s Eye a true thrashing black metal epic that is bisected with a haunting northern lament sung by Swedish star Anna von Hausswolff. The band worked with metal documentarians Peter Beste and Nico Poalillo to create a video for this track which captures a bonfire-lit performance in the forest near their Olympia compound.

The Old Ones Are With Us opens with the crackling of a fire and the voice of Steve Von Till (Neurosis) invoking the springtime thaw. It then storms into a dirge inspired by 90’s Finnish doom with lyrics that celebrate Imbolc, the holy day which marks the end of winter and the first stirrings of spring.

Figures from Norse mythology intertwine with personal heartbreak and rebirth in the bleak Angrboda. The song is named after a frost giantess who birthed Fenris Wolf, a beast who was destined to destroy the world and murder the gods. Fenris Wolf also appears on the cover of THRICE WOVEN in a painting by Russian occult artist Denis Forkas. Forkas’ obscure medieval painting techniques perfectly compliment the music of Wolves in the Throne Room.

A raven’s wings stir the air in the interlude Mother Owl, Father Ocean. Anna von Hausswolff returns in a duet with Turkish harpist Zeynep Oyku. Forlorn industrial atmospheres haunt the mix. Hausswolff’s lyrics, sung in Swedish, echo over a barren grey seascape.

Fires Roar in the Palace of the Moon is the classic Cascadian Black Metal epic. The third eye opens to see holy rivers being born from the ice on the tallest peaks. The lyrics offer blessings to the waters of the earth as they flow from the high places to the source of darkness, the ocean.

Kody Keyworth - Guitars, Vocals
Aaron Weaver - Drums, Synth
Nathan Weaver - Guitars, Vocals

Guests:
Don McGreevy - Guitars (acoustic) (track 1)
Steve Von Till - Vocals, Guitars (acoustic) (track 2)
Anna von Hausswolff - Vocals (tracks 1, 4)
Phil Petrocelli - Percussion (track 4)
Zeynep Oyku Yilmaz - Grand harp (track 4)

Track List:
1. Born from the Serpent's Eye - 09:37
2. The Old Ones Are with Us - 08:36
3. Angrboda - 10:02
4. Mother Owl, Father Ocean - 02:33
5. Fires Roar in the Palace of the Moon - 11:29

Wolves In The Throne Room - Thrice Woven (2017)

Exact Audio Copy V1.3 from 2. September 2016

Отчёт EAC об извлечении, выполненном 8. ноября 2017, 10:27

Wolves in the Throne Room / Thrice Woven

Дисковод: Optiarc DVD RW AD-7283S Adapter: 1 ID: 0

Режим чтения : Достоверность
Использование точного потока : Да
Отключение кэша аудио : Да
Использование указателей C2 : Нет

Коррекция смещения при чтении : 48
Способность читать области Lead-in и Lead-out : Нет
Заполнение пропущенных сэмплов тишиной : Да
Удаление блоков с тишиной в начале и конце : Нет
При вычислениях CRC использовались нулевые сэмплы : Да
Интерфейс : Встроенный Win32-интерфейс для Win NT/2000

Выходной формат : Пользовательский кодировщик
Выбранный битрейт : 1024 kBit/s
Качество : Высокий
Добавление ID3-тега : Нет
Утилита сжатия : C:\Program Files (x86)\Exact Audio Copy\Flac\flac.exe
Дополнительные параметры : -V -8 -T "Date=%year%" -T "Genre=%genre%" %source%

TOC извлечённого CD

Трек | Старт | Длительность | Начальный сектор | Конечный сектор
––––––––––––––––––––––––––––––––––-
1 | 0:00.00 | 9:36.41 | 0 | 43240
2 | 9:36.41 | 8:36.14 | 43241 | 81954
3 | 18:12.55 | 10:02.73 | 81955 | 127177
4 | 28:15.53 | 2:33.42 | 127178 | 138694
5 | 30:49.20 | 11:29.52 | 138695 | 190421

Характеристики диапазона извлечения и сообщения об ошибках

Выбранный диапазон

Имя файла D:\Yourson\-Morgul-\Wolves in the Throne Room\2017 - Thrice Woven\Wolves in the Throne Room - Thrice Woven.wav

Подозрительная позиция 0:39:10 - 0:39:11

Пиковый уровень 95.3 %
Скорость извлечения 3.3 X
Качество диапазона 99.8 %
CRC теста 4C656969
CRC копии 4012AD1B
Копирование завершено

Были ошибки

AccurateRip: сводка

Трек 1 : извлечено точно (доверие 3) [33A14E36] (AR v2)
Трек 2 : извлечено точно (доверие 3) [3BA4AD6A] (AR v2)
Трек 3 : извлечено точно (доверие 3) [48F8171F] (AR v2)
Трек 4 : извлечено точно (доверие 3) [76A24FFA] (AR v2)
Трек 5 точность не определена (достоверность 2) [92947326], AccurateRip вернул [F8238C2C] (AR v2)

4 трек(и) скопированы точно
1 трек(и) не удалось проверить на точность

Некоторые треки не прошли проверку на точность

Конец отчёта

–– CUETools DB Plugin V2.1.6

[CTDB TOCID: lUzLHmV0qlhq.KNFcURTXlB4ueo-] found
Submit result: insufficient quality
Track | CTDB Status
1 | (20/20) Accurately ripped
2 | (20/20) Accurately ripped
3 | (20/20) Accurately ripped
4 | (20/20) Accurately ripped
5 | ( 8/20) Differs in 599 samples @07:59:33,08:16:16,08:21:12,08:21:29,08:21:61,08:22:02,08:22:18-08:22:19,08:22:34-08:22:35,08:22:50-08:22:51,08:22:66-08:22:67,08:23:07-08:23:08
If you are sure that your rip contains errors, you can use CUETools to repair it.

==== Контрольная сумма отчёта E2836F5162651ED149DA6E5499EA1F376556838A49622FFC5E51480D2A06E6AA ====

All thanks go to the -Morgul-

More Music in My Blog
Follow My RSS Channel