Subcategories

V.A. - Dance at the stars: The most beautiful hassapika songs (3CD, 2013)

Posted By: Speedyclick
V.A. - Dance at the stars: The most beautiful hassapika songs (3CD, 2013)

V.A. - Dance at the stars: The most beautiful hassapika songs (3CD, 2013)
EAC Rip | FLAC (image & cue & log) & mp3 @ 320 kbps | tracks: 45 | Scans | 2:23:14 | ~ 777 Mb & 359 Mb
Label: MINOS-EMI | 5% recovery record | Original recordings | Folk, hassapiko dance, bouzouki

A wonderful collection of 45 legendary hassapika songs, composed by top greek composers like Vassilis Tsitsanis, Markos Vamvakaris, Yiannis Papaioannou, Stavros Xarhakos, Giorgos Zabetas, Christos Nikolopoulos and many more. More than 20 top voices, backed by amazing bouzouki virtuosi, will guide you through the best moments in the last 80 years of the greek folk musical pantheon. Enjoy a dancing trip at the stars.

The Hassapiko, is a Greek folk dance from Constantinople. The dance originated in the Middle Ages as a battle mime with swords performed by the Greek butchers guild, which adopted it from the military of Byzantine era. The Hassapikos was called Makellarion Horon (makellarios is the Greek word for "butcher") during Byzantine days because it was adopted by the butchers' guild in Constantinople (now İstanbul, Turkey). The dance is also spelled Hassapikos (Hassip is Turkish for "butcher"). It is also known as Grigoro (fast) Hasapikos, or simply Zoero (lively). The dance is mostly known outside of Greece because of its being danced during the Syrtaki in the film Alexis Zorbas (titled Zorba the Greek in America). The Hassapikos is sometimes referred to as Hassaposervikos, whose basic step is based on that of the fast Hassapikos. Other dances that have a similar dance motif are the Arkan of the Ukraine, Hora of Israel, the Debki of the Arab countries, the Kasapsko Horo of Bulgaria, the Kasapsko Kolo of Serbia, the Lesnoto of Macedonia, and the Soorch Bar of Armenia.
TRACKLIST

CD01 (48:06 | ~ 301 Mb & 141 Mb)
01. Stamatis Kokotas - At the Othon's years (Stou Othona ta hronia)
02. Grigoris Bithikotsis - Eyes with tears (Matia vourkomena)
03. Panos Gavalas & Ria Kourti - Tied up dream (Oniro demeno)
04. Stelios Kazantzidis & Pitsa Papadopoulou - The wild flower (To agriolouloudo)
05. Vicky Mosholiou - You've got another love (Ali agapi epiases)
06. Manolis Mitsias - Like trains (San trena)
07. Yiannis Kalatzis - The bird's-eye (O epipoleos)
08. Poly Panou & Christakis - Turn of the light to sleep (Svise to fos na kimithoume)
09. Markos Vamvakaris & Soula Kalfopoulou - A cab is passing (Arampas perna)
10. Stratos Dionysiou - Woman's heart (Tis ginekas i kardia)
11. Tolis Voskopoulos - Forgive the guy tonight (Sighoriste to apopse to pedi)
12. Notis Sfakianakis - Burn (Kapse)
13. Yiannis Ploutarhos - The best guy (To kalitero pedi)
14. Yiannis Poulopoulos - Once is enough (Mia fora monaha ftani)
15. Vassilis Karras - Red line (Kokini grami)

CD02 (48:40 | ~ 251 Mb & 111 Mb)
01. Stratos Dionysiou & Poly Panou - Ungrateful woman (Aharisti)
02. Grigoris Bithikotsis - At Belami's (Stou Belami)
03. Stelios Kazantzidis & Manolis Hiotis - My Salonica (Thesaloniki mou)
04. Yiannis Parios - Piraeus sea (I thalasa tou Pirea)
05. Manolis Hiotis & Dimitris Gkogkos - You put a spell on me (M' ehis magemeno)
06. Stratos Pagioumtzis & Stelios Hrisinis - Girl from Faliro (Faliriotissa)
07. Keti Grey & Antonis Repanis - For the sake of the eyes I love (Gia ta matia p' agapo)
08. Poly Panou - Your eyes talk differently (Ala mou len ta matia sou)
09. Dimitris Efstathiou & Manos Papadakis - One near the other (Enas plai ston alo)
10. Stamatis Kokotas - The essential is to find her (To thema ine na ti vro)
11. Vicky Mosholiou - The evenings (Ta dilina)
12. Yiannis Ploutarhos - I am afraid only of myself (Fovame emena ke mono)
13. Katerina Kouka - With stony dreams (Me onira apentara)
14. Tolis Voskopoulos - Love needs imagination (I agapi theli fantasia)
15. Aliki Vougiouklaki - Stand up and dance syrtaki (Siko horepse syrtaki)

CD03 (46:28 | ~ 225 Mb & 107 Mb)
01. Stelios Kazantzidis & Marinella - You have grown them up (Sta heria sou megalosan)
02. Vassilis Tsitsanis & Haroula Lambraki - I don't ask who you are (Den roto pia ise)
03. Grigoris Bithikotsis & Vassilis Tsitsanis - All the rebetes in the world (Oli i rebetes tou ntounia)
04. Stamatis Kokotas - It rains (Vrehi o Theos)
05. Yiannis Ploutarhos - No other girl is like you my love (Kamia den miazi me sena matia mou)
06. Grigoris Bithikotsis & Poly Panou - Beautiful Salonika (Omorfi Thesaloniki)
07. Giorgos Zabetas - I wish that God permits (Na me axiosi o Theos)
08. Pitsa Papadopoulou - You've drawn my way (Si mou haraxes poria)
09. Ioanna Georgakopoulou & Stellakis Perpiniadis - The passatempo (O pasatempos)
10. Dimitris Gkogkos (Bayianderas) - I lived alone without love (Zousa monahos xoris agapi)
11. Dimitris Efstathiou - Work create the men (I doulia kani tous antres)
12. Aristidis Moshos - Chassapiko from Istanbul (Chassapiko politiko)
13. Vicky Mosholiou - The trains that left (Ta trena pou figan)
14. Stratos Dionysiou - Last night in the tavern (Htes to vradi stin taverna)
15. Stamatis Kokotas - The guy from the port (To pedi ap' to limani)

Exact Audio Copy V1.0 beta 3 from 29. August 2011

EAC extraction logfile from 10. February 2013, 1:35

Various Artists / Xoros st' asteria CD1

Used drive : HL-DT-STDVDRAM GH10N Adapter: 1 ID: 1

Read mode : Secure
Utilize accurate stream : Yes
Defeat audio cache : Yes
Make use of C2 pointers : No

Read offset correction : 667
Overread into Lead-In and Lead-Out : No
Fill up missing offset samples with silence : Yes
Delete leading and trailing silent blocks : No
Null samples used in CRC calculations : Yes
Used interface : Native Win32 interface for Win NT & 2000

Used output format : User Defined Encoder
Selected bitrate : 1024 kBit/s
Quality : High
Add ID3 tag : Yes
Command line compressor : C:\Program Files\Exact Audio Copy New\Flac\flac.exe
Additional command line options : -V -5 -T "artist=%artist%" -T "title=%title%" -T "album=%albumtitle%" -T "tracknumber=%tracknr2%" -T "genre=%genre%" -5 %source%


TOC of the extracted CD

Track | Start | Length | Start sector | End sector
––––––––––––––––––––––––––––-
1 | 0:00.00 | 3:55.38 | 0 | 17662
2 | 3:55.38 | 3:00.60 | 17663 | 31222
3 | 6:56.23 | 3:31.18 | 31223 | 47065
4 | 10:27.41 | 2:51.56 | 47066 | 59946
5 | 13:19.22 | 2:53.49 | 59947 | 72970
6 | 16:12.71 | 3:31.74 | 72971 | 88869
7 | 19:44.70 | 2:28.64 | 88870 | 100033
8 | 22:13.59 | 3:10.60 | 100034 | 114343
9 | 25:24.44 | 3:17.32 | 114344 | 129150
10 | 28:42.01 | 3:26.19 | 129151 | 144619
11 | 32:08.20 | 2:04.47 | 144620 | 153966
12 | 34:12.67 | 3:52.58 | 153967 | 171424
13 | 38:05.50 | 3:55.41 | 171425 | 189090
14 | 42:01.16 | 3:05.30 | 189091 | 202995
15 | 45:06.46 | 2:59.61 | 202996 | 216481


Range status and errors

Selected range

Filename S:\MUSIC\Uploaded\GREEK\DHMOKRATIA\Xoros st' asteria (3CD)\XorAster1\Various Artists - Xoros st' asteria CD1.wav

Peak level 97.6 %
Extraction speed 5.8 X
Range quality 99.9 %
Test CRC 16C99417
Copy CRC 16C99417
Copy OK

No errors occurred


AccurateRip summary

Track 1 not present in database
Track 2 not present in database
Track 3 not present in database
Track 4 not present in database
Track 5 not present in database
Track 6 not present in database
Track 7 not present in database
Track 8 not present in database
Track 9 not present in database
Track 10 not present in database
Track 11 not present in database
Track 12 not present in database
Track 13 not present in database
Track 14 not present in database
Track 15 not present in database

None of the tracks are present in the AccurateRip database

End of status report

–– CUETools DB Plugin V2.1.3

[CTDB TOCID: r2xadEKUXL7vaf_laH_N5XYY5yo-] disk not present in database, Submit result: r2xadEKUXL7vaf_laH_N5XYY5yo- has been uploaded


==== Log checksum DA7F622AC6755A760EFA0D7802091B8A2EEA2CC033BE44C56FF95291DF41D9D7 ====

Exact Audio Copy V1.0 beta 3 from 29. August 2011

EAC extraction logfile from 10. February 2013, 2:49

Various Artists / Xoros st' asteria CD2

Used drive : HL-DT-STDVDRAM GH10N Adapter: 1 ID: 1

Read mode : Secure
Utilize accurate stream : Yes
Defeat audio cache : Yes
Make use of C2 pointers : No

Read offset correction : 667
Overread into Lead-In and Lead-Out : No
Fill up missing offset samples with silence : Yes
Delete leading and trailing silent blocks : No
Null samples used in CRC calculations : Yes
Used interface : Native Win32 interface for Win NT & 2000

Used output format : User Defined Encoder
Selected bitrate : 1024 kBit/s
Quality : High
Add ID3 tag : Yes
Command line compressor : C:\Program Files\Exact Audio Copy New\Flac\flac.exe
Additional command line options : -V -5 -T "artist=%artist%" -T "title=%title%" -T "album=%albumtitle%" -T "tracknumber=%tracknr2%" -T "genre=%genre%" -5 %source%


TOC of the extracted CD

Track | Start | Length | Start sector | End sector
––––––––––––––––––––––––––––-
1 | 0:00.00 | 3:18.34 | 0 | 14883
2 | 3:18.34 | 3:13.30 | 14884 | 29388
3 | 6:31.64 | 3:14.02 | 29389 | 43940
4 | 9:45.66 | 2:48.64 | 43941 | 56604
5 | 12:34.55 | 3:16.52 | 56605 | 71356
6 | 15:51.32 | 3:23.22 | 71357 | 86603
7 | 19:14.54 | 3:22.25 | 86604 | 101778
8 | 22:37.04 | 3:07.67 | 101779 | 115870
9 | 25:44.71 | 2:45.13 | 115871 | 128258
10 | 28:30.09 | 3:15.36 | 128259 | 142919
11 | 31:45.45 | 2:42.50 | 142920 | 155119
12 | 34:28.20 | 2:42.54 | 155120 | 167323
13 | 37:10.74 | 4:10.50 | 167324 | 186123
14 | 41:21.49 | 4:02.07 | 186124 | 204280
15 | 45:23.56 | 3:17.18 | 204281 | 219073


Range status and errors

Selected range

Filename S:\MUSIC\Uploaded\GREEK\DHMOKRATIA\Xoros st' asteria (3CD)\XorAster2\Various Artists - Xoros st' asteria CD2.wav

Peak level 97.7 %
Extraction speed 1.9 X
Range quality 99.9 %
Test CRC B7974D09
Copy CRC B7974D09
Copy OK

No errors occurred


AccurateRip summary

Track 1 not present in database
Track 2 not present in database
Track 3 not present in database
Track 4 not present in database
Track 5 not present in database
Track 6 not present in database
Track 7 not present in database
Track 8 not present in database
Track 9 not present in database
Track 10 not present in database
Track 11 not present in database
Track 12 not present in database
Track 13 not present in database
Track 14 not present in database
Track 15 not present in database

None of the tracks are present in the AccurateRip database

End of status report

–– CUETools DB Plugin V2.1.3

[CTDB TOCID: GlFNPPxk3YFlHnmEin1u4zVoD40-] disk not present in database, Submit result: GlFNPPxk3YFlHnmEin1u4zVoD40- has been uploaded


==== Log checksum 1BF8F4BCD79F88FD90DBAB765427302FB028F23219155C97C634A8F92AC8F27B ====

Exact Audio Copy V1.0 beta 3 from 29. August 2011

EAC extraction logfile from 10. February 2013, 3:37

Various Artists / Xoros st' asteria CD3

Used drive : HL-DT-STDVDRAM GH10N Adapter: 1 ID: 1

Read mode : Secure
Utilize accurate stream : Yes
Defeat audio cache : Yes
Make use of C2 pointers : No

Read offset correction : 667
Overread into Lead-In and Lead-Out : No
Fill up missing offset samples with silence : Yes
Delete leading and trailing silent blocks : No
Null samples used in CRC calculations : Yes
Used interface : Native Win32 interface for Win NT & 2000

Used output format : User Defined Encoder
Selected bitrate : 1024 kBit/s
Quality : High
Add ID3 tag : Yes
Command line compressor : C:\Program Files\Exact Audio Copy New\Flac\flac.exe
Additional command line options : -V -5 -T "artist=%artist%" -T "title=%title%" -T "album=%albumtitle%" -T "tracknumber=%tracknr2%" -T "genre=%genre%" -5 %source%


TOC of the extracted CD

Track | Start | Length | Start sector | End sector
––––––––––––––––––––––––––––-
1 | 0:00.00 | 2:38.30 | 0 | 11879
2 | 2:38.30 | 3:24.42 | 11880 | 27221
3 | 6:02.72 | 3:36.41 | 27222 | 43462
4 | 9:39.38 | 3:15.50 | 43463 | 58137
5 | 12:55.13 | 4:10.31 | 58138 | 76918
6 | 17:05.44 | 1:41.45 | 76919 | 84538
7 | 18:47.14 | 3:10.42 | 84539 | 98830
8 | 21:57.56 | 3:35.62 | 98831 | 115017
9 | 25:33.43 | 3:06.26 | 115018 | 128993
10 | 28:39.69 | 3:12.62 | 128994 | 143455
11 | 31:52.56 | 2:16.41 | 143456 | 153696
12 | 34:09.22 | 3:19.14 | 153697 | 168635
13 | 37:28.36 | 2:53.35 | 168636 | 181645
14 | 40:21.71 | 2:59.42 | 181646 | 195112
15 | 43:21.38 | 3:06.63 | 195113 | 209125


Range status and errors

Selected range

Filename S:\MUSIC\Uploaded\GREEK\DHMOKRATIA\Xoros st' asteria (3CD)\XorAster3\Various Artists - Xoros st' asteria CD3.wav

Peak level 96.6 %
Extraction speed 1.9 X
Range quality 99.9 %
Test CRC 0B42B607
Copy CRC 0B42B607
Copy OK

No errors occurred


AccurateRip summary

Track 1 not present in database
Track 2 not present in database
Track 3 not present in database
Track 4 not present in database
Track 5 not present in database
Track 6 not present in database
Track 7 not present in database
Track 8 not present in database
Track 9 not present in database
Track 10 not present in database
Track 11 not present in database
Track 12 not present in database
Track 13 not present in database
Track 14 not present in database
Track 15 not present in database

None of the tracks are present in the AccurateRip database

End of status report

–– CUETools DB Plugin V2.1.3

[CTDB TOCID: VS68vA2oISQOF2b4Ao6.rf5FS2g-] disk not present in database, Submit result: VS68vA2oISQOF2b4Ao6.rf5FS2g- has been uploaded


==== Log checksum BAE1E021E523550483AB3CF9B8EFC3EDCDF7E93942BDF2C8A3D7A79E8143316E ====