Tags
Language
Tags
December 2022
Su Mo Tu We Th Fr Sa
27 28 29 30 1 2 3
4 5 6 7 8 9 10
11 12 13 14 15 16 17
18 19 20 21 22 23 24
25 26 27 28 29 30 31

Yannick Nézet-Séguin - The Rotterdam Philharmonic Orchestra Collection (2018)

Posted By: delpotro
Yannick Nézet-Séguin - The Rotterdam Philharmonic Orchestra Collection (2018)

Yannick Nézet-Séguin - The Rotterdam Philharmonic Orchestra Collection (2018)
EAC Rip | FLAC (tracks+log+.cue) - 1,65 Gb | MP3 CBR 320 kbps - 968 Mb | 07:02:13
Classical | Label: Deutsche Grammophon

This collection of previously unreleased live recordings celebrates the Rotterdam Philharmonic Orchestra’s centenary and the ten-year residency, from 2008 to 2018, of its principal conductor Yannick Nézet-Séguin.

The Rotterdam Philharmonic, under its long-term Principal Conductor Yannick Nezet-Seguin, is widely recognised as one of Europe’s most distinguished orchestras. Celebrated for its winning combination of passionate commitment, boundless energy and scintillating virtuosity, the orchestra has come a long way since its relatively humble beginnings in 1918 as a private ensemble whose members initially paid for the privilege of joining its ranks.

The arrival of Canadian maestro Yannick Nezet-Seguin in 2008 signalled a new golden era for the Rotterdam Philharmonic, as is evidenced by this outstanding set of recordings, captured live in the Doelen concert hall between 2011 and 2016 and collected together here for the first time by Deutsche Grammophon. At the end of 2017/18 season Nezet-Seguin assumes the role of Honorary Conductor, handing over the post of Principal to 29-year-old Lahav Shani.
Tracklist:
CD 1: Shostakovich: Symphony No.4 in C Minor, Op.43
Dmitri Shostakovich (1906 - 1975)
Symphony No. 4 in C Minor, Op. 43
1. Allegretto poco moderato 15:27
2. Presto 12:18
3. Moderato con moto 9:15
4. Largo 6:13
5. Allegro 20:09

CD 2: Mahler: Symphony No.10 In F Sharp (Unfinished) - Ed. Deryck Cooke
Gustav Mahler (1860 - 1911) - Symphony No.10 In F Sharp (Unfinished) (Ed. Deryck Cooke)
1. Adagio 25:29
2. Scherzo 11:50
3. Purgatorio 4:18
4. Scherzo 11:43
5. Finale 24:51

CD 3: Beethoven: Symphony No. 8 in F Major, Op. 93 / Tchaikovsky: Francesca da Rimini, Op.32, TH 46 / Turnage: Piano Concerto
Ludwig van Beethoven (1770 - 1827) - Symphony No. 8 in F Major, Op. 93
1. Allegro vivace e con brio 9:02
2. Allegretto scherzando 3:51
3. Tempo di menuetto 5:05
4. Allegro vivace 7:35

Peter Ilyich Tchaikovsky (1840 - 1893)
5. Francesca da Rimini, Op.32, TH 46 24:09

Mark-Anthony Turnage (1960 - )
Piano Concerto
6. 1. Rondo-Variations 5:01
Piano Concerto
7. 2. Last Lullaby for Hans 9:02
Piano Concerto
8. 3. A Grotesque Burlesque 7:58

CD 4: Bartók: Concerto For Orchestra, BB 123, Sz.116 / Dvorák: Symphony No.8 in G Major, Op.88, B.163
Béla Bartók (1881 - 1945) - Concerto For Orchestra, BB 123, Sz.116
1. Introduzione (Andante non troppo - Allegro vivace) 10:18
2. Giuoco della coppie (Allegretto scherzando) 6:47
3. Elegia (Andante, non troppo) 8:13
4. Intermezzo interrotto (Allegretto) 4:43
5. Finale (Pesante - Presto) 9:56

Antonín Dvorák (1841 - 1904) - Symphony No.8 in G Major, Op.88, B.163
6. 1. Allegro con brio 10:09
7. 2. Adagio 11:24
8. 3. Allegretto grazioso - Molto vivace 6:07
9. 4. Allegro ma non troppo 9:57

CD 5: Bruckner: Symphony No.8 In C Minor, WAB 108 - Version Robert Haas 1939
Anton Bruckner (1824 - 1896) - Symphony No.8 In C Minor, WAB 108 (Version Robert Haas 1939)
1. Allegro moderato 16:31
2. Scherzo: Allegro moderato 16:10
3. Adagio: Feierlich langsam; doch nicht schleppend 28:20

CD 6: Bruckner: Symphony No.8 In C Minor, WAB 108 - Version Robert Haas 1939 / Debussy: Nocturnes, L. 91 / Haydn: Symphony No.44 in E Minor, Hob.I:44 -"Mourning"

Anton Bruckner (1824 - 1896) - Symphony No.8 In C Minor, WAB 108 (Version Robert Haas 1939)
1. Finale: Feierlich, nicht schnell 25:49

Claude Debussy (1862 - 1918) - Nocturnes, L. 91
2. 1. Nuages. Modéré 7:50
3. 2. Fêtes. Animé et très rythmé 6:27
4. 3. Sirènes. Modérément animé 11:13
Collegium Vocale Gent, Rotterdam Philharmonic Orchestra, Yannick Nézet-Séguin

Franz Joseph Haydn (1732 - 1809) - Symphony No.44 in E Minor, Hob.I:44 -"Mourning"
5. 1. Allegro con brio 6:07
6. 2. Menuetto (Allegretto) - Canone in Diapason 4:49
7. 3. Adagio 4:35
8. 4. Finale (Presto) 3:33

Exact Audio Copy V1.3 from 2. September 2016

EAC extraction logfile from 25. July 2018, 18:40

Yannick Nézet-Séguin, Rotterdam Philharmonic Orchestra / The Rotterdam Philharmonic Orchestra Collection

Used drive : ATAPI iHAS124 F Adapter: 1 ID: 0

Read mode : Secure
Utilize accurate stream : Yes
Defeat audio cache : Yes
Make use of C2 pointers : No

Read offset correction : 6
Overread into Lead-In and Lead-Out : No
Fill up missing offset samples with silence : Yes
Delete leading and trailing silent blocks : No
Null samples used in CRC calculations : Yes
Used interface : Native Win32 interface for Win NT & 2000
Gap handling : Appended to previous track

Used output format : User Defined Encoder
Selected bitrate : 1024 kBit/s
Quality : High
Add ID3 tag : No
Command line compressor : C:\Program Files (x86)\Exact Audio Copy\FLAC\FLAC.EXE
Additional command line options : -8 -e -p -V -T "ARTIST=%artist%" -T "TITLE=%title%" -T "ALBUM=%albumtitle%" -T "DATE=%year%" -T "TRACKNUMBER=%tracknr%" -T "GENRE=%genre%" -T "PERFORMER=%albuminterpret%" -T "COMPOSER=%composer%" %haslyrics%–tag-from-file=LYRICS="%lyricsfile%"%haslyrics% -T "ALBUMARTIST=%albumartist%" -T "DISCNUMBER=%cdnumber%" -T "TOTALDISCS=%totalcds%" -T "TOTALTRACKS=%numtracks%" -T "COMMENT=%comment%" %source% -o %dest%


TOC of the extracted CD

Track | Start | Length | Start sector | End sector
––––––––––––––––––––––––––––-
1 | 0:00.00 | 15:26.57 | 0 | 69506
2 | 15:26.57 | 12:18.04 | 69507 | 124860
3 | 27:44.61 | 9:14.44 | 124861 | 166454
4 | 36:59.30 | 6:13.10 | 166455 | 194439
5 | 43:12.40 | 20:09.35 | 194440 | 285149


Track 1

Filename D:\The Rotterdam Philharmonic Orchestra Collection (2018) {DG 483 5345} [FLAC]\CD 1 - Shostakovich - Symphony No. 4\01 - Shostakovich- Symphony No. 4 - 1. Allegretto poco moderato.wav

Pre-gap length 0:00:02.00

Peak level 85.1 %
Extraction speed 6.8 X
Track quality 100.0 %
Test CRC DCEADA36
Copy CRC DCEADA36
Accurately ripped (confidence 1) [61CE66E1] (AR v2)
Copy OK

Track 2

Filename D:\The Rotterdam Philharmonic Orchestra Collection (2018) {DG 483 5345} [FLAC]\CD 1 - Shostakovich - Symphony No. 4\02 - Shostakovich- Symphony No. 4 - 1. Presto.wav

Peak level 92.8 %
Extraction speed 8.4 X
Track quality 100.0 %
Test CRC 344F4E92
Copy CRC 344F4E92
Accurately ripped (confidence 1) [57B06D60] (AR v2)
Copy OK

Track 3

Filename D:\The Rotterdam Philharmonic Orchestra Collection (2018) {DG 483 5345} [FLAC]\CD 1 - Shostakovich - Symphony No. 4\03 - Shostakovich- Symphony No. 4 - 2. Moderato con moto.wav

Peak level 52.4 %
Extraction speed 9.4 X
Track quality 100.0 %
Test CRC 2AF8A9D3
Copy CRC 2AF8A9D3
Accurately ripped (confidence 1) [6F6C4A50] (AR v2)
Copy OK

Track 4

Filename D:\The Rotterdam Philharmonic Orchestra Collection (2018) {DG 483 5345} [FLAC]\CD 1 - Shostakovich - Symphony No. 4\04 - Shostakovich- Symphony No. 4 - 3. Largo.wav

Peak level 78.7 %
Extraction speed 8.5 X
Track quality 99.9 %
Test CRC E274EA30
Copy CRC E274EA30
Accurately ripped (confidence 1) [9ED54622] (AR v2)
Copy OK

Track 5

Filename D:\The Rotterdam Philharmonic Orchestra Collection (2018) {DG 483 5345} [FLAC]\CD 1 - Shostakovich - Symphony No. 4\05 - Shostakovich- Symphony No. 4 - 3. Allegro.wav

Peak level 97.2 %
Extraction speed 11.0 X
Track quality 99.9 %
Test CRC BA61A0CF
Copy CRC BA61A0CF
Accurately ripped (confidence 1) [0CED9E09] (AR v2)
Copy OK


All tracks accurately ripped

No errors occurred

End of status report

–– CUETools DB Plugin V2.1.6

[CTDB TOCID: FqnkprRWjFMh69AStRUYRavEBpk-] found
Submit result: FqnkprRWjFMh69AStRUYRavEBpk- has been confirmed
Track | CTDB Status
1 | (1/1) Accurately ripped
2 | (1/1) Accurately ripped
3 | (1/1) Accurately ripped
4 | (1/1) Accurately ripped
5 | (1/1) Accurately ripped


==== Log checksum 79C630A309AFB1ED1F2FC8F12A95FE8793CC362DF8490103CADD5FE22D472F51 ====

Exact Audio Copy V1.3 from 2. September 2016

EAC extraction logfile from 25. July 2018, 19:18

Yannick Nézet-Séguin, Rotterdam Philharmonic Orchestra / The Rotterdam Philharmonic Orchestra Collection

Used drive : ATAPI iHAS124 F Adapter: 1 ID: 0

Read mode : Secure
Utilize accurate stream : Yes
Defeat audio cache : Yes
Make use of C2 pointers : No

Read offset correction : 6
Overread into Lead-In and Lead-Out : No
Fill up missing offset samples with silence : Yes
Delete leading and trailing silent blocks : No
Null samples used in CRC calculations : Yes
Used interface : Native Win32 interface for Win NT & 2000
Gap handling : Appended to previous track

Used output format : User Defined Encoder
Selected bitrate : 1024 kBit/s
Quality : High
Add ID3 tag : No
Command line compressor : C:\Program Files (x86)\Exact Audio Copy\FLAC\FLAC.EXE
Additional command line options : -8 -e -p -V -T "ARTIST=%artist%" -T "TITLE=%title%" -T "ALBUM=%albumtitle%" -T "DATE=%year%" -T "TRACKNUMBER=%tracknr%" -T "GENRE=%genre%" -T "PERFORMER=%albuminterpret%" -T "COMPOSER=%composer%" %haslyrics%–tag-from-file=LYRICS="%lyricsfile%"%haslyrics% -T "ALBUMARTIST=%albumartist%" -T "DISCNUMBER=%cdnumber%" -T "TOTALDISCS=%totalcds%" -T "TOTALTRACKS=%numtracks%" -T "COMMENT=%comment%" %source% -o %dest%


TOC of the extracted CD

Track | Start | Length | Start sector | End sector
––––––––––––––––––––––––––––-
1 | 0:00.00 | 25:29.20 | 0 | 114694
2 | 25:29.20 | 11:49.68 | 114695 | 167937
3 | 37:19.13 | 4:17.59 | 167938 | 187271
4 | 41:36.72 | 11:43.09 | 187272 | 240005
5 | 53:20.06 | 24:51.34 | 240006 | 351864


Track 1

Filename D:\The Rotterdam Philharmonic Orchestra Collection (2018) {DG 483 5345} [FLAC]\CD 2 - Mahler - Symphony No. 10 (unfinished)\01 - Mahler- Symphony No. 10 (unfinished) - 1. Adagio.wav

Pre-gap length 0:00:02.00

Peak level 44.2 %
Extraction speed 7.9 X
Track quality 100.0 %
Test CRC 32FEFDE7
Copy CRC 32FEFDE7
Accurately ripped (confidence 1) [64D7F399] (AR v2)
Copy OK

Track 2

Filename D:\The Rotterdam Philharmonic Orchestra Collection (2018) {DG 483 5345} [FLAC]\CD 2 - Mahler - Symphony No. 10 (unfinished)\02 - Mahler- Symphony No. 10 (unfinished) - 2. Scherzo I.wav

Peak level 54.9 %
Extraction speed 9.3 X
Track quality 100.0 %
Test CRC 229A3280
Copy CRC 229A3280
Accurately ripped (confidence 1) [402C19A7] (AR v2)
Copy OK

Track 3

Filename D:\The Rotterdam Philharmonic Orchestra Collection (2018) {DG 483 5345} [FLAC]\CD 2 - Mahler - Symphony No. 10 (unfinished)\03 - Mahler- Symphony No. 10 (unfinished) - 3. Purgatorio.wav

Peak level 35.8 %
Extraction speed 9.6 X
Track quality 100.0 %
Test CRC 3003946B
Copy CRC 3003946B
Accurately ripped (confidence 1) [3B024E52] (AR v2)
Copy OK

Track 4

Filename D:\The Rotterdam Philharmonic Orchestra Collection (2018) {DG 483 5345} [FLAC]\CD 2 - Mahler - Symphony No. 10 (unfinished)\04 - Mahler- Symphony No. 10 (unfinished) - 4. Scherzo II.wav

Peak level 94.9 %
Extraction speed 10.9 X
Track quality 100.0 %
Test CRC 8D0529B2
Copy CRC 8D0529B2
Accurately ripped (confidence 1) [29073DDF] (AR v2)
Copy OK

Track 5

Filename D:\The Rotterdam Philharmonic Orchestra Collection (2018) {DG 483 5345} [FLAC]\CD 2 - Mahler - Symphony No. 10 (unfinished)\05 - Mahler- Symphony No. 10 (unfinished) - 5. Finale.wav

Peak level 97.7 %
Extraction speed 10.5 X
Track quality 100.0 %
Test CRC A808DE79
Copy CRC A808DE79
Accurately ripped (confidence 1) [990C4052] (AR v2)
Copy OK


All tracks accurately ripped

No errors occurred

End of status report

–– CUETools DB Plugin V2.1.6

[CTDB TOCID: iP6tjfa1OTEQyKhcp5uz740Itfw-] found
Submit result: iP6tjfa1OTEQyKhcp5uz740Itfw- has been confirmed
Track | CTDB Status
1 | (1/1) Accurately ripped
2 | (1/1) Accurately ripped
3 | (1/1) Accurately ripped
4 | (1/1) Accurately ripped
5 | (1/1) Accurately ripped


==== Log checksum 71484A59B8FD2CD84A39BF073329442C47C0D6864562D680122E733A40A8DA31 ====

Exact Audio Copy V1.3 from 2. September 2016

EAC extraction logfile from 26. July 2018, 1:47

Yannick Nézet-Séguin, Rotterdam Philharmonic Orchestra / The Rotterdam Philharmonic Orchestra Collection

Used drive : ATAPI iHAS124 F Adapter: 1 ID: 0

Read mode : Secure
Utilize accurate stream : Yes
Defeat audio cache : Yes
Make use of C2 pointers : No

Read offset correction : 6
Overread into Lead-In and Lead-Out : No
Fill up missing offset samples with silence : Yes
Delete leading and trailing silent blocks : No
Null samples used in CRC calculations : Yes
Used interface : Native Win32 interface for Win NT & 2000
Gap handling : Appended to previous track

Used output format : User Defined Encoder
Selected bitrate : 1024 kBit/s
Quality : High
Add ID3 tag : No
Command line compressor : C:\Program Files (x86)\Exact Audio Copy\FLAC\FLAC.EXE
Additional command line options : -8 -e -p -V -T "ARTIST=%artist%" -T "TITLE=%title%" -T "ALBUM=%albumtitle%" -T "DATE=%year%" -T "TRACKNUMBER=%tracknr%" -T "GENRE=%genre%" -T "PERFORMER=%albuminterpret%" -T "COMPOSER=%composer%" %haslyrics%–tag-from-file=LYRICS="%lyricsfile%"%haslyrics% -T "ALBUMARTIST=%albumartist%" -T "DISCNUMBER=%cdnumber%" -T "TOTALDISCS=%totalcds%" -T "TOTALTRACKS=%numtracks%" -T "COMMENT=%comment%" %source% -o %dest%


TOC of the extracted CD

Track | Start | Length | Start sector | End sector
––––––––––––––––––––––––––––-
1 | 0:00.00 | 9:01.40 | 0 | 40614
2 | 9:01.40 | 3:51.15 | 40615 | 57954
3 | 12:52.55 | 5:04.41 | 57955 | 80795
4 | 17:57.21 | 7:35.01 | 80796 | 114921
5 | 25:32.22 | 24:08.44 | 114922 | 223565
6 | 49:40.66 | 5:01.12 | 223566 | 246152
7 | 54:42.03 | 9:01.71 | 246153 | 286798
8 | 63:43.74 | 7:58.36 | 286799 | 322684


Track 1

Filename D:\The Rotterdam Philharmonic Orchestra Collection (2018) {DG 483 5345} [FLAC]\CD 3 - Beethoven, Tchaikovsky, Turnage\01 - Beethoven- Symphony No. 8 in F major, Op. 93- I. Allegro vivace e con brio.wav

Pre-gap length 0:00:02.00

Peak level 75.5 %
Extraction speed 6.1 X
Track quality 100.0 %
Test CRC 7E0FC9F4
Copy CRC 7E0FC9F4
Track not present in AccurateRip database
Copy OK

Track 2

Filename D:\The Rotterdam Philharmonic Orchestra Collection (2018) {DG 483 5345} [FLAC]\CD 3 - Beethoven, Tchaikovsky, Turnage\02 - Beethoven- Symphony No. 8 in F major, Op. 93- II. Allegretto scherzando.wav

Peak level 35.9 %
Extraction speed 5.9 X
Track quality 100.0 %
Test CRC B829FE9F
Copy CRC B829FE9F
Track not present in AccurateRip database
Copy OK

Track 3

Filename D:\The Rotterdam Philharmonic Orchestra Collection (2018) {DG 483 5345} [FLAC]\CD 3 - Beethoven, Tchaikovsky, Turnage\03 - Beethoven- Symphony No. 8 in F major, Op. 93- III. Tempo di menuetto.wav

Peak level 39.3 %
Extraction speed 6.2 X
Track quality 100.0 %
Test CRC FCBDFAC7
Copy CRC FCBDFAC7
Track not present in AccurateRip database
Copy OK

Track 4

Filename D:\The Rotterdam Philharmonic Orchestra Collection (2018) {DG 483 5345} [FLAC]\CD 3 - Beethoven, Tchaikovsky, Turnage\04 - Beethoven- Symphony No. 8 in F major, Op. 93- IV. Allegro vivace.wav

Peak level 67.3 %
Extraction speed 8.5 X
Track quality 100.0 %
Test CRC EED68C8E
Copy CRC EED68C8E
Track not present in AccurateRip database
Copy OK

Track 5

Filename D:\The Rotterdam Philharmonic Orchestra Collection (2018) {DG 483 5345} [FLAC]\CD 3 - Beethoven, Tchaikovsky, Turnage\05 - Tchaikovsky- Francesca da Rimini, Op. 32.wav

Peak level 97.1 %
Extraction speed 6.4 X
Track quality 100.0 %
Test CRC C532CD70
Copy CRC C532CD70
Track not present in AccurateRip database
Copy OK

Track 6

Filename D:\The Rotterdam Philharmonic Orchestra Collection (2018) {DG 483 5345} [FLAC]\CD 3 - Beethoven, Tchaikovsky, Turnage\06 - Turnage- Piano Concerto- I. Rondo-Variations.wav

Peak level 70.0 %
Extraction speed 6.4 X
Track quality 100.0 %
Test CRC D42D906A
Copy CRC D42D906A
Track not present in AccurateRip database
Copy OK

Track 7

Filename D:\The Rotterdam Philharmonic Orchestra Collection (2018) {DG 483 5345} [FLAC]\CD 3 - Beethoven, Tchaikovsky, Turnage\07 - Turnage- Piano Concerto- II. Last Lullaby for Hans.wav

Peak level 26.6 %
Extraction speed 9.5 X
Track quality 100.0 %
Test CRC B67D5350
Copy CRC B67D5350
Track not present in AccurateRip database
Copy OK

Track 8

Filename D:\The Rotterdam Philharmonic Orchestra Collection (2018) {DG 483 5345} [FLAC]\CD 3 - Beethoven, Tchaikovsky, Turnage\08 - Turnage- Piano Concerto- III. A Grotesque Burlesque.wav

Peak level 89.7 %
Extraction speed 12.0 X
Track quality 100.0 %
Test CRC 9615D9ED
Copy CRC 9615D9ED
Track not present in AccurateRip database
Copy OK


None of the tracks are present in the AccurateRip database

No errors occurred

End of status report

–– CUETools DB Plugin V2.1.6

[CTDB TOCID: UFsi.jTdf61BjElQetb0FrIMkfk-] database access error: There is an error in XML document (1, 3).


==== Log checksum A6B60A4D7DCB24AF2C7EB9E769781860D2D3BD8A2FCC5475FD254A32DDC38326 ====

Exact Audio Copy V1.3 from 2. September 2016

EAC extraction logfile from 25. July 2018, 23:24

Yannick Nézet-Séguin, Rotterdam Philharmonic Orchestra / Bartók: Concerto For Orchestra; Dvořák: Symphony No. 8

Used drive : ATAPI iHAS124 F Adapter: 1 ID: 0

Read mode : Secure
Utilize accurate stream : Yes
Defeat audio cache : Yes
Make use of C2 pointers : No

Read offset correction : 6
Overread into Lead-In and Lead-Out : No
Fill up missing offset samples with silence : Yes
Delete leading and trailing silent blocks : No
Null samples used in CRC calculations : Yes
Used interface : Native Win32 interface for Win NT & 2000
Gap handling : Appended to previous track

Used output format : User Defined Encoder
Selected bitrate : 1024 kBit/s
Quality : High
Add ID3 tag : No
Command line compressor : C:\Program Files (x86)\Exact Audio Copy\FLAC\FLAC.EXE
Additional command line options : -8 -e -p -V -T "ARTIST=%artist%" -T "TITLE=%title%" -T "ALBUM=%albumtitle%" -T "DATE=%year%" -T "TRACKNUMBER=%tracknr%" -T "GENRE=%genre%" -T "PERFORMER=%albuminterpret%" -T "COMPOSER=%composer%" %haslyrics%–tag-from-file=LYRICS="%lyricsfile%"%haslyrics% -T "ALBUMARTIST=%albumartist%" -T "DISCNUMBER=%cdnumber%" -T "TOTALDISCS=%totalcds%" -T "TOTALTRACKS=%numtracks%" -T "COMMENT=%comment%" %source% -o %dest%


TOC of the extracted CD

Track | Start | Length | Start sector | End sector
––––––––––––––––––––––––––––-
1 | 0:00.00 | 10:17.66 | 0 | 46340
2 | 10:17.66 | 6:47.24 | 46341 | 76889
3 | 17:05.15 | 8:13.24 | 76890 | 113888
4 | 25:18.39 | 4:42.65 | 113889 | 135103
5 | 30:01.29 | 9:55.63 | 135104 | 179791
6 | 39:57.17 | 10:09.29 | 179792 | 225495
7 | 50:06.46 | 11:23.38 | 225496 | 276758
8 | 61:30.09 | 6:07.24 | 276759 | 304307
9 | 67:37.33 | 9:57.24 | 304308 | 349106


Track 1

Filename D:\The Rotterdam Philharmonic Orchestra Collection (2018) {DG 483 5345} [FLAC]\CD 4 - Bartók, Dvorák\01 - Concerto for Orchestra, BB 123, Sz.116- I. Introduzione (Andante non troppo - Allegro vivace).wav

Pre-gap length 0:00:02.00

Peak level 95.2 %
Extraction speed 6.3 X
Track quality 99.9 %
Test CRC E617342D
Copy CRC E617342D
Track not present in AccurateRip database
Copy OK

Track 2

Filename D:\The Rotterdam Philharmonic Orchestra Collection (2018) {DG 483 5345} [FLAC]\CD 4 - Bartók, Dvorák\02 - Concerto for Orchestra, BB 123, Sz.116- II. Giuoco della coppie (Allegretto scherzando).wav

Peak level 24.1 %
Extraction speed 6.8 X
Track quality 99.9 %
Test CRC D02534B8
Copy CRC D02534B8
Track not present in AccurateRip database
Copy OK

Track 3

Filename D:\The Rotterdam Philharmonic Orchestra Collection (2018) {DG 483 5345} [FLAC]\CD 4 - Bartók, Dvorák\03 - Concerto for Orchestra, BB 123, Sz.116- III. Elegia (Andante, non troppo).wav

Peak level 74.9 %
Extraction speed 7.7 X
Track quality 99.9 %
Test CRC 5EC0EB66
Copy CRC 5EC0EB66
Track not present in AccurateRip database
Copy OK

Track 4

Filename D:\The Rotterdam Philharmonic Orchestra Collection (2018) {DG 483 5345} [FLAC]\CD 4 - Bartók, Dvorák\04 - Concerto for Orchestra, BB 123, Sz.116- IV. Intermezzo interrotto (Allegretto).wav

Peak level 47.9 %
Extraction speed 5.2 X
Track quality 99.9 %
Test CRC 2DA91AB4
Copy CRC 2DA91AB4
Track not present in AccurateRip database
Copy OK

Track 5

Filename D:\The Rotterdam Philharmonic Orchestra Collection (2018) {DG 483 5345} [FLAC]\CD 4 - Bartók, Dvorák\05 - Concerto for Orchestra, BB 123, Sz.116- V. Finale (Pesante - Presto).wav

Peak level 97.4 %
Extraction speed 6.5 X
Track quality 100.0 %
Test CRC 8BC02CF0
Copy CRC 8BC02CF0
Track not present in AccurateRip database
Copy OK

Track 6

Filename D:\The Rotterdam Philharmonic Orchestra Collection (2018) {DG 483 5345} [FLAC]\CD 4 - Bartók, Dvorák\06 - Symphony No. 8 in G major, Op. 88- I. Allegro con brio.wav

Peak level 88.5 %
Extraction speed 6.6 X
Track quality 100.0 %
Test CRC CA121832
Copy CRC CA121832
Track not present in AccurateRip database
Copy OK

Track 7

Filename D:\The Rotterdam Philharmonic Orchestra Collection (2018) {DG 483 5345} [FLAC]\CD 4 - Bartók, Dvorák\07 - Symphony No. 8 in G major, Op. 88- II. Adagio.wav

Peak level 67.8 %
Extraction speed 10.6 X
Track quality 100.0 %
Test CRC CFFC511B
Copy CRC CFFC511B
Track not present in AccurateRip database
Copy OK

Track 8

Filename D:\The Rotterdam Philharmonic Orchestra Collection (2018) {DG 483 5345} [FLAC]\CD 4 - Bartók, Dvorák\08 - Symphony No. 8 in G major, Op. 88- III. Allegretto grazioso - Molto vivace.wav

Peak level 39.5 %
Extraction speed 10.2 X
Track quality 100.0 %
Test CRC 35E55B46
Copy CRC 35E55B46
Track not present in AccurateRip database
Copy OK

Track 9

Filename D:\The Rotterdam Philharmonic Orchestra Collection (2018) {DG 483 5345} [FLAC]\CD 4 - Bartók, Dvorák\09 - Symphony No. 8 in G major, Op. 88- IV. Allegro ma non troppo.wav

Peak level 95.6 %
Extraction speed 10.9 X
Track quality 100.0 %
Test CRC 9472168F
Copy CRC 9472168F
Track not present in AccurateRip database
Copy OK


None of the tracks are present in the AccurateRip database

No errors occurred

End of status report

–– CUETools DB Plugin V2.1.6

[CTDB TOCID: JDV40Vrps0P0QCNKXAE6we_Kz5A-] found
Submit result: JDV40Vrps0P0QCNKXAE6we_Kz5A- has been confirmed
Track | CTDB Status
1 | (1/1) Accurately ripped
2 | (1/1) Accurately ripped
3 | (1/1) Accurately ripped
4 | (1/1) Accurately ripped
5 | (1/1) Accurately ripped
6 | (1/1) Accurately ripped
7 | (1/1) Accurately ripped
8 | (1/1) Accurately ripped
9 | (1/1) Accurately ripped


==== Log checksum E45915D7E5BE1910CCCE4118F69092E9B8A07FD59A201544C5C2D80FF89FFB08 ====

Exact Audio Copy V1.3 from 2. September 2016

EAC extraction logfile from 25. July 2018, 23:57

Yannick Nézet-Séguin, Rotterdam Philharmonic Orchestra / The Rotterdam Philharmonic Orchestra Collection

Used drive : ATAPI iHAS124 F Adapter: 1 ID: 0

Read mode : Secure
Utilize accurate stream : Yes
Defeat audio cache : Yes
Make use of C2 pointers : No

Read offset correction : 6
Overread into Lead-In and Lead-Out : No
Fill up missing offset samples with silence : Yes
Delete leading and trailing silent blocks : No
Null samples used in CRC calculations : Yes
Used interface : Native Win32 interface for Win NT & 2000
Gap handling : Appended to previous track

Used output format : User Defined Encoder
Selected bitrate : 1024 kBit/s
Quality : High
Add ID3 tag : No
Command line compressor : C:\Program Files (x86)\Exact Audio Copy\FLAC\FLAC.EXE
Additional command line options : -8 -e -p -V -T "ARTIST=%artist%" -T "TITLE=%title%" -T "ALBUM=%albumtitle%" -T "DATE=%year%" -T "TRACKNUMBER=%tracknr%" -T "GENRE=%genre%" -T "PERFORMER=%albuminterpret%" -T "COMPOSER=%composer%" %haslyrics%–tag-from-file=LYRICS="%lyricsfile%"%haslyrics% -T "ALBUMARTIST=%albumartist%" -T "DISCNUMBER=%cdnumber%" -T "TOTALDISCS=%totalcds%" -T "TOTALTRACKS=%numtracks%" -T "COMMENT=%comment%" %source% -o %dest%


TOC of the extracted CD

Track | Start | Length | Start sector | End sector
––––––––––––––––––––––––––––-
1 | 0:00.00 | 16:30.64 | 0 | 74313
2 | 16:30.64 | 16:09.48 | 74314 | 147036
3 | 32:40.37 | 28:19.49 | 147037 | 274510


Track 1

Filename D:\The Rotterdam Philharmonic Orchestra Collection (2018) {DG 483 5345} [FLAC]\CD 5 - Bruckner - Symphony No. 8\01 - Bruckner- Symphony No. 8 In C Minor - 1. Allegro moderato.wav

Pre-gap length 0:00:02.00

Peak level 81.6 %
Extraction speed 6.5 X
Track quality 100.0 %
Test CRC A7E10420
Copy CRC A7E10420
Track not present in AccurateRip database
Copy OK

Track 2

Filename D:\The Rotterdam Philharmonic Orchestra Collection (2018) {DG 483 5345} [FLAC]\CD 5 - Bruckner - Symphony No. 8\02 - Bruckner- Symphony No. 8 In C Minor - 2. Scherzo. Allegro moderato.wav

Peak level 89.4 %
Extraction speed 8.5 X
Track quality 100.0 %
Test CRC 9F570BC8
Copy CRC 9F570BC8
Track not present in AccurateRip database
Copy OK

Track 3

Filename D:\The Rotterdam Philharmonic Orchestra Collection (2018) {DG 483 5345} [FLAC]\CD 5 - Bruckner - Symphony No. 8\03 - Bruckner- Symphony No. 8 In C Minor - 3. Adagio. Feierlich langsam; doch nicht schleppend.wav

Peak level 96.3 %
Extraction speed 10.6 X
Track quality 100.0 %
Test CRC A5CDD287
Copy CRC A5CDD287
Track not present in AccurateRip database
Copy OK


None of the tracks are present in the AccurateRip database

No errors occurred

End of status report

–– CUETools DB Plugin V2.1.6

[CTDB TOCID: 2m94iNnfu4PHrezrRDpaJq55OVU-] found
Submit result: 2m94iNnfu4PHrezrRDpaJq55OVU- has been confirmed
Track | CTDB Status
1 | (1/1) Accurately ripped
2 | (1/1) Accurately ripped
3 | (1/1) Accurately ripped


==== Log checksum 848FDC1E8D851548B58BFCAE160164F5D81FAE83A73C5803F289C48EDAFB8E49 ====

Exact Audio Copy V1.3 from 2. September 2016

EAC extraction logfile from 26. July 2018, 1:14

Yannick Nézet-Séguin, Rotterdam Philharmonic Orchestra / The Rotterdam Philharmonic Orchestra Collection

Used drive : ATAPI iHAS124 F Adapter: 1 ID: 0

Read mode : Secure
Utilize accurate stream : Yes
Defeat audio cache : Yes
Make use of C2 pointers : No

Read offset correction : 6
Overread into Lead-In and Lead-Out : No
Fill up missing offset samples with silence : Yes
Delete leading and trailing silent blocks : No
Null samples used in CRC calculations : Yes
Used interface : Native Win32 interface for Win NT & 2000
Gap handling : Appended to previous track

Used output format : User Defined Encoder
Selected bitrate : 1024 kBit/s
Quality : High
Add ID3 tag : No
Command line compressor : C:\Program Files (x86)\Exact Audio Copy\FLAC\FLAC.EXE
Additional command line options : -8 -e -p -V -T "ARTIST=%artist%" -T "TITLE=%title%" -T "ALBUM=%albumtitle%" -T "DATE=%year%" -T "TRACKNUMBER=%tracknr%" -T "GENRE=%genre%" -T "PERFORMER=%albuminterpret%" -T "COMPOSER=%composer%" %haslyrics%–tag-from-file=LYRICS="%lyricsfile%"%haslyrics% -T "ALBUMARTIST=%albumartist%" -T "DISCNUMBER=%cdnumber%" -T "TOTALDISCS=%totalcds%" -T "TOTALTRACKS=%numtracks%" -T "COMMENT=%comment%" %source% -o %dest%


TOC of the extracted CD

Track | Start | Length | Start sector | End sector
––––––––––––––––––––––––––––-
1 | 0:00.00 | 25:49.16 | 0 | 116190
2 | 25:49.16 | 7:50.32 | 116191 | 151472
3 | 33:39.48 | 6:26.60 | 151473 | 180482
4 | 40:06.33 | 11:13.36 | 180483 | 230993
5 | 51:19.69 | 6:06.57 | 230994 | 258500
6 | 57:26.51 | 4:48.63 | 258501 | 280163
7 | 62:15.39 | 4:34.63 | 280164 | 300776
8 | 66:50.27 | 3:32.45 | 300777 | 316721


Track 1

Filename D:\The Rotterdam Philharmonic Orchestra Collection (2018) {DG 483 5345} [FLAC]\CD 6 - Bruckner, Debussy, Haydn\01 - Bruckner- Symphony No. 8 in C minor- IV. Finale- Feierlich, nicht schnell.wav

Pre-gap length 0:00:02.00

Peak level 96.7 %
Extraction speed 6.9 X
Track quality 100.0 %
Test CRC B475709A
Copy CRC B475709A
Track not present in AccurateRip database
Copy OK

Track 2

Filename D:\The Rotterdam Philharmonic Orchestra Collection (2018) {DG 483 5345} [FLAC]\CD 6 - Bruckner, Debussy, Haydn\02 - Debussy- Trois Nocturnes- Trois Nocturnes- I. Nuages. Modéré.wav

Peak level 29.7 %
Extraction speed 6.2 X
Track quality 99.9 %
Test CRC 3FCDB38B
Copy CRC 3FCDB38B
Track not present in AccurateRip database
Copy OK

Track 3

Filename D:\The Rotterdam Philharmonic Orchestra Collection (2018) {DG 483 5345} [FLAC]\CD 6 - Bruckner, Debussy, Haydn\03 - Debussy- Trois Nocturnes- II. Fêtes. Animé et très rythmé.wav

Peak level 89.2 %
Extraction speed 7.1 X
Track quality 100.0 %
Test CRC 699BF36D
Copy CRC 699BF36D
Track not present in AccurateRip database
Copy OK

Track 4

Filename D:\The Rotterdam Philharmonic Orchestra Collection (2018) {DG 483 5345} [FLAC]\CD 6 - Bruckner, Debussy, Haydn\04 - Debussy- Trois Nocturnes- III. Sirènes. Modérément animé.wav

Peak level 36.9 %
Extraction speed 6.9 X
Track quality 100.0 %
Test CRC 6B61844C
Copy CRC 6B61844C
Track not present in AccurateRip database
Copy OK

Track 5

Filename D:\The Rotterdam Philharmonic Orchestra Collection (2018) {DG 483 5345} [FLAC]\CD 6 - Bruckner, Debussy, Haydn\05 - Haydn- Symphony No. 44 in E minor 'Mourning'- I. Allegro con brio.wav

Peak level 44.9 %
Extraction speed 8.5 X
Track quality 100.0 %
Test CRC A9993FAB
Copy CRC A9993FAB
Track not present in AccurateRip database
Copy OK

Track 6

Filename D:\The Rotterdam Philharmonic Orchestra Collection (2018) {DG 483 5345} [FLAC]\CD 6 - Bruckner, Debussy, Haydn\06 - Haydn- Symphony No. 44 in E minor 'Mourning'- II. Menuetto (Allegretto) - Canone in Diapason.wav

Peak level 30.8 %
Extraction speed 8.3 X
Track quality 99.9 %
Test CRC F5F13AB9
Copy CRC F5F13AB9
Track not present in AccurateRip database
Copy OK

Track 7

Filename D:\The Rotterdam Philharmonic Orchestra Collection (2018) {DG 483 5345} [FLAC]\CD 6 - Bruckner, Debussy, Haydn\07 - Haydn- Symphony No. 44 in E minor 'Mourning'- III. Adagio.wav

Peak level 20.3 %
Extraction speed 11.3 X
Track quality 100.0 %
Test CRC 3403EBA3
Copy CRC 3403EBA3
Track not present in AccurateRip database
Copy OK

Track 8

Filename D:\The Rotterdam Philharmonic Orchestra Collection (2018) {DG 483 5345} [FLAC]\CD 6 - Bruckner, Debussy, Haydn\08 - Haydn- Symphony No. 44 in E minor 'Mourning'- IV. Finale (Presto).wav

Peak level 71.6 %
Extraction speed 11.0 X
Track quality 100.0 %
Test CRC F70B2ED1
Copy CRC F70B2ED1
Track not present in AccurateRip database
Copy OK


None of the tracks are present in the AccurateRip database

No errors occurred

End of status report

–– CUETools DB Plugin V2.1.6

[CTDB TOCID: AwJLZSG7R4EAyxKNtxZu4lZ.QQ4-] database access error: There is an error in XML document (1, 3).


==== Log checksum E07640C18F5172AB05437ACB3E4DD9506D12CA7270B03146E34E015C4E2EC122 ====

Thanks to the Original ripper Jiboom !