Subcategories

Yes - High Vibration: SACD Box (Japanese 16 Discs Box Set, 2013) RE-UP

Posted By: perfecta
Yes - High Vibration: SACD Box (Japanese 16 Discs Box Set, 2013) RE-UP

Yes - High Vibration: SACD Box (Japanese 16 Discs Box Set, 2013)
16x EAC | FLAC Images with CUEs & LOGs - 4,93 GB | Full PNG Scans - 2,16 GB | MP3 CBR 320 Kbps - 1,59 GB
Progressive Rock | TT - 716:14 minutes | Label: Warner Music Japan | Cat. # WPCR-14663~78 | CD-layer only!

High Vibration is a limited edition 16 SACD box set, featuring the 13 albums released by English prog rock supergroup Yes, between 1968 and 1987, including live album "Yessongs". A unique 12-track bonus SACD features rare selections such "Owner of a Lonely Heart (Move Yourself Mix)" from 1991 and 1972′s "Total Mass Retain (Single version)" is also included. Everything has been newly remastered in Japan by Isao Kikuchi, and comes with a 200-page book (mostly on japanese language). Albums includes: "Yes (1969)", "Time and a Word (1970)", "The Yes Album (1971)", "Fragile (1971)", "Close to the Edge (1972)", "Yessongs (1973)", "Tales from Topographic Oceans (1973)", "Relayer (1974)", "Going for the One (1977)", "Tormato (1978)", "Drama (1980)", "90125 (1983)", and "Big Generator (1987)".

________ Yes - High Vibration: SACD Box contains: ________


Yes - High Vibration: SACD Box (Japanese 16 Discs Box Set, 2013) RE-UP

Yes - Yes (1969/2013) [WPCR-14663]
FLAC with CUE & LOG - 291 MB | 41:31 mins | MP3 CBR 320 Kbps - 94 MB

Tracks:

01. Beyond And Before
02. I See You
03. Yesterday And Today
04. Looking Around
05. Harold Land
06. Every Little Thing
07. Sweetness
08. Survival

Exact Audio Copy V1.0 beta 3 from 29. August 2011

EAC extraction logfile from 1. October 2013, 10:33

Yes / Yes (SACD Hybrid Box)

Used drive : Optiarc DVD RW AD-7280S Adapter: 5 ID: 0

Read mode : Secure
Utilize accurate stream : Yes
Defeat audio cache : Yes
Make use of C2 pointers : No

Read offset correction : 48
Overread into Lead-In and Lead-Out : No
Fill up missing offset samples with silence : Yes
Delete leading and trailing silent blocks : No
Null samples used in CRC calculations : Yes
Used interface : Native Win32 interface for Win NT & 2000

Used output format : Internal WAV Routines
Sample format : 44.100 Hz; 16 Bit; Stereo


TOC of the extracted CD

Track | Start | Length | Start sector | End sector
––––––––––––––––––––––––––––-
1 | 0:00.00 | 4:59.47 | 0 | 22471
2 | 4:59.47 | 6:54.51 | 22472 | 53572
3 | 11:54.23 | 2:53.54 | 53573 | 66601
4 | 14:48.02 | 4:10.41 | 66602 | 85392
5 | 18:58.43 | 5:46.35 | 85393 | 111377
6 | 24:45.03 | 5:45.66 | 111378 | 137318
7 | 30:30.69 | 4:35.47 | 137319 | 157990
8 | 35:06.41 | 6:24.00 | 157991 | 186790


Range status and errors

Selected range

Filename C:\Users\Meijin\Desktop\Rip by ALLexxess\Yes\2013 High Vibration (16 SACD Hybrid Box Set Warner Japan)\1969 Yes\Yes - Yes (SACD Hybrid Box).wav

Peak level 100.0 %
Extraction speed 4.0 X
Range quality 100.0 %
Test CRC EACB0FAC
Copy CRC EACB0FAC
Copy OK

No errors occurred


AccurateRip summary

Track 1 not present in database
Track 2 not present in database
Track 3 not present in database
Track 4 not present in database
Track 5 not present in database
Track 6 not present in database
Track 7 not present in database
Track 8 not present in database

None of the tracks are present in the AccurateRip database

End of status report

==== Log checksum 30C14140045F6C8CA8829B9D74D105CCE30D68F75D0B8E6CB5F893EC9B8435D6 ====



_________________________________________________________________________________________

Yes - High Vibration: SACD Box (Japanese 16 Discs Box Set, 2013) RE-UP

Yes - Time And A Word (1970/2013) [WPCR-14664]
FLAC with CUE & LOG - 285 MB | 40:12 mins | MP3 CBR 320 Kbps - 91 MB

Tracks:

01. No Opportunity Necessary, No Experience Needed
02. Then
03. Everydays
04. Sweet Dreams
05. The Prophet
06. Clear Days
07. Astral Traveller
08. Time And A Word

Exact Audio Copy V1.0 beta 3 from 29. August 2011

EAC extraction logfile from 1. October 2013, 9:54

Yes / Time And A Word (SACD Hybrid Box)

Used drive : Optiarc DVD RW AD-7280S Adapter: 5 ID: 0

Read mode : Secure
Utilize accurate stream : Yes
Defeat audio cache : Yes
Make use of C2 pointers : No

Read offset correction : 48
Overread into Lead-In and Lead-Out : No
Fill up missing offset samples with silence : Yes
Delete leading and trailing silent blocks : No
Null samples used in CRC calculations : Yes
Used interface : Native Win32 interface for Win NT & 2000

Used output format : Internal WAV Routines
Sample format : 44.100 Hz; 16 Bit; Stereo


TOC of the extracted CD

Track | Start | Length | Start sector | End sector
––––––––––––––––––––––––––––-
1 | 0:00.00 | 4:52.53 | 0 | 21952
2 | 4:52.53 | 5:48.08 | 21953 | 48060
3 | 10:40.61 | 6:11.53 | 48061 | 75938
4 | 16:52.39 | 3:57.59 | 75939 | 93772
5 | 20:50.23 | 6:37.73 | 93773 | 123620
6 | 27:28.21 | 2:09.21 | 123621 | 133316
7 | 29:37.42 | 5:56.63 | 133317 | 160079
8 | 35:34.30 | 4:37.56 | 160080 | 180910


Range status and errors

Selected range

Filename C:\Users\Meijin\Desktop\Rip by ALLexxess\Yes\2013 High Vibration (16 SACD Hybrid Box Set Warner Japan)\1970 Time And A Word\Yes - Time And A Word (SACD Hybrid Box).wav

Peak level 100.0 %
Extraction speed 4.0 X
Range quality 100.0 %
Test CRC 28E33034
Copy CRC 28E33034
Copy OK

No errors occurred


AccurateRip summary

Track 1 not present in database
Track 2 not present in database
Track 3 not present in database
Track 4 not present in database
Track 5 not present in database
Track 6 not present in database
Track 7 not present in database
Track 8 not present in database

None of the tracks are present in the AccurateRip database

End of status report

==== Log checksum 3B5EDDCF959A319C169349BF9989B1D4E35F3035B3C3CDB7DD4E968A2E66869A ====



_________________________________________________________________________________________

Yes - High Vibration: SACD Box (Japanese 16 Discs Box Set, 2013) RE-UP

Yes - The Yes Album (1971/2013) [WPCR-14665]
FLAC with CUE & LOG - 289 MB | 41:50 mins | MP3 CBR 320 Kbps - 95 MB

Tracks:

01. Yours Is No Disgrace
02. The Clap
03. Starship Trooper
04. I've Seen All Good People
05. A Venture
06. Perpetual Change

Exact Audio Copy V1.0 beta 3 from 29. August 2011

EAC extraction logfile from 1. October 2013, 9:17

Yes / The Yes Album (SACD Hybrid Box)

Used drive : Optiarc DVD RW AD-7280S Adapter: 5 ID: 0

Read mode : Secure
Utilize accurate stream : Yes
Defeat audio cache : Yes
Make use of C2 pointers : No

Read offset correction : 48
Overread into Lead-In and Lead-Out : No
Fill up missing offset samples with silence : Yes
Delete leading and trailing silent blocks : No
Null samples used in CRC calculations : Yes
Used interface : Native Win32 interface for Win NT & 2000

Used output format : Internal WAV Routines
Sample format : 44.100 Hz; 16 Bit; Stereo


TOC of the extracted CD

Track | Start | Length | Start sector | End sector
––––––––––––––––––––––––––––-
1 | 0:00.00 | 9:41.41 | 0 | 43615
2 | 9:41.41 | 3:17.21 | 43616 | 58411
3 | 12:58.62 | 9:40.41 | 58412 | 101952
4 | 22:39.28 | 6:56.26 | 101953 | 133178
5 | 29:35.54 | 3:19.40 | 133179 | 148143
6 | 32:55.19 | 8:55.18 | 148144 | 188286


Range status and errors

Selected range

Filename C:\Users\Meijin\Desktop\Rip by ALLexxess\Yes\2013 High Vibration (16 SACD Hybrid Box Set Warner Japan)\1971 The Yes Album\Yes - The Yes Album (SACD Hybrid Box).wav

Peak level 100.0 %
Extraction speed 4.0 X
Range quality 100.0 %
Test CRC 59C86821
Copy CRC 59C86821
Copy OK

No errors occurred


AccurateRip summary

Track 1 not present in database
Track 2 not present in database
Track 3 not present in database
Track 4 not present in database
Track 5 not present in database
Track 6 not present in database

None of the tracks are present in the AccurateRip database

End of status report

==== Log checksum E9383E24146CD324D44B719B92D09229B7B11BE936804ED1DD5AB0E4D13E0790 ====



_________________________________________________________________________________________

Yes - High Vibration: SACD Box (Japanese 16 Discs Box Set, 2013) RE-UP

Yes - Fragile (1971/2013) [WPCR-14666]
FLAC with CUE & LOG - 295 MB | 40:57 mins | MP3 CBR 320 Kbps - 92 MB

Tracks:

01. Roundabout
02. Cans And Brahms
03. We Have Heaven
04. South Side Of The Sky
05. Five Per Cent For Nothing
06. Long Distance Runaround
07. The Fish (Schindleria Praemeturus)
08. Mood For A Day
09. Heart Of The Sunrise

Exact Audio Copy V1.0 beta 3 from 29. August 2011

EAC extraction logfile from 30. September 2013, 21:32

Yes / Fragile (SACD Hybrid Box)

Used drive : Optiarc DVD RW AD-7280S Adapter: 5 ID: 0

Read mode : Secure
Utilize accurate stream : Yes
Defeat audio cache : Yes
Make use of C2 pointers : No

Read offset correction : 48
Overread into Lead-In and Lead-Out : No
Fill up missing offset samples with silence : Yes
Delete leading and trailing silent blocks : No
Null samples used in CRC calculations : Yes
Used interface : Native Win32 interface for Win NT & 2000

Used output format : Internal WAV Routines
Sample format : 44.100 Hz; 16 Bit; Stereo


TOC of the extracted CD

Track | Start | Length | Start sector | End sector
––––––––––––––––––––––––––––-
1 | 0:00.00 | 8:31.35 | 0 | 38359
2 | 8:31.35 | 1:40.46 | 38360 | 45905
3 | 10:12.06 | 1:39.35 | 45906 | 53365
4 | 11:51.41 | 7:56.21 | 53366 | 89086
5 | 19:47.62 | 0:38.46 | 89087 | 91982
6 | 20:26.33 | 3:28.57 | 91983 | 107639
7 | 23:55.15 | 2:39.58 | 107640 | 119622
8 | 26:34.73 | 2:59.47 | 119623 | 133094
9 | 29:34.45 | 11:22.13 | 133095 | 184257


Range status and errors

Selected range

Filename C:\Users\Meijin\Desktop\Rip by ALLexxess\Yes\2013 High Vibration (16 SACD Hybrid Box Set Warner Japan)\1971 Fragile\Yes - Fragile (SACD Hybrid Box).wav

Peak level 100.0 %
Extraction speed 4.0 X
Range quality 100.0 %
Test CRC FD746EA0
Copy CRC FD746EA0
Copy OK

No errors occurred


AccurateRip summary

Track 1 not present in database
Track 2 not present in database
Track 3 not present in database
Track 4 not present in database
Track 5 not present in database
Track 6 not present in database
Track 7 not present in database
Track 8 not present in database
Track 9 not present in database

None of the tracks are present in the AccurateRip database

End of status report

==== Log checksum 2DF3C69E87691E93D715F3653DE5238FCFEDF18C6502A9CA325F169579DE81BE ====



_________________________________________________________________________________________

Yes - High Vibration: SACD Box (Japanese 16 Discs Box Set, 2013) RE-UP

Yes - Close To The Edge (1972/2013) [WPCR-14667]
FLAC with CUE & LOG - 276 MB | 37:58 mins | MP3 CBR 320 Kbps - 86 MB

Tracks:

01. Close To The Edge
02. And You And I
03. Siberian Khatru

Exact Audio Copy V1.0 beta 3 from 29. August 2011

EAC extraction logfile from 30. September 2013, 20:44

Yes / Close To The Edge (SACD Hybrid Box)

Used drive : Optiarc DVD RW AD-7280S Adapter: 5 ID: 0

Read mode : Secure
Utilize accurate stream : Yes
Defeat audio cache : Yes
Make use of C2 pointers : No

Read offset correction : 48
Overread into Lead-In and Lead-Out : No
Fill up missing offset samples with silence : Yes
Delete leading and trailing silent blocks : No
Null samples used in CRC calculations : Yes
Used interface : Native Win32 interface for Win NT & 2000

Used output format : Internal WAV Routines
Sample format : 44.100 Hz; 16 Bit; Stereo


TOC of the extracted CD

Track | Start | Length | Start sector | End sector
––––––––––––––––––––––––––––-
1 | 0:00.00 | 18:45.57 | 0 | 84431
2 | 18:45.57 | 10:13.37 | 84432 | 130443
3 | 28:59.19 | 8:58.57 | 130444 | 170850


Range status and errors

Selected range

Filename C:\Users\Meijin\Desktop\Rip by ALLexxess\Yes\2013 High Vibration (16 SACD Hybrid Box Set Warner Japan)\1972 Close To The Edge\Yes - Close To The Edge (SACD Hybrid Box).wav

Peak level 100.0 %
Extraction speed 7.5 X
Range quality 100.0 %
Test CRC EE34E60C
Copy CRC EE34E60C
Copy OK

No errors occurred


AccurateRip summary

Track 1 not present in database
Track 2 not present in database
Track 3 not present in database

None of the tracks are present in the AccurateRip database

End of status report

==== Log checksum 99B67E18F579E4A33E569ED81FCE97F789F7631F2F9B2FE520EA5CA7CC6DB3C3 ====



_________________________________________________________________________________________

Yes - High Vibration: SACD Box (Japanese 16 Discs Box Set, 2013) RE-UP

Yes - Yessongs [2CD] (1973/2013) [WPCR-14668/9]
FLAC with CUE & LOG - 939 MB | 129:07 mins | MP3 CBR 320 Kbps - 294 MB

Tracks:

CD1 -
01. Opening (Except From 'Firebird Suite')
02. Siberian Khatru
03. Heart Of The Sunrise
04. Perpetual Change
05. And You And I
06. Mood For A Day
07. Excepts From 'The Six Wives Of Henry VIII'
08. Roundabout

CD2 -
01. I've Seen All Good People
02. Long Distance Runaround / The Fish (Schindleria Praemeturus)
03. Close To The Edge
04. Yours I No Disgrace
05. Starship Trooper

Exact Audio Copy V1.0 beta 3 from 29. August 2011

EAC extraction logfile from 30. September 2013, 20:11

Yes / Yessongs CD1 (SACD Hybrid Box)

Used drive : Optiarc DVD RW AD-7280S Adapter: 5 ID: 0

Read mode : Secure
Utilize accurate stream : Yes
Defeat audio cache : Yes
Make use of C2 pointers : No

Read offset correction : 48
Overread into Lead-In and Lead-Out : No
Fill up missing offset samples with silence : Yes
Delete leading and trailing silent blocks : No
Null samples used in CRC calculations : Yes
Used interface : Native Win32 interface for Win NT & 2000

Used output format : Internal WAV Routines
Sample format : 44.100 Hz; 16 Bit; Stereo


TOC of the extracted CD

Track | Start | Length | Start sector | End sector
––––––––––––––––––––––––––––-
1 | 0:00.00 | 3:45.27 | 0 | 16901
2 | 3:45.27 | 8:53.22 | 16902 | 56898
3 | 12:38.49 | 11:20.44 | 56899 | 107942
4 | 23:59.18 | 14:14.43 | 107943 | 172035
5 | 38:13.61 | 9:38.70 | 172036 | 215455
6 | 47:52.56 | 2:53.22 | 215456 | 228452
7 | 50:46.03 | 6:32.70 | 228453 | 257922
8 | 57:18.73 | 8:29.58 | 257923 | 296155


Range status and errors

Selected range

Filename C:\Users\Meijin\Desktop\Rip by ALLexxess\Yes\2013 High Vibration (16 SACD Hybrid Box Set Warner Japan)\1973 Yessongs 2CD\CD1\Yes - Yessongs CD1 (SACD Hybrid Box).wav

Peak level 100.0 %
Extraction speed 4.5 X
Range quality 100.0 %
Test CRC 3955AF42
Copy CRC 3955AF42
Copy OK

No errors occurred


AccurateRip summary

Track 1 not present in database
Track 2 not present in database
Track 3 not present in database
Track 4 not present in database
Track 5 not present in database
Track 6 not present in database
Track 7 not present in database
Track 8 not present in database

None of the tracks are present in the AccurateRip database

End of status report

==== Log checksum 685676E7E5D1B91688857E959882401AD3D474321B04DF4E26C9D64A60448BFF ====


Exact Audio Copy V1.0 beta 3 from 29. August 2011

EAC extraction logfile from 30. September 2013, 19:33

Yes / Yessongs CD2 (SACD Hybrid Box)

Used drive : Optiarc DVD RW AD-7280S Adapter: 5 ID: 0

Read mode : Secure
Utilize accurate stream : Yes
Defeat audio cache : Yes
Make use of C2 pointers : No

Read offset correction : 48
Overread into Lead-In and Lead-Out : No
Fill up missing offset samples with silence : Yes
Delete leading and trailing silent blocks : No
Null samples used in CRC calculations : Yes
Used interface : Native Win32 interface for Win NT & 2000

Used output format : Internal WAV Routines
Sample format : 44.100 Hz; 16 Bit; Stereo


TOC of the extracted CD

Track | Start | Length | Start sector | End sector
––––––––––––––––––––––––––––-
1 | 0:00.00 | 7:05.62 | 0 | 31936
2 | 7:05.62 | 13:32.42 | 31937 | 92878
3 | 20:38.29 | 18:10.34 | 92879 | 174662
4 | 38:48.63 | 14:16.52 | 174663 | 238914
5 | 53:05.40 | 10:12.45 | 238915 | 284859


Range status and errors

Selected range

Filename C:\Users\Meijin\Desktop\Rip by ALLexxess\Yes\2013 High Vibration (16 SACD Hybrid Box Set Warner Japan)\1973 Yessongs 2CD\CD2\Yes - Yessongs CD2 (SACD Hybrid Box).wav

Peak level 100.0 %
Extraction speed 4.4 X
Range quality 100.0 %
Test CRC 28F54032
Copy CRC 28F54032
Copy OK

No errors occurred


AccurateRip summary

Track 1 not present in database
Track 2 not present in database
Track 3 not present in database
Track 4 not present in database
Track 5 not present in database

None of the tracks are present in the AccurateRip database

End of status report

==== Log checksum E29727CC2B051C6717053F0E9E4D5895D0E1256205307CBAA49793FEC6C6B471 ====



_________________________________________________________________________________________

Yes - High Vibration: SACD Box (Japanese 16 Discs Box Set, 2013) RE-UP

Yes - Tales From Topographic Oceans [2CD] (1973/2013) [WPCR-14670/1]
FLAC with CUE & LOG - 577 MB | 81:14 mins | MP3 CBR 320 Kbps - 186 MB

Tracks:

CD1 -
01. The Revealing Science Of God (Dance Of The Dawn)
02. The Remembering (High The Memory)

CD2 -
01. 'The Ancient' (Giants Under The Sun)
02. Ritual (Nous Sommes Du Soleil)

Exact Audio Copy V1.0 beta 3 from 29. August 2011

EAC extraction logfile from 30. September 2013, 16:19

Yes / Tales From Topographic Oceans CD1 (SACD Hybrid Box)

Used drive : Optiarc DVD RW AD-7280S Adapter: 5 ID: 0

Read mode : Secure
Utilize accurate stream : Yes
Defeat audio cache : Yes
Make use of C2 pointers : No

Read offset correction : 48
Overread into Lead-In and Lead-Out : No
Fill up missing offset samples with silence : Yes
Delete leading and trailing silent blocks : No
Null samples used in CRC calculations : Yes
Used interface : Native Win32 interface for Win NT & 2000

Used output format : Internal WAV Routines
Sample format : 44.100 Hz; 16 Bit; Stereo


TOC of the extracted CD

Track | Start | Length | Start sector | End sector
––––––––––––––––––––––––––––-
1 | 0:00.00 | 20:24.19 | 0 | 91818
2 | 20:24.19 | 20:35.64 | 91819 | 184507


Range status and errors

Selected range

Filename C:\Users\Meijin\Desktop\Rip by ALLexxess\Yes\2013 High Vibration (16 SACD Hybrid Box Set Warner Japan)\1973 Tales From Topographic Oceans 2CD\CD1\Yes - Tales From Topographic Oceans CD1 (SACD Hybrid Box).wav

Peak level 100.0 %
Extraction speed 7.3 X
Range quality 99.9 %
Test CRC 225E073E
Copy CRC 225E073E
Copy OK

No errors occurred


AccurateRip summary

Track 1 not present in database
Track 2 not present in database

None of the tracks are present in the AccurateRip database

End of status report

==== Log checksum 1BFB6C47FD27CCBFDB2FEBF595944BE5B1AEBF08C0ADC8D21CFA2968B21970FD ====


Exact Audio Copy V1.0 beta 3 from 29. August 2011

EAC extraction logfile from 30. September 2013, 15:47

Yes / Tales From Topographic Oceans CD2 (SACD Hybrid Box)

Used drive : Optiarc DVD RW AD-7280S Adapter: 5 ID: 0

Read mode : Secure
Utilize accurate stream : Yes
Defeat audio cache : Yes
Make use of C2 pointers : No

Read offset correction : 48
Overread into Lead-In and Lead-Out : No
Fill up missing offset samples with silence : Yes
Delete leading and trailing silent blocks : No
Null samples used in CRC calculations : Yes
Used interface : Native Win32 interface for Win NT & 2000

Used output format : Internal WAV Routines
Sample format : 44.100 Hz; 16 Bit; Stereo


TOC of the extracted CD

Track | Start | Length | Start sector | End sector
––––––––––––––––––––––––––––-
1 | 0:00.00 | 18:39.06 | 0 | 83930
2 | 18:39.06 | 21:34.33 | 83931 | 181013


Range status and errors

Selected range

Filename C:\Users\Meijin\Desktop\Rip by ALLexxess\Yes\2013 High Vibration (16 SACD Hybrid Box Set Warner Japan)\1973 Tales From Topographic Oceans 2CD\CD2\Yes - Tales From Topographic Oceans CD2 (SACD Hybrid Box).wav

Peak level 100.0 %
Extraction speed 7.6 X
Range quality 100.0 %
Test CRC 4F08DDA9
Copy CRC 4F08DDA9
Copy OK

No errors occurred


AccurateRip summary

Track 1 not present in database
Track 2 not present in database

None of the tracks are present in the AccurateRip database

End of status report

==== Log checksum 514AFD0572DF1D9A2CC6D8DA80F6D14D8655F78C3BAE428DB19862C52D68C6C1 ====



_________________________________________________________________________________________

Yes - High Vibration: SACD Box (Japanese 16 Discs Box Set, 2013) RE-UP

Yes - Relayer (1974/2013) [WPCR-14672]
FLAC with CUE & LOG - 273 MB | 40:34 mins | MP3 CBR 320 Kbps - 93 MB

Tracks:

01. The Gates Of Delirium
02. Sound Chaser
03. To Be Over

Exact Audio Copy V1.0 beta 3 from 29. August 2011

EAC extraction logfile from 29. September 2013, 19:28

Yes / Relayer (SACD Hybrid Box)

Used drive : Optiarc DVD RW AD-7280S Adapter: 5 ID: 0

Read mode : Secure
Utilize accurate stream : Yes
Defeat audio cache : Yes
Make use of C2 pointers : No

Read offset correction : 48
Overread into Lead-In and Lead-Out : No
Fill up missing offset samples with silence : Yes
Delete leading and trailing silent blocks : No
Null samples used in CRC calculations : Yes
Used interface : Native Win32 interface for Win NT & 2000

Used output format : Internal WAV Routines
Sample format : 44.100 Hz; 16 Bit; Stereo


TOC of the extracted CD

Track | Start | Length | Start sector | End sector
––––––––––––––––––––––––––––-
1 | 0:00.00 | 21:56.07 | 0 | 98706
2 | 21:56.07 | 9:28.13 | 98707 | 141319
3 | 31:24.20 | 9:09.51 | 141320 | 182545


Range status and errors

Selected range

Filename C:\Users\Meijin\Desktop\Rip by ALLexxess\Yes\2013 High Vibration (16 SACD Hybrid Box Set Warner Japan)\1974 Relayer\Yes - Relayer (SACD Hybrid Box).wav

Peak level 100.0 %
Extraction speed 4.0 X
Range quality 100.0 %
Test CRC 58983307
Copy CRC 58983307
Copy OK

No errors occurred


AccurateRip summary

Track 1 not present in database
Track 2 not present in database
Track 3 not present in database

None of the tracks are present in the AccurateRip database

End of status report

==== Log checksum 2CE7B31126C52105463302DCA19608A33D2488994AC7F3CCAA5A19DA001DC621 ====



_________________________________________________________________________________________

Yes - High Vibration: SACD Box (Japanese 16 Discs Box Set, 2013) RE-UP

Yes - Going For The One (1977/2013) [WPCR-14673]
FLAC with CUE & LOG - 258 MB | 38:42 mins | MP3 CBR 320 Kbps - 90 MB

Tracks:

01. Going For The One
02. Turn Of The Century
03. Parallels
04. Wonderous Stories
05. Awaken

Exact Audio Copy V1.0 beta 3 from 29. August 2011

EAC extraction logfile from 29. September 2013, 18:51

Yes / Going For The One (SACD Hybrid Box)

Used drive : Optiarc DVD RW AD-7280S Adapter: 5 ID: 0

Read mode : Secure
Utilize accurate stream : Yes
Defeat audio cache : Yes
Make use of C2 pointers : No

Read offset correction : 48
Overread into Lead-In and Lead-Out : No
Fill up missing offset samples with silence : Yes
Delete leading and trailing silent blocks : No
Null samples used in CRC calculations : Yes
Used interface : Native Win32 interface for Win NT & 2000

Used output format : Internal WAV Routines
Sample format : 44.100 Hz; 16 Bit; Stereo


TOC of the extracted CD

Track | Start | Length | Start sector | End sector
––––––––––––––––––––––––––––-
1 | 0:00.00 | 5:32.46 | 0 | 24945
2 | 5:32.46 | 7:55.02 | 24946 | 60572
3 | 13:27.48 | 5:54.44 | 60573 | 87166
4 | 19:22.17 | 3:50.29 | 87167 | 104445
5 | 23:12.46 | 15:29.65 | 104446 | 174185


Range status and errors

Selected range

Filename C:\Users\Meijin\Desktop\Rip by ALLexxess\Yes\2013 High Vibration (16 SACD Hybrid Box Set Warner Japan)\1977 Going For The One\Yes - Going For The One (SACD Hybrid Box).wav

Peak level 100.0 %
Extraction speed 7.5 X
Range quality 100.0 %
Test CRC 8CEE7CD9
Copy CRC 8CEE7CD9
Copy OK

No errors occurred


AccurateRip summary

Track 1 not present in database
Track 2 not present in database
Track 3 not present in database
Track 4 not present in database
Track 5 not present in database

None of the tracks are present in the AccurateRip database

End of status report

==== Log checksum 6105861813EB36DF970856962A4D95A0C72A631DD4D09C2504A51B6A7FF89911 ====



_________________________________________________________________________________________

Yes - High Vibration: SACD Box (Japanese 16 Discs Box Set, 2013) RE-UP

Yes - Tormato (1978/2013) [WPCR-14674]
FLAC with CUE & LOG - 264 MB | 41:29 mins | MP3 CBR 320 Kbps - 96 MB

Tracks:

01. Future Times / Rejoice
02. Don't Kill The Whale
03. Madrigal
04. Release, Release
05. Arriving Ufo
06. Circus Of Heaven
07. Onward
08. On The Silent Wings Of Freedom

Exact Audio Copy V1.0 beta 3 from 29. August 2011

EAC extraction logfile from 29. September 2013, 18:27

Yes / Tormato (SACD Hybrid Box)

Used drive : Optiarc DVD RW AD-7280S Adapter: 5 ID: 0

Read mode : Secure
Utilize accurate stream : Yes
Defeat audio cache : Yes
Make use of C2 pointers : No

Read offset correction : 48
Overread into Lead-In and Lead-Out : No
Fill up missing offset samples with silence : Yes
Delete leading and trailing silent blocks : No
Null samples used in CRC calculations : Yes
Used interface : Native Win32 interface for Win NT & 2000

Used output format : Internal WAV Routines
Sample format : 44.100 Hz; 16 Bit; Stereo


TOC of the extracted CD

Track | Start | Length | Start sector | End sector
––––––––––––––––––––––––––––-
1 | 0:00.00 | 6:48.23 | 0 | 30622
2 | 6:48.23 | 3:57.60 | 30623 | 48457
3 | 10:46.08 | 2:23.24 | 48458 | 59206
4 | 13:09.32 | 5:46.12 | 59207 | 85168
5 | 18:55.44 | 6:07.33 | 85169 | 112726
6 | 25:03.02 | 4:32.66 | 112727 | 133192
7 | 29:35.68 | 4:05.73 | 133193 | 151640
8 | 33:41.66 | 7:47.46 | 151641 | 186711


Range status and errors

Selected range

Filename C:\Users\Meijin\Desktop\Rip by ALLexxess\Yes\2013 High Vibration (16 SACD Hybrid Box Set Warner Japan)\1978 Tormato\Yes - Tormato (SACD Hybrid Box).wav

Peak level 100.0 %
Extraction speed 7.7 X
Range quality 100.0 %
Test CRC 4FA2FD57
Copy CRC 4FA2FD57
Copy OK

No errors occurred


AccurateRip summary

Track 1 not present in database
Track 2 not present in database
Track 3 not present in database
Track 4 not present in database
Track 5 not present in database
Track 6 not present in database
Track 7 not present in database
Track 8 not present in database

None of the tracks are present in the AccurateRip database

End of status report

==== Log checksum 9277DD0C72F0BC5C3ADB4DC2D1AB7B0E113341C5FCDBBBEE6929CFCBFC12C064 ====



_________________________________________________________________________________________

Yes - High Vibration: SACD Box (Japanese 16 Discs Box Set, 2013) RE-UP

Yes - Drama (1980/2013) [WPCR-14675]
FLAC with CUE & LOG - 249 MB | 36:45 mins | MP3 CBR 320 Kbps - 85 MB

Tracks:

01. Machine Messiah
02. White Car
03. Does It Really Happen
04. Into The Lens
05. Run Through The Light
06. Tempus Fugit

Exact Audio Copy V1.0 beta 3 from 29. August 2011

EAC extraction logfile from 29. September 2013, 18:01

Yes / Drama (SACD Hybrid Box)

Used drive : Optiarc DVD RW AD-7280S Adapter: 5 ID: 0

Read mode : Secure
Utilize accurate stream : Yes
Defeat audio cache : Yes
Make use of C2 pointers : No

Read offset correction : 48
Overread into Lead-In and Lead-Out : No
Fill up missing offset samples with silence : Yes
Delete leading and trailing silent blocks : No
Null samples used in CRC calculations : Yes
Used interface : Native Win32 interface for Win NT & 2000

Used output format : Internal WAV Routines
Sample format : 44.100 Hz; 16 Bit; Stereo


TOC of the extracted CD

Track | Start | Length | Start sector | End sector
––––––––––––––––––––––––––––-
1 | 0:00.00 | 10:23.68 | 0 | 46792
2 | 10:23.68 | 1:21.02 | 46793 | 52869
3 | 11:44.70 | 6:33.07 | 52870 | 82351
4 | 18:18.02 | 8:30.56 | 82352 | 120657
5 | 26:48.58 | 4:41.37 | 120658 | 141769
6 | 31:30.20 | 5:14.44 | 141770 | 165363


Range status and errors

Selected range

Filename C:\Users\Meijin\Desktop\Rip by ALLexxess\Yes\2013 High Vibration (16 SACD Hybrid Box Set Warner Japan)\1980 Drama\Yes - Drama (SACD Hybrid Box).wav

Peak level 100.0 %
Extraction speed 3.8 X
Range quality 99.9 %
Test CRC E00B3603
Copy CRC E00B3603
Copy OK

No errors occurred


AccurateRip summary

Track 1 not present in database
Track 2 not present in database
Track 3 not present in database
Track 4 not present in database
Track 5 not present in database
Track 6 not present in database

None of the tracks are present in the AccurateRip database

End of status report

==== Log checksum 638EACF97C229E532466404B81C4B45A2EEE2DABD953005D4D7AD6849AAC4E70 ====



_________________________________________________________________________________________

Yes - High Vibration: SACD Box (Japanese 16 Discs Box Set, 2013) RE-UP

Yes - 90125 (1983/2013) [WPCR-14676]
FLAC with CUE & LOG - 329 MB | 44:42 mins | MP3 CBR 320 Kbps - 102 MB

Tracks:

01. Owner Of A Lonely Heart
02. Hold On
03. It Can Happen
04. Changes
05. Cinema
06. Leave It
07. Our Song
08. City Of Love
09. Hearts

Exact Audio Copy V1.0 beta 3 from 29. August 2011

EAC extraction logfile from 29. September 2013, 17:25

Yes / 90125 (SACD Hybrid Box)

Used drive : Optiarc DVD RW AD-7280S Adapter: 5 ID: 0

Read mode : Secure
Utilize accurate stream : Yes
Defeat audio cache : Yes
Make use of C2 pointers : No

Read offset correction : 48
Overread into Lead-In and Lead-Out : No
Fill up missing offset samples with silence : Yes
Delete leading and trailing silent blocks : No
Null samples used in CRC calculations : Yes
Used interface : Native Win32 interface for Win NT & 2000

Used output format : Internal WAV Routines
Sample format : 44.100 Hz; 16 Bit; Stereo


TOC of the extracted CD

Track | Start | Length | Start sector | End sector
––––––––––––––––––––––––––––-
1 | 0:00.00 | 4:30.12 | 0 | 20261
2 | 4:30.12 | 5:17.44 | 20262 | 44080
3 | 9:47.56 | 5:28.42 | 44081 | 68722
4 | 15:16.23 | 6:20.32 | 68723 | 97254
5 | 21:36.55 | 2:06.49 | 97255 | 106753
6 | 23:43.29 | 4:12.64 | 106754 | 125717
7 | 27:56.18 | 4:17.68 | 125718 | 145060
8 | 32:14.11 | 4:51.48 | 145061 | 166933
9 | 37:05.59 | 7:36.19 | 166934 | 201152


Range status and errors

Selected range

Filename C:\Users\Meijin\Desktop\Rip by ALLexxess\Yes\2013 High Vibration (16 SACD Hybrid Box Set Warner Japan)\1983 90125\Yes - 90125 (SACD Hybrid Box).wav

Peak level 100.0 %
Extraction speed 4.1 X
Range quality 100.0 %
Test CRC 309E247B
Copy CRC 309E247B
Copy OK

No errors occurred


AccurateRip summary

Track 1 not present in database
Track 2 not present in database
Track 3 not present in database
Track 4 not present in database
Track 5 not present in database
Track 6 not present in database
Track 7 not present in database
Track 8 not present in database
Track 9 not present in database

None of the tracks are present in the AccurateRip database

End of status report

==== Log checksum 58BAA6FDDDD69A51AA9E7C21BFFD2D21D0DF6F5F4558E8E9A50ACE1044A11ACF ====



_________________________________________________________________________________________

Yes - High Vibration: SACD Box (Japanese 16 Discs Box Set, 2013) RE-UP

Yes - Big Generator (1987/2013) [WPCR-14677]
FLAC with CUE & LOG - 304 MB | 43:38 mins | MP3 CBR 320 Kbps - 100 MB

Tracks:

01. Rhythm Of Love
02. Big Generator
03. Shoot High Aim Low
04. Almost Like Love
05. Love Will Find A Way
06. Final Eyes
07. I'm Running
08. Holy Lamb (Song For Harmonic Convergence)

Exact Audio Copy V1.0 beta 3 from 29. August 2011

EAC extraction logfile from 29. September 2013, 13:48

Yes / Big Generator (SACD Hybrid Box)

Used drive : Optiarc DVD RW AD-7280S Adapter: 5 ID: 0

Read mode : Secure
Utilize accurate stream : Yes
Defeat audio cache : Yes
Make use of C2 pointers : No

Read offset correction : 48
Overread into Lead-In and Lead-Out : No
Fill up missing offset samples with silence : Yes
Delete leading and trailing silent blocks : No
Null samples used in CRC calculations : Yes
Used interface : Native Win32 interface for Win NT & 2000

Used output format : Internal WAV Routines
Sample format : 44.100 Hz; 16 Bit; Stereo


TOC of the extracted CD

Track | Start | Length | Start sector | End sector
––––––––––––––––––––––––––––-
1 | 0:00.00 | 4:47.65 | 0 | 21589
2 | 4:47.65 | 4:33.73 | 21590 | 42137
3 | 9:21.63 | 7:02.54 | 42138 | 73841
4 | 16:24.42 | 4:59.70 | 73842 | 96336
5 | 21:24.37 | 4:50.12 | 96337 | 118098
6 | 26:14.49 | 6:25.61 | 118099 | 147034
7 | 32:40.35 | 7:37.71 | 147035 | 181380
8 | 40:18.31 | 3:19.55 | 181381 | 196360


Range status and errors

Selected range

Filename C:\Users\Meijin\Desktop\Rip by ALLexxess\Yes\2013 High Vibration (16 SACD Hybrid Box Set Warner Japan)\1987 Big Generator\Yes - Big Generator (SACD Hybrid Box).wav

Peak level 100.0 %
Extraction speed 7.4 X
Range quality 99.9 %
Test CRC 95D76D07
Copy CRC 95D76D07
Copy OK

No errors occurred


AccurateRip summary

Track 1 not present in database
Track 2 not present in database
Track 3 not present in database
Track 4 not present in database
Track 5 not present in database
Track 6 not present in database
Track 7 not present in database
Track 8 not present in database

None of the tracks are present in the AccurateRip database

End of status report

==== Log checksum AE54CF294997BC526EC89CB1C6D0F961682F2D1EE3B1C8BAE67A62CBBB81DC3E ====



_________________________________________________________________________________________

Yes - High Vibration: SACD Box (Japanese 16 Discs Box Set, 2013) RE-UP

Yes - High Vibration: Bonus Disc (2013) [WPCR-14678]
FLAC with CUE & LOG - 420 MB | 57:34 mins | MP3 CBR 320 Kbps - 131 MB

Tracks:

01. Something’s Coming (Single Version / 1969 from 'Yes' Expanded & Remastered 2003)
02. Dear Father (1970 from 'Time And A Word' Expanded & Remastered 2003)
03. Roundabout (Time And A Word1972 from single ‘Roundabout’)
04. America (1972 from 'Fragile' Expanded & Remastered 2003)
05. Total Mass Retain (Single Version / 1972 from 'Close To The Edge' Expanded & Remastered 2003)
06. Soon (Single Version / 1975 from 'Relayer' Expanded & Remastered 2003)
07. Abilene (1978 from 'Tormato' Expanded & Remastered 2004)
08. Run Through The Light (Single Version / 1980 from 'Drama' Expanded & Remastered 2004)
09. Run With The Fox (1981 from 'Yesyears')
10. Owner Of A Lonely Heart (Move Yourself Mix / 1991 from 12'' single 'Owner Of A Lonely Heart')
11. Leave It (Remix / 1983 from '90125' Expanded & Remastered 2004)
12. Big Generator (Remix / 1987 from 'Ultimate Yes: The 35th Anniversary')

Exact Audio Copy V1.0 beta 3 from 29. August 2011

EAC extraction logfile from 29. September 2013, 13:10

Yes / High Vibration Bonus Disc

Used drive : PLEXTOR BD-R PX-B950SA Adapter: 6 ID: 0

Read mode : Secure
Utilize accurate stream : Yes
Defeat audio cache : Yes
Make use of C2 pointers : No

Read offset correction : 6
Overread into Lead-In and Lead-Out : No
Fill up missing offset samples with silence : Yes
Delete leading and trailing silent blocks : No
Null samples used in CRC calculations : Yes
Used interface : Native Win32 interface for Win NT & 2000

Used output format : Internal WAV Routines
Sample format : 44.100 Hz; 16 Bit; Stereo


TOC of the extracted CD

Track | Start | Length | Start sector | End sector
––––––––––––––––––––––––––––-
1 | 0:00.00 | 7:08.16 | 0 | 32115
2 | 7:08.16 | 4:13.09 | 32116 | 51099
3 | 11:21.25 | 3:29.56 | 51100 | 66830
4 | 14:51.06 | 10:31.48 | 66831 | 114203
5 | 25:22.54 | 3:20.01 | 114204 | 129204
6 | 28:42.55 | 4:14.49 | 129205 | 148303
7 | 32:57.29 | 3:59.45 | 148304 | 166273
8 | 36:56.74 | 4:28.57 | 166274 | 186430
9 | 41:25.56 | 4:10.42 | 186431 | 205222
10 | 45:36.23 | 4:24.20 | 205223 | 225042
11 | 50:00.43 | 3:54.13 | 225043 | 242605
12 | 53:54.56 | 3:39.43 | 242606 | 259073


Range status and errors

Selected range

Filename C:\Users\Meijin\Desktop\Rip by ALLexxess\Yes\2013 High Vibration (16 SACD Hybrid Box Set Warner Japan)\2013 Bonus Disc\Yes - High Vibration Bonus Disc.wav

Peak level 100.0 %
Extraction speed 3.7 X
Range quality 100.0 %
Test CRC 0E1A55F5
Copy CRC 0E1A55F5
Copy OK

No errors occurred


AccurateRip summary

Track 1 not present in database
Track 2 not present in database
Track 3 not present in database
Track 4 not present in database
Track 5 not present in database
Track 6 not present in database
Track 7 not present in database
Track 8 not present in database
Track 9 not present in database
Track 10 not present in database
Track 11 not present in database
Track 12 not present in database

None of the tracks are present in the AccurateRip database

End of status report

==== Log checksum B16248AEABBA973A5876B4E2E81892068B9787311C6CD577623B25457917A185 ====


(P) 2013 Warner Music Japan. Mastering Engineer: Isao Kikuchi (Mixer's Lab).
Dynamic range(s): 8 / 8 / 9 / 7 / 8 / 9 & 8 / 7 & 7 / 7 / 8 / 9 / 7 / 7 / 8 / 8.
all thanks goes to ALLexxess!

See also: YES - The Band Members Solo Albums Collection (6x SHM-CD 2011)


Yes - Yes (WPCR-14663)
FLAC | Scans | MP3 320

Yes - Time And A Word (WPCR-14664)
FLAC | Scans | MP3 320

Yes - The Yes Album (WPCR-14665)
FLAC | Scans | MP3 320

Yes - Fragile (WPCR-14666)
FLAC | Scans | MP3 320

Yes - Close To The Edge (WPCR-14667)
FLAC | Scans | MP3 320

Yes - Yessongs [2CD] (WPCR-14668~9)
FLAC disc 1 | FLAC disc 2
MP3 320 d1 | MP3 320 d2
Scans

Yes - Tales From Topographic Oceans [2CD] (WPCR-14670~1)
FLAC disc 1 | FLAC disc 2
MP3 320 d1 | MP3 320 d2
Scans

Yes - Relayer (WPCR-14672)
FLAC | Scans | MP3 320

Yes - Going For The One (WPCR-14673)
FLAC | Scans | MP3 320

Yes - Tormato (WPCR-14674)
FLAC | Scans | MP3 320

Yes - Drama (WPCR-14675)
FLAC | Scans | MP3 320

Yes - 90125 (WPCR-14676)
FLAC | Scans | MP3 320

Yes - Big Generator (WPCR-14677)
FLAC | Scans | MP3 320

Yes - High Vibration: Bonus Disc (WPCR-14678)
FLAC | Scans | MP3 320

Scans Of The Box/Thick Booklet


Yes - Yes (WPCR-14663)
FLAC | Scans | MP3 320

Yes - Time And A Word (WPCR-14664)
FLAC | Scans | MP3 320

Yes - The Yes Album (WPCR-14665)
FLAC | Scans | MP3 320

Yes - Fragile (WPCR-14666)
FLAC | Scans | MP3 320

Yes - Close To The Edge (WPCR-14667)
FLAC | Scans | MP3 320

Yes - Yessongs [2CD] (WPCR-14668~9)
FLAC disc 1 | FLAC disc 2
MP3 320 d1 | MP3 320 d2
Scans

Yes - Tales From Topographic Oceans [2CD] (WPCR-14670~1)
FLAC disc 1 | FLAC disc 2
MP3 320 d1 | MP3 320 d2
Scans

Yes - Relayer (WPCR-14672)
FLAC | Scans | MP3 320

Yes - Going For The One (WPCR-14673)
FLAC | Scans | MP3 320

Yes - Tormato (WPCR-14674)
FLAC | Scans | MP3 320

Yes - Drama (WPCR-14675)
FLAC | Scans | MP3 320

Yes - 90125 (WPCR-14676)
FLAC | Scans | MP3 320

Yes - Big Generator (WPCR-14677)
FLAC | Scans | MP3 320

Yes - High Vibration: Bonus Disc (WPCR-14678)
FLAC | Scans | MP3 320

Scans Of The Box/Thick Booklet