Tags
Language
Tags

Yo-Yo Ma, Stuart Duncan, Edgar Meyer, Chris Thile & Aoife O’Donovan - Not Our First Goat Rodeo (2020)

Posted By: delpotro
Yo-Yo Ma, Stuart Duncan, Edgar Meyer, Chris Thile & Aoife O’Donovan - Not Our First Goat Rodeo (2020)

Yo-Yo Ma, Stuart Duncan, Edgar Meyer, Chris Thile & Aoife O’Donovan - Not Our First Goat Rodeo (2020)
EAC Rip | FLAC (tracks+log+.cue) - 235 Mb | MP3 CBR 320 kbps - 193 Mb | 00:44:53
Classical, Chamber Jazz, Bluegrass | Label: Sony Classical

Following the success of the Grammy award-winning album ‘The Goat Rodeo Sessions’, Yo-Yo Ma, Stuart Duncan, Edgar Meyer, and Chris Thile return with their sensational new album ‘Not Our First Goat Rodeo’. ‘Not Our First Goat Rodeo’ combines the talents of the four solo artists, each a Grammy Award- winning talent in his own right, to create a singular sound that’s part composed, part improvised, and uniquely American. The music featured in this stunning album is so complex to pull off that the group likens it to a goat rodeo — an aviation term for a situation in which 100 things need to go right to avoid disaster. Both the first album and the new recording also feature the voice and artistry of singer-songwriter and fellow Grammy Award-winner Aoife O’Donovan, who joins the group as a guest on ‘Not Our First Goat Rodeo’.
Tracklist:
1. Yo-Yo Ma, Stuart Duncan, Edgar Meyer & Chris Thile – Your Coffee is a Disaster (04:40)
2. Yo-Yo Ma, Stuart Duncan, Edgar Meyer & Chris Thile – Waltz Whitman (03:44)
3. Yo-Yo Ma, Stuart Duncan, Edgar Meyer, Chris Thile & Aoife O'Donovan – The Trappings (03:39)
4. Yo-Yo Ma, Stuart Duncan, Edgar Meyer, Chris Thile & Aoife O'Donovan – Every Note a Pearl (04:37)
5. Yo-Yo Ma, Stuart Duncan, Edgar Meyer & Chris Thile – Not For Lack of Trying (05:09)
6. Yo-Yo Ma, Stuart Duncan, Edgar Meyer & Chris Thile – Voila! (03:11)
7. Yo-Yo Ma, Stuart Duncan, Edgar Meyer & Chris Thile – Scarcely Cricket (04:46)
8. Yo-Yo Ma, Stuart Duncan, Edgar Meyer, Chris Thile & Aoife O'Donovan – We Were Animals (05:22)
9. Yo-Yo Ma, Stuart Duncan, Edgar Meyer & Chris Thile – Nebbia (04:31)
10. Yo-Yo Ma, Stuart Duncan, Edgar Meyer & Chris Thile – 757 ml (05:08)

Exact Audio Copy V1.3 from 2. September 2016

EAC extraction logfile from 27. December 2020, 1:46

Yo‐Yo Ma, Stuart Duncan, Edgar Meyer & Chris Thile / Not Our First Goat Rodeo

Used drive : HL-DT-STDVDRAM GP55EX70 Adapter: 1 ID: 0

Read mode : Secure
Utilize accurate stream : Yes
Defeat audio cache : Yes
Make use of C2 pointers : No

Read offset correction : 6
Overread into Lead-In and Lead-Out : No
Fill up missing offset samples with silence : Yes
Delete leading and trailing silent blocks : No
Null samples used in CRC calculations : Yes
Used interface : Native Win32 interface for Win NT & 2000
Gap handling : Appended to previous track

Used output format : User Defined Encoder
Selected bitrate : 1024 kBit/s
Quality : High
Add ID3 tag : No
Command line compressor : C:\Program Files (x86)\Exact Audio Copy\Flac\flac.exe
Additional command line options : -8 -e -p -V -T "ARTIST=%artist%" -T "TITLE=%title%" -T "ALBUM=%albumtitle%" -T "DATE=%year%" -T "TRACKNUMBER=%tracknr%" -T "GENRE=%genre%" -T "PERFORMER=%albuminterpret%" -T "COMPOSER=%composer%" %haslyrics%–tag-from-file=LYRICS="%lyricsfile%"%haslyrics% -T "ALBUMARTIST=%albumartist%" -T "DISCNUMBER=%cdnumber%" -T "TOTALDISCS=%totalcds%" -T "TOTALTRACKS=%numtracks%" -T "COMMENT=%comment%" %source% -o %dest%


TOC of the extracted CD

Track | Start | Length | Start sector | End sector
––––––––––––––––––––––––––––-
1 | 0:00.00 | 4:40.61 | 0 | 21060
2 | 4:40.61 | 3:44.57 | 21061 | 37917
3 | 8:25.43 | 3:39.62 | 37918 | 54404
4 | 12:05.30 | 4:37.60 | 54405 | 75239
5 | 16:43.15 | 5:09.17 | 75240 | 98431
6 | 21:52.32 | 3:11.63 | 98432 | 112819
7 | 25:04.20 | 4:46.72 | 112820 | 134341
8 | 29:51.17 | 5:22.25 | 134342 | 158516
9 | 35:13.42 | 4:31.37 | 158517 | 178878
10 | 39:45.04 | 5:08.65 | 178879 | 202043


Track 1

Filename D:\EACRips\Yo‐Yo Ma, Stuart Duncan, Edgar Meyer & Chris Thile - Not Our First Goat Rodeo (2020) [FLAC] {Sony Classical - 19439738552}\01 - Yo‐Yo Ma, Stuart Duncan, Edgar Meyer, Chris Thile - Your Coffee is a Disaster.wav

Pre-gap length 0:00:02.00

Peak level 99.0 %
Extraction speed 1.2 X
Track quality 100.0 %
Test CRC 686A920D
Copy CRC 686A920D
Accurately ripped (confidence 16) [3276E449] (AR v2)
Copy OK

Track 2

Filename D:\EACRips\Yo‐Yo Ma, Stuart Duncan, Edgar Meyer & Chris Thile - Not Our First Goat Rodeo (2020) [FLAC] {Sony Classical - 19439738552}\02 - Yo‐Yo Ma, Stuart Duncan, Edgar Meyer, Chris Thile - Waltz Whitman.wav

Peak level 99.1 %
Extraction speed 0.9 X
Track quality 99.9 %
Test CRC ADC164BB
Copy CRC ADC164BB
Accurately ripped (confidence 16) [51B5B332] (AR v2)
Copy OK

Track 3

Filename D:\EACRips\Yo‐Yo Ma, Stuart Duncan, Edgar Meyer & Chris Thile - Not Our First Goat Rodeo (2020) [FLAC] {Sony Classical - 19439738552}\03 - Yo‐Yo Ma, Stuart Duncan, Edgar Meyer, Chris Thile feat. Aoife O’Donovan - The Trappings.wav

Peak level 99.2 %
Extraction speed 1.4 X
Track quality 100.0 %
Test CRC AD7CFB31
Copy CRC AD7CFB31
Accurately ripped (confidence 16) [1CD2AC66] (AR v2)
Copy OK

Track 4

Filename D:\EACRips\Yo‐Yo Ma, Stuart Duncan, Edgar Meyer & Chris Thile - Not Our First Goat Rodeo (2020) [FLAC] {Sony Classical - 19439738552}\04 - Yo‐Yo Ma, Stuart Duncan, Edgar Meyer, Chris Thile feat. Aoife O’Donovan - Every Note a Pearl.wav

Peak level 98.6 %
Extraction speed 1.6 X
Track quality 100.0 %
Test CRC B6F9B863
Copy CRC B6F9B863
Accurately ripped (confidence 16) [59BD020B] (AR v2)
Copy OK

Track 5

Filename D:\EACRips\Yo‐Yo Ma, Stuart Duncan, Edgar Meyer & Chris Thile - Not Our First Goat Rodeo (2020) [FLAC] {Sony Classical - 19439738552}\05 - Yo‐Yo Ma, Stuart Duncan, Edgar Meyer, Chris Thile - Not For Lack of Trying.wav

Peak level 87.8 %
Extraction speed 1.7 X
Track quality 100.0 %
Test CRC 4DE2B2F3
Copy CRC 4DE2B2F3
Accurately ripped (confidence 16) [ED412045] (AR v2)
Copy OK

Track 6

Filename D:\EACRips\Yo‐Yo Ma, Stuart Duncan, Edgar Meyer & Chris Thile - Not Our First Goat Rodeo (2020) [FLAC] {Sony Classical - 19439738552}\06 - Yo‐Yo Ma, Stuart Duncan, Edgar Meyer, Chris Thile - Voila!.wav

Peak level 92.6 %
Extraction speed 1.7 X
Track quality 100.0 %
Test CRC 38D6FF4A
Copy CRC 38D6FF4A
Accurately ripped (confidence 16) [EA8C9274] (AR v2)
Copy OK

Track 7

Filename D:\EACRips\Yo‐Yo Ma, Stuart Duncan, Edgar Meyer & Chris Thile - Not Our First Goat Rodeo (2020) [FLAC] {Sony Classical - 19439738552}\07 - Yo‐Yo Ma, Stuart Duncan, Edgar Meyer, Chris Thile - Scarcely Cricket.wav

Peak level 99.3 %
Extraction speed 1.9 X
Track quality 100.0 %
Test CRC D588ECC9
Copy CRC D588ECC9
Accurately ripped (confidence 16) [4F94F6C4] (AR v2)
Copy OK

Track 8

Filename D:\EACRips\Yo‐Yo Ma, Stuart Duncan, Edgar Meyer & Chris Thile - Not Our First Goat Rodeo (2020) [FLAC] {Sony Classical - 19439738552}\08 - Yo‐Yo Ma, Stuart Duncan, Edgar Meyer, Chris Thile feat. Aoife O’Donovan - We Were Animals.wav

Peak level 98.9 %
Extraction speed 1.6 X
Track quality 99.9 %
Test CRC 29FC51D7
Copy CRC 29FC51D7
Accurately ripped (confidence 16) [7A91AC74] (AR v2)
Copy OK

Track 9

Filename D:\EACRips\Yo‐Yo Ma, Stuart Duncan, Edgar Meyer & Chris Thile - Not Our First Goat Rodeo (2020) [FLAC] {Sony Classical - 19439738552}\09 - Yo‐Yo Ma, Stuart Duncan, Edgar Meyer, Chris Thile - Nebbia.wav

Peak level 95.4 %
Extraction speed 2.1 X
Track quality 100.0 %
Test CRC B7F36199
Copy CRC B7F36199
Accurately ripped (confidence 16) [A9744279] (AR v2)
Copy OK

Track 10

Filename D:\EACRips\Yo‐Yo Ma, Stuart Duncan, Edgar Meyer & Chris Thile - Not Our First Goat Rodeo (2020) [FLAC] {Sony Classical - 19439738552}\10 - Yo‐Yo Ma, Stuart Duncan, Edgar Meyer, Chris Thile - 757 ml.wav

Peak level 98.9 %
Extraction speed 2.2 X
Track quality 100.0 %
Test CRC 7E8ED439
Copy CRC 7E8ED439
Accurately ripped (confidence 16) [6A2022CF] (AR v2)
Copy OK


All tracks accurately ripped

No errors occurred

End of status report

–– CUETools DB Plugin V2.1.6

[CTDB TOCID: WU2hETGXXgaI.lIC6diF3Eov1XM-] found
Submit result: WU2hETGXXgaI.lIC6diF3Eov1XM- has been confirmed
Track | CTDB Status
1 | (66/66) Accurately ripped
2 | (66/66) Accurately ripped
3 | (66/66) Accurately ripped
4 | (66/66) Accurately ripped
5 | (66/66) Accurately ripped
6 | (66/66) Accurately ripped
7 | (66/66) Accurately ripped
8 | (66/66) Accurately ripped
9 | (66/66) Accurately ripped
10 | (66/66) Accurately ripped


==== Log checksum 94BC7081E14235EF538D4401D67240956027A9E9206D989187F66AF1994BDF9B ====

Thanks to the Original ripper !