Enya - The Very Best Of Enya (2009) **RE-UP**

Posted By: popsakov
Enya - The Very Best Of Enya (2009) **RE-UP**

Enya - The Very Best Of Enya (2009)
EAC Rip | FLAC (Img) + Cue + Log ~ 380 Mb | MP3 CBR320 ~ 152 Mb
Scans (PNG, 300/600 dpi) ~ 222 Mb | RAR 5% Recovery
New Age, Ambient, Celtic | Warner Bros. Records #825646852277

Comprised of 18 tracks culled from the singer/composer’s first three decades, The Very Best of Enya was pieced together by the artist herself, along with longtime collaborators Nicky and Roma Ryan. Luckily, the trio seems enamored by most of the same songs that the general public is, resulting in one of those rare “greatest-hits” collections that goes deep without depriving the listener of the essentials. With tunes like "Orinoco Flow," "Caribbean Blue," and "Book of Days" in the pot and out of the way, it’s easier to appreciate hidden gems like "Cursum Perficio," "Boadicea," "Trains and Winter Rains," and "Anywhere Is." Also notable is the inclusion of "May It Be" and a previously unreleased version of "Aníron (I Desire)," both of which originally appeared on the soundtrack for the first chapter of Peter Jackson’s beloved Lord of the Rings trilogy.
~ James Christopher Monger, All Music
Enya - The Very Best Of Enya (2009) **RE-UP**


***************

Enya - The Very Best Of Enya (2009) **RE-UP**

Enya - The Very Best Of Enya (2009) **RE-UP**

Track List:

01. Orinoco Flow [4:28]
02. Aniron (I Desire) [2:43]
03. Storms In Africa [4:05]
04. Caribbean Blue [4:00]
05. Book of Days [2:56]
06. The Celts [2:57]
07. Only Time [3:38]
08. Wild Child [3:48]
09. Water Shows the Hidden Heart [4:40]
10. Anywhere Is [4:00]
11. Cursum Perficio [4:09]
12. Amarantine [3:12]
13. Aldebaran [3:06]
14. Trains and Winter Rains [3:44]
15. Watermark [2:26]
16. Boadicea [3:32]
17. A Day Without Rain [2:37]
18. May It Be [3:31]

Exact Audio Copy V0.99 prebeta 5 from 4. May 2009

EAC uitlezen log bestand van 22. November 2009, 18:45

Enya / The Very Best of Enya

gebruikt loopwerk : TSSTcorpCDDVDW SH-S223L Adapter: 1 ID: 1

Lees mode : Veilig
Gebruik accurate stream : Ja
Audio buffer uitgeschakeld : Neen
Gebruik C2 Foutinformatie : Ja

Lees-offset correctie : 6
Overlees in Lead-In en Lead-Out : Neen
Vul ontbrekende offset samples met stiltes aan : Ja
Wis stilte blokken aan het begin en einde : Neen
Nul samples gebruikt in CRC berekeningen : Ja
Gebruik interface : Native Win32 interface voor Win NT/2000/XP

Gebruik uitgave formaat : Interne WAV Routines
Sample formaat : 44.100 Hz; 16 Bit; Stereo


TOC van de uitgelezen CD

Track | Start | Lengte | Startsector | Eindsector
––––––––––––––––––––––––––––
1 | 0:00.00 | 4:28.17 | 0 | 20116
2 | 4:28.17 | 2:43.29 | 20117 | 32370
3 | 7:11.46 | 4:04.53 | 32371 | 50723
4 | 11:16.24 | 3:59.39 | 50724 | 68687
5 | 15:15.63 | 2:55.57 | 68688 | 81869
6 | 18:11.45 | 2:57.34 | 81870 | 95178
7 | 21:09.04 | 3:38.06 | 95179 | 111534
8 | 24:47.10 | 3:47.72 | 111535 | 128631
9 | 28:35.07 | 4:39.44 | 128632 | 149600
10 | 33:14.51 | 3:59.45 | 149601 | 167570
11 | 37:14.21 | 4:08.74 | 167571 | 186244
12 | 41:23.20 | 3:12.36 | 186245 | 200680
13 | 44:35.56 | 3:06.08 | 200681 | 214638
14 | 47:41.64 | 3:43.50 | 214639 | 231413
15 | 51:25.39 | 2:25.48 | 231414 | 242336
16 | 53:51.12 | 3:32.21 | 242337 | 258257
17 | 57:23.33 | 2:36.74 | 258258 | 270031
18 | 60:00.32 | 3:31.05 | 270032 | 285861


Bereikstatus en fouten

Geselecteerd bereik

Bestandsnaam C:\Post\Enya - The Very Best Of (EAC)\Enya - The Very Best of Enya.wav

Piek niveau 99.8 %
Bereikskwaliteit 100.0 %
Kopie CRC 2318F2E2
Kopie OK

Geen fouten opgetreden

Einde van het status rapport

foobar2000 1.2.6 / Dynamic Range Meter 1.1.1
log date: 2017-07-20 01:38:32

––––––––––––––––––––––––––––––––––––––––
Analyzed: Enya / The Very Best of Enya
––––––––––––––––––––––––––––––––––––––––

DR Peak RMS Duration Track
––––––––––––––––––––––––––––––––––––––––
DR9 -0.01 dB -10.85 dB 4:28 01-Orinoco Flow
DR6 -2.03 dB -10.79 dB 2:43 02-Aniron (I Desire)
DR9 -0.01 dB -12.22 dB 4:05 03-Storms In Africa
DR9 -0.01 dB -10.96 dB 4:00 04-Caribbean Blue
DR7 -0.01 dB -10.20 dB 2:56 05-Book of Days
DR8 -0.01 dB -9.81 dB 2:57 06-The Celts
DR8 -1.00 dB -10.89 dB 3:38 07-Only Time
DR8 -0.04 dB -9.51 dB 3:48 08-Wild Child
DR8 -1.03 dB -12.33 dB 4:40 09-Water Shows the Hidden Heart
DR8 -0.01 dB -9.90 dB 4:00 10-Anywhere Is
DR8 -0.01 dB -9.84 dB 4:09 11-Cursum Perficio
DR8 -0.03 dB -10.50 dB 3:12 12-Amarantine
DR9 -0.01 dB -11.77 dB 3:06 13-Aldebaran
DR8 -1.03 dB -11.26 dB 3:44 14-Trains and Winter Rains
DR8 -0.01 dB -12.28 dB 2:26 15-Watermark
DR11 -0.01 dB -14.76 dB 3:32 16-Boadicea
DR8 -1.06 dB -11.16 dB 2:37 17-A Day Without Rain
DR10 -0.08 dB -14.29 dB 3:31 18-May It Be
––––––––––––––––––––––––––––––––––––––––

Number of tracks: 18
Official DR value: DR8

Samplerate: 44100 Hz
Channels: 2
Bits per sample: 16
Bitrate: 797 kbps
Codec: FLAC
================================================================================

[CUETools log; Date: 20.07.2017 0:52:44; Version: 2.1.5]
[CTDB TOCID: 2sQrxOL5hVcYhSqCe1F9c9dDhnE-] found.
Track | CTDB Status
1 | (647/650) Accurately ripped
2 | (648/650) Accurately ripped
3 | (647/650) Accurately ripped
4 | (649/650) Accurately ripped
5 | (650/650) Accurately ripped
6 | (649/650) Accurately ripped
7 | (648/650) Accurately ripped
8 | (648/650) Accurately ripped
9 | (648/650) Accurately ripped
10 | (649/650) Accurately ripped
11 | (646/650) Accurately ripped
12 | (644/650) Accurately ripped
13 | (648/650) Accurately ripped
14 | (646/650) Accurately ripped
15 | (647/650) Accurately ripped
16 | (649/650) Accurately ripped
17 | (648/650) Accurately ripped
18 | (640/650) Accurately ripped
[AccurateRip ID: 002aa8ec-02364151-140ee312] found.
Track [ CRC | V2 ] Status
01 [2abb7991|4275308f] (096+200/334) Accurately ripped
02 [f6b1555c|2e7ed07f] (097+200/335) Accurately ripped
03 [825be5be|a96ea33d] (095+200/333) Accurately ripped
04 [ac370a18|c0b0050b] (096+200/334) Accurately ripped
05 [09ca3a0a|981d5163] (096+200/334) Accurately ripped
06 [e0d90991|2d467944] (096+200/334) Accurately ripped
07 [fa0bb204|7c51a8ec] (095+200/333) Accurately ripped
08 [104ace63|8c0524e7] (096+200/334) Accurately ripped
09 [8696dcce|2648bf36] (096+200/333) Accurately ripped
10 [1e06134b|bdef8362] (097+200/335) Accurately ripped
11 [6a52d9c1|02d1509a] (094+200/330) Accurately ripped
12 [0026cbfe|1c9fc880] (095+200/333) Accurately ripped
13 [4966a746|9d61a2ae] (095+200/329) Accurately ripped
14 [43111178|8fe1c47e] (095+200/333) Accurately ripped
15 [2341b445|6917dd67] (094+200/332) Accurately ripped
16 [64d81e6c|b2a8451c] (095+200/332) Accurately ripped
17 [7c4e8634|985ef36c] (095+200/332) Accurately ripped
18 [26c76764|84d46f02] (092+200/329) Accurately ripped
Offsetted by -30:
01 [bc2ab869] (002/334) Accurately ripped
02 [78e65db0] (002/335) Accurately ripped
03 [e5ba92dc] (002/333) Accurately ripped
04 [031b72f0] (002/334) Accurately ripped
05 [e1bea3fe] (002/334) Accurately ripped
06 [00748483] (002/334) Accurately ripped
07 [3c8af7a8] (002/333) Accurately ripped
08 [13b7987b] (002/334) Accurately ripped
09 [4ad19688] (002/333) Accurately ripped
10 [2328ab31] (002/335) Accurately ripped
11 [bf940463] (002/330) Accurately ripped
12 [376c2a0a] (002/333) Accurately ripped
13 [a2712cea] (002/329) Accurately ripped
14 [36cabbdc] (002/333) Accurately ripped
15 [432d60d9] (002/332) Accurately ripped
16 [691666c8] (002/332) Accurately ripped
17 [c7314d3a] (002/332) Accurately ripped
18 [0a9ff058] (002/329) Accurately ripped
Offsetted by -12:
01 [cb4e5f81] (013/334) Accurately ripped
02 [2ac68be4] (013/335) Accurately ripped
03 [43b4f7ca] (013/333) Accurately ripped
04 [355f3408] (013/334) Accurately ripped
05 [2cf8cad2] (013/334) Accurately ripped
06 [ed7da125] (013/334) Accurately ripped
07 [ae3e9aac] (013/333) Accurately ripped
08 [44dcb8d3] (013/334) Accurately ripped
09 [d514c0b2] (013/333) Accurately ripped
10 [2013e9a7] (013/335) Accurately ripped
11 [f2d35135] (013/330) Accurately ripped
12 [16428b36] (013/333) Accurately ripped
13 [069e0fee] (013/329) Accurately ripped
14 [715b55a0] (013/333) Accurately ripped
15 [c99ff94d] (013/332) Accurately ripped
16 [668aa1c4] (013/332) Accurately ripped
17 [9a42d5d0] (013/332) Accurately ripped
18 [4eb79e2c] (013/329) Accurately ripped
Offsetted by -664:
01 [8a7bd771] (002/334) Accurately ripped
02 [8df1c96c] (002/335) Accurately ripped
03 [4cf1cc56] (002/333) Accurately ripped
04 [a6e56ff8] (002/334) Accurately ripped
05 [f9dada9a] (002/334) Accurately ripped
06 [47172239] (002/334) Accurately ripped
07 [ed0ca654] (002/333) Accurately ripped
08 [6d2a2543] (002/334) Accurately ripped
09 [28777416] (002/333) Accurately ripped
10 [8fae6883] (002/335) Accurately ripped
11 [96175629] (002/330) Accurately ripped
12 [1cd0cb6e] (002/333) Accurately ripped
13 [2f609b96] (000/329) No match (V2 was not tested)
14 [4473ccc8] (002/333) Accurately ripped
15 [c3a1f555] (002/332) Accurately ripped
16 [1818821c] (002/332) Accurately ripped
17 [a07265ec] (002/332) Accurately ripped
18 [1e0893f4] (002/329) Accurately ripped
Offsetted by 6:
01 [da720699] (002/334) Accurately ripped
02 [dca6ba18] (002/335) Accurately ripped
03 [a1af5cb8] (002/333) Accurately ripped
04 [67a2f520] (002/334) Accurately ripped
05 [7832f1a6] (002/334) Accurately ripped
06 [da86bdc7] (002/334) Accurately ripped
07 [1ff23db0] (002/333) Accurately ripped
08 [7601d92b] (002/334) Accurately ripped
09 [5f57eadc] (002/333) Accurately ripped
10 [1cff281d] (002/335) Accurately ripped
11 [26129e07] (000/330) No match (V2 was not tested)
12 [f518ec62] (002/333) Accurately ripped
13 [6acaf2f2] (000/329) No match (V2 was not tested)
14 [abebef64] (002/333) Accurately ripped
15 [501291c1] (002/332) Accurately ripped
16 [63fedcc0] (002/332) Accurately ripped
17 [6d545e66] (002/332) Accurately ripped
18 [92cf4c00] (002/329) Accurately ripped

Track Peak [ CRC32 ] [W/O NULL]
– 99,8 [2318F2E2] [1D803D4D]
01 99,8 [6646A525] [5DDFA8CD]
02 79,1 [10B4D97C] [975D9C77]
03 99,8 [F7013A3D] [CB180F6B]
04 99,8 [46E46CAB] [C3E628EA]
05 99,8 [F2E68216] [3EDDF942]
06 99,8 [38B8AA1D] [2269F01B]
07 89,1 [0467AF7D] [D077C723]
08 99,5 [7A394CAF] [8BE455F4]
09 88,8 [DF480368] [4D13BCA3]
10 99,8 [034CBAF1] [EDA08140]
11 99,8 [7F29F459] [558D47DE]
12 99,6 [9E041AF2] [6F450F95]
13 99,8 [F3DE49BC] [D25C929A]
14 88,8 [425430E3] [1FC72F35]
15 99,8 [59C4055F] [AEB47111]
16 99,8 [D0B05BBF] [14DE715F]
17 88,5 [23E5C950] [4696DD58]
18 99,0 [A9473835] [A25BF7BF]

Enya - The Very Best Of Enya (2009) **RE-UP**

See also:
Enya - Watermark (1988) {Reissue}

All thanks go to the original ripper(s) …

>>> My Blog <<<

Download from icerbox.com: