G.E.N.E. - Life Is A Melody (1988)

Posted By: olafweisse
G.E.N.E. - Life Is A Melody (1988)

G.E.N.E. - Life Is A Melody (1988)
(Rare original german pressing)
EAC Rip | FLAC, IMG+CUE, LOG | 286,1 MB | MP3 CBR 320 Kbps | 123,5 MB | Complete Scans (300 dpi) | 19,2 MB
Traditional Electronic, New Age | Label: New Emotional Music | Catalog Number: NEM 3004-2 | Time: 59:34 | RAR | RS.com

Первый альбом проекта G.E.N.E., переиздававшийся позднее (с другим мастерингом) под названием Canadian Lakes.


Tracklisting:

1. Good Morning Vibration 8:38
2. Life Is A Melody 3:10
3. Blooming Kiss 7:29
4. Melancholy Of Sunset 4:42
5. Taste Of Dawn 6:16
6. Beauty Of Swamp 7:49
7. Secret Of Darkness 8:09
8. High Moon In Red 4:20
9. Purling Nature And The Flute 8:53

All titles are composed, programmed, played and mixed by G.E.N.E.: Crystal Binelly and Cléo de Mallio




Exact Audio Copy V0.99 prebeta 4 from 23. January 2008

EAC extraction logfile from 10. December 2009, 14:49

G.E.N.E. / Life is a Melody

Used drive : PIONEER DVD-RW DVR-105 Adapter: 0 ID: 1

Read mode : Secure
Utilize accurate stream : Yes
Defeat audio cache : Yes
Make use of C2 pointers : No

Read offset correction : 48
Overread into Lead-In and Lead-Out : No
Fill up missing offset samples with silence : Yes
Delete leading and trailing silent blocks : No
Null samples used in CRC calculations : Yes
Used interface : Installed external ASPI interface

Used output format : User Defined Encoder
Selected bitrate : 768 kBit/s
Quality : High
Add ID3 tag : No
Command line compressor : C:\Program Files\Exact Audio Copy\Flac\flac.exe
Additional command line options : -8 -V -T "ARTIST=%a" -T "TITLE=%t" -T "ALBUM=%g" -T "DATE=%y" -T "TRACKNUMBER=%n" -T "GENRE=%m" -T "COMMENT=%e" %s -o %d

TOC of the extracted CD

Track | Start | Length | Start sector | End sector
––––––––––––––––––––––––––––-
1 | 0:00.00 | 8:38.00 | 0 | 38849
2 | 8:38.00 | 3:12.00 | 38850 | 53249
3 | 11:50.00 | 7:31.00 | 53250 | 87074
4 | 19:21.00 | 4:44.00 | 87075 | 108374
5 | 24:05.00 | 6:16.00 | 108375 | 136574
6 | 30:21.00 | 7:49.00 | 136575 | 171749
7 | 38:10.00 | 8:09.00 | 171750 | 208424
8 | 46:19.00 | 4:22.00 | 208425 | 228074
9 | 50:41.00 | 8:53.00 | 228075 | 268049

Range status and errors

Selected range

Filename C:\G.E.N.E. - Life is a Melody\G.E.N.E. - Life is a Melody.wav

Peak level 93.4 %
Range quality 99.9 %
Test CRC 2B758308
Copy CRC 2B758308
Copy OK

No errors occurred

AccurateRip summary

Track 1 not present in database
Track 2 not present in database
Track 3 not present in database
Track 4 not present in database
Track 5 not present in database
Track 6 not present in database
Track 7 not present in database
Track 8 not present in database
Track 9 not present in database

None of the tracks are present in the AccurateRip database

End of status report




G.E.N.E. Discography