Tags
Language
Tags

VA - Ovum Sampler (1997) {Ovum Recordings/Ruffhouse/Columbia} **[RE-UP]**

Posted By:
VA - Ovum Sampler (1997) {Ovum Recordings/Ruffhouse/Columbia} **[RE-UP]**

VA - Ovum Sampler (1997) {Ovum Recordings/Ruffhouse/Columbia}
EAC Rip | FLAC with CUE and log | scans | 272 mb
MP3 CBR 320kbps | RAR | 114 mb
Genre: electronica, breaks, techno, acid, soul, R&B

Ovum Sampler is the 1997 compilation released by Ruffhouse/Columbia Records. Its focus was Josh Wink's label Ovum Recordings, so it highlights that they considered hot and upcoming, including a few tracks by Wink himself, along with King Britt, who did music as Sylk 130.

VA - Ovum Sampler (1997) {Ovum Recordings/Ruffhouse/Columbia} **[RE-UP]**

1. Sylk 130 featuring Vicki Miles - The Reason (Low Down Wikit Mix)
2. Sylk 130 - Gettin' Into It (Tek 9 Remix)
3. Sylk 130 - Incident On The Couch (Full Version)
4. Wink - Are You There… (Size 9 Groove Mix)
5. Wink - New Groove
6. Jamie Myerson featuring Carol Tripp - Everything Is Gonna Be Alright
7. Jamie Myerson - Unity Gain

Exact Audio Copy V1.1 from 23. June 2015

EAC extraction logfile from 9. March 2017, 10:33

Various Artists / Ovum Sampler

Used drive : TEAC DVD-ROM DV-28SW Adapter: 1 ID: 0

Read mode : Secure
Utilize accurate stream : Yes
Defeat audio cache : Yes
Make use of C2 pointers : No

Read offset correction : 6
Overread into Lead-In and Lead-Out : No
Fill up missing offset samples with silence : Yes
Delete leading and trailing silent blocks : No
Null samples used in CRC calculations : Yes
Used interface : Native Win32 interface for Win NT & 2000
Gap handling : Appended to previous track

Used output format : Internal WAV Routines
Sample format : 44.100 Hz; 16 Bit; Stereo


TOC of the extracted CD

Track | Start | Length | Start sector | End sector
––––––––––––––––––––––––––––-
1 | 0:00.00 | 4:30.00 | 0 | 20249
2 | 4:30.00 | 3:53.42 | 20250 | 37766
3 | 8:23.42 | 7:16.50 | 37767 | 70516
4 | 15:40.17 | 7:57.58 | 70517 | 106349
5 | 23:38.00 | 8:18.00 | 106350 | 143699
6 | 31:56.00 | 4:31.00 | 143700 | 164024
7 | 36:27.00 | 5:02.20 | 164025 | 186694


Track 1

Filename C:\My Documents\My FLAC\VA - Ovum Sampler (1997) [FLAC] {Ovum Recordings, Ruffhouse, Columbia}\01 - Sylk 130 featuring Vicki Miles - The Reason (Low Down Wikit Mix).wav

Pre-gap length 0:00:02.00

Peak level 96.6 %
Extraction speed 2.8 X
Track quality 100.0 %
Test CRC E0E9FE0E
Copy CRC E0E9FE0E
Accurately ripped (confidence 5) [735B0914] (AR v2)
Copy OK

Track 2

Filename C:\My Documents\My FLAC\VA - Ovum Sampler (1997) [FLAC] {Ovum Recordings, Ruffhouse, Columbia}\02 - Sylk 130 - Gettin' Into It (Tek 9 Remix).wav

Pre-gap length 0:00:01.00

Peak level 98.8 %
Extraction speed 3.0 X
Track quality 100.0 %
Test CRC 1FB04E8D
Copy CRC 1FB04E8D
Accurately ripped (confidence 5) [AA0C1D62] (AR v2)
Copy OK

Track 3

Filename C:\My Documents\My FLAC\VA - Ovum Sampler (1997) [FLAC] {Ovum Recordings, Ruffhouse, Columbia}\03 - Sylk 130 - Incident On The Couch (Full Version).wav

Pre-gap length 0:00:00.57

Peak level 52.9 %
Extraction speed 3.3 X
Track quality 100.0 %
Test CRC 96D3D5FA
Copy CRC 96D3D5FA
Accurately ripped (confidence 5) [D929EE8C] (AR v2)
Copy OK

Track 4

Filename C:\My Documents\My FLAC\VA - Ovum Sampler (1997) [FLAC] {Ovum Recordings, Ruffhouse, Columbia}\04 - Wink - Are You There… (Size 9 Groove Mix).wav

Pre-gap length 0:00:02.00

Peak level 97.7 %
Extraction speed 3.8 X
Track quality 99.9 %
Test CRC 5EC6FC0B
Copy CRC 5EC6FC0B
Accurately ripped (confidence 5) [467DA7D4] (AR v2)
Copy OK

Track 5

Filename C:\My Documents\My FLAC\VA - Ovum Sampler (1997) [FLAC] {Ovum Recordings, Ruffhouse, Columbia}\05 - Wink - New Groove.wav

Pre-gap length 0:00:02.33

Peak level 97.7 %
Extraction speed 4.1 X
Track quality 99.9 %
Test CRC E33E3807
Copy CRC E33E3807
Accurately ripped (confidence 5) [4511FFCF] (AR v2)
Copy OK

Track 6

Filename C:\My Documents\My FLAC\VA - Ovum Sampler (1997) [FLAC] {Ovum Recordings, Ruffhouse, Columbia}\06 - Jamie Myerson featuring Carol Tripp - Everything Is Gonna Be Alright.wav

Pre-gap length 0:00:02.00

Peak level 97.7 %
Extraction speed 4.0 X
Track quality 100.0 %
Test CRC B720D008
Copy CRC B720D008
Accurately ripped (confidence 5) [2C919CB9] (AR v2)
Copy OK

Track 7

Filename C:\My Documents\My FLAC\VA - Ovum Sampler (1997) [FLAC] {Ovum Recordings, Ruffhouse, Columbia}\07 - Jamie Myerson - Unity Gain.wav

Pre-gap length 0:00:01.18

Peak level 97.7 %
Extraction speed 3.2 X
Track quality 100.0 %
Test CRC 9C42515C
Copy CRC 9C42515C
Accurately ripped (confidence 5) [50F0DC85] (AR v2)
Copy OK


All tracks accurately ripped

No errors occurred

End of status report

–– CUETools DB Plugin V2.1.6

[CTDB TOCID: L9w6kqxjl4kA3sc5Ktl7O2WS_Fs-] found
Submit result: L9w6kqxjl4kA3sc5Ktl7O2WS_Fs- has been confirmed
Track | CTDB Status
1 | (6/6) Accurately ripped
2 | (6/6) Accurately ripped
3 | (6/6) Accurately ripped
4 | (6/6) Accurately ripped
5 | (6/6) Accurately ripped
6 | (6/6) Accurately ripped
7 | (6/6) Accurately ripped


==== Log checksum F783E4474ED16D2EC32991DC1A911B7CB5808052EB86DE564E3620B6E8DF3CEC ====


VA - Ovum Sampler (1997) {Ovum Recordings/Ruffhouse/Columbia} **[RE-UP]**