Tags
Language
Tags

VA - 100 Hits Pure 80s (2016) [5CD Box Set]

Posted By: v3122
VA - 100 Hits Pure 80s (2016) [5CD Box Set]

VA - 100 Hits Pure 80s (2016)
EAC | Flac(Image) + Cue + Log & MP3 CBR 320Kbps
DMGN, 100165 | ~ 2751 or 896 Mb | Artwork(jpg) -> 23 Mb
Electronic, Hip Hop, Jazz, Rock, Funk / Soul, Pop, Stage & Screen

~ Cyndi Lauper, Hall & Oates, Alison Moyet, Belinda Carlisle, Adam & The Ants, Japan, Europe, The Psychedelic Furs, iami Sound Machine, … ~

VA - 100 Hits Pure 80s (2016):

Tracklist CD1:

01 - Cyndi Lauper - Girls Just Wanna Have Fun (00:03:51)
02 - Rick Astley - Never Gonna Give You Up (00:03:33)
03 - Altered Images - I Could Be Happy (00:03:32)
04 - Dead Or Alive - You Spin Me Round (Like A Record) (00:03:17)
05 - The Bangles - Walk Like An Egyptian (00:03:25)
06 - Nena - 99 Red Balloons (00:03:52)
07 - Prefab Sprout - The King Of Rock 'N' Roll (00:04:24)
08 - Hall & Oates - Maneater (00:04:33)
09 - A Flock Of Seagulls - I Ran (So Far Away) (00:03:42)
10 - Martika - I Feel The Earth Move (00:04:15)
11 - King - Love & Pride (00:03:23)
12 - Adam Ant - Apollo 9 (00:03:24)
13 - Joy - After The Fire (00:03:19)
14 - Haircut 100 - Favourite Shirts (00:03:06)
15 - Big Audio Dynamite - E Equals MC2 (00:04:28)
16 - Owen Paul - My Favourite Waste Of Time (00:03:24)
17 - Alison Moyet - Love Resurrection (00:03:52)
18 - Belinda Carlisle - Summer Rain (00:04:13)
19 - The Lotus Eaters - The First Picture Of You (00:03:41)
20 - The Blow Monkeys - Digging Your Scene (00:04:06)

Exact Audio Copy V1.3 from 2. September 2016

EAC extraction logfile from 8. May 2019, 21:28

Various Artists / 100 Hits Pure 80s

Used drive : PLEXTOR PX-891SAF PLUS Adapter: 1 ID: 0

Read mode : Secure
Utilize accurate stream : Yes
Defeat audio cache : Yes
Make use of C2 pointers : No

Read offset correction : 6
Overread into Lead-In and Lead-Out : No
Fill up missing offset samples with silence : Yes
Delete leading and trailing silent blocks : No
Null samples used in CRC calculations : Yes
Used interface : Native Win32 interface for Win NT & 2000
Gap handling : Appended to previous track

Used output format : User Defined Encoder
Selected bitrate : 1024 kBit/s
Quality : High
Add ID3 tag : No
Command line compressor : C:\Program Files (x86)\Exact Audio Copy\Flac\flac.exe
Additional command line options : -0 -V -T "ARTIST=%artist%" -T "TITLE=%title%" -T "ALBUM=%albumtitle%" -T "DATE=%year%" -T "TRACKNUMBER=%tracknr%" -T "TOTALTRACKS=%numtracks%" -T "GENRE=%genre%" -T "COMMENT=Naftamusic Release!" %source%


TOC of the extracted CD

Track | Start | Length | Start sector | End sector
––––––––––––––––––––––––––––-
1 | 0:00.00 | 3:51.17 | 0 | 17341
2 | 3:51.17 | 3:32.67 | 17342 | 33308
3 | 7:24.09 | 3:31.53 | 33309 | 49186
4 | 10:55.62 | 3:17.34 | 49187 | 63995
5 | 14:13.21 | 3:25.13 | 63996 | 79383
6 | 17:38.34 | 3:52.02 | 79384 | 96785
7 | 21:30.36 | 4:23.58 | 96786 | 116568
8 | 25:54.19 | 4:33.03 | 116569 | 137046
9 | 30:27.22 | 3:41.68 | 137047 | 153689
10 | 34:09.15 | 4:14.67 | 153690 | 172806
11 | 38:24.07 | 3:22.44 | 172807 | 188000
12 | 41:46.51 | 3:24.22 | 188001 | 203322
13 | 45:10.73 | 3:19.02 | 203323 | 218249
14 | 48:30.00 | 3:06.16 | 218250 | 232215
15 | 51:36.16 | 4:28.00 | 232216 | 252315
16 | 56:04.16 | 3:24.11 | 252316 | 267626
17 | 59:28.27 | 3:52.34 | 267627 | 285060
18 | 63:20.61 | 4:12.49 | 285061 | 304009
19 | 67:33.35 | 3:40.55 | 304010 | 320564
20 | 71:14.15 | 4:06.15 | 320565 | 339029


Track 1

Filename E:\Nafta Releases\VA - 100 Hits Pure 80s (5 CD 2016)[FLAC]-Naftamusic\CD 1\01 - Cyndi Lauper - Girls Just Wanna Have Fun.wav

Pre-gap length 0:00:02.00

Peak level 94.4 %
Extraction speed 2.9 X
Track quality 100.0 %
Test CRC 52ED472E
Copy CRC 52ED472E
Accurately ripped (confidence 5) [40A7ED39] (AR v2)
Copy OK

Track 2

Filename E:\Nafta Releases\VA - 100 Hits Pure 80s (5 CD 2016)[FLAC]-Naftamusic\CD 1\02 - Rick Astley - Never Gonna Give You Up.wav

Pre-gap length 0:00:00.67

Peak level 85.1 %
Extraction speed 3.1 X
Track quality 100.0 %
Test CRC F820C7BC
Copy CRC F820C7BC
Accurately ripped (confidence 5) [A6200C09] (AR v2)
Copy OK

Track 3

Filename E:\Nafta Releases\VA - 100 Hits Pure 80s (5 CD 2016)[FLAC]-Naftamusic\CD 1\03 - Altered Images - I Could Be Happy.wav

Pre-gap length 0:00:01.08

Peak level 91.2 %
Extraction speed 3.3 X
Track quality 100.0 %
Test CRC D6EC9750
Copy CRC D6EC9750
Accurately ripped (confidence 5) [A2069F8D] (AR v2)
Copy OK

Track 4

Filename E:\Nafta Releases\VA - 100 Hits Pure 80s (5 CD 2016)[FLAC]-Naftamusic\CD 1\04 - Dead Or Alive - You Spin Me Round (Like A Record).wav

Pre-gap length 0:00:01.35

Peak level 87.1 %
Extraction speed 3.5 X
Track quality 100.0 %
Test CRC F093D00A
Copy CRC F093D00A
Accurately ripped (confidence 5) [139F889D] (AR v2)
Copy OK

Track 5

Filename E:\Nafta Releases\VA - 100 Hits Pure 80s (5 CD 2016)[FLAC]-Naftamusic\CD 1\05 - The Bangles - Walk Like An Egyptian.wav

Pre-gap length 0:00:01.22

Peak level 85.1 %
Extraction speed 2.8 X
Track quality 99.9 %
Test CRC 353F8031
Copy CRC 353F8031
Accurately ripped (confidence 5) [DDEC58C7] (AR v2)
Copy OK

Track 6

Filename E:\Nafta Releases\VA - 100 Hits Pure 80s (5 CD 2016)[FLAC]-Naftamusic\CD 1\06 - Nena - 99 Red Balloons.wav

Pre-gap length 0:00:02.03

Peak level 81.2 %
Extraction speed 3.9 X
Track quality 100.0 %
Test CRC 02245292
Copy CRC 02245292
Accurately ripped (confidence 5) [CB006777] (AR v2)
Copy OK

Track 7

Filename E:\Nafta Releases\VA - 100 Hits Pure 80s (5 CD 2016)[FLAC]-Naftamusic\CD 1\07 - Prefab Sprout - The King Of Rock 'N' Roll.wav

Pre-gap length 0:00:01.56

Peak level 94.4 %
Extraction speed 4.2 X
Track quality 100.0 %
Test CRC 3F80150F
Copy CRC 3F80150F
Accurately ripped (confidence 5) [79A2222A] (AR v2)
Copy OK

Track 8

Filename E:\Nafta Releases\VA - 100 Hits Pure 80s (5 CD 2016)[FLAC]-Naftamusic\CD 1\08 - Hall & Oates - Maneater.wav

Pre-gap length 0:00:01.47

Peak level 94.4 %
Extraction speed 4.4 X
Track quality 100.0 %
Test CRC D040BD39
Copy CRC D040BD39
Accurately ripped (confidence 5) [AE6BDA6C] (AR v2)
Copy OK

Track 9

Filename E:\Nafta Releases\VA - 100 Hits Pure 80s (5 CD 2016)[FLAC]-Naftamusic\CD 1\09 - A Flock Of Seagulls - I Ran (So Far Away).wav

Pre-gap length 0:00:01.43

Peak level 88.1 %
Extraction speed 4.5 X
Track quality 100.0 %
Test CRC AF819DBC
Copy CRC AF819DBC
Accurately ripped (confidence 5) [CEC7B0AA] (AR v2)
Copy OK

Track 10

Filename E:\Nafta Releases\VA - 100 Hits Pure 80s (5 CD 2016)[FLAC]-Naftamusic\CD 1\10 - Martika - I Feel The Earth Move.wav

Pre-gap length 0:00:02.14

Peak level 94.4 %
Extraction speed 4.8 X
Track quality 100.0 %
Test CRC 006C8CAD
Copy CRC 006C8CAD
Accurately ripped (confidence 5) [EE075CE9] (AR v2)
Copy OK

Track 11

Filename E:\Nafta Releases\VA - 100 Hits Pure 80s (5 CD 2016)[FLAC]-Naftamusic\CD 1\11 - King - Love & Pride.wav

Pre-gap length 0:00:02.27

Peak level 94.4 %
Extraction speed 4.7 X
Track quality 100.0 %
Test CRC F322DDDA
Copy CRC F322DDDA
Accurately ripped (confidence 5) [FAA97A5D] (AR v2)
Copy OK

Track 12

Filename E:\Nafta Releases\VA - 100 Hits Pure 80s (5 CD 2016)[FLAC]-Naftamusic\CD 1\12 - Adam Ant - Apollo 9.wav

Pre-gap length 0:00:01.32

Peak level 94.4 %
Extraction speed 4.9 X
Track quality 100.0 %
Test CRC 10BE7889
Copy CRC 10BE7889
Accurately ripped (confidence 5) [750B4536] (AR v2)
Copy OK

Track 13

Filename E:\Nafta Releases\VA - 100 Hits Pure 80s (5 CD 2016)[FLAC]-Naftamusic\CD 1\13 - Joy - After The Fire.wav

Pre-gap length 0:00:01.41

Peak level 84.8 %
Extraction speed 5.0 X
Track quality 100.0 %
Test CRC 1D37B69C
Copy CRC 1D37B69C
Accurately ripped (confidence 5) [FE2A3F99] (AR v2)
Copy OK

Track 14

Filename E:\Nafta Releases\VA - 100 Hits Pure 80s (5 CD 2016)[FLAC]-Naftamusic\CD 1\14 - Haircut 100 - Favourite Shirts.wav

Pre-gap length 0:00:01.43

Peak level 94.4 %
Extraction speed 5.1 X
Track quality 100.0 %
Test CRC BC33212E
Copy CRC BC33212E
Accurately ripped (confidence 5) [12346097] (AR v2)
Copy OK

Track 15

Filename E:\Nafta Releases\VA - 100 Hits Pure 80s (5 CD 2016)[FLAC]-Naftamusic\CD 1\15 - Big Audio Dynamite - E Equals MC2.wav

Pre-gap length 0:00:01.58

Peak level 94.4 %
Extraction speed 5.4 X
Track quality 100.0 %
Test CRC DE1328C0
Copy CRC DE1328C0
Accurately ripped (confidence 5) [E9366A4C] (AR v2)
Copy OK

Track 16

Filename E:\Nafta Releases\VA - 100 Hits Pure 80s (5 CD 2016)[FLAC]-Naftamusic\CD 1\16 - Owen Paul - My Favourite Waste Of Time.wav

Pre-gap length 0:00:01.64

Peak level 74.7 %
Extraction speed 4.0 X
Track quality 99.9 %
Test CRC EA8ED42C
Copy CRC EA8ED42C
Accurately ripped (confidence 5) [5F8A5414] (AR v2)
Copy OK

Track 17

Filename E:\Nafta Releases\VA - 100 Hits Pure 80s (5 CD 2016)[FLAC]-Naftamusic\CD 1\17 - Alison Moyet - Love Resurrection.wav

Pre-gap length 0:00:01.59

Peak level 85.0 %
Extraction speed 5.6 X
Track quality 100.0 %
Test CRC 063B7D76
Copy CRC 063B7D76
Accurately ripped (confidence 5) [50F80AB0] (AR v2)
Copy OK

Track 18

Filename E:\Nafta Releases\VA - 100 Hits Pure 80s (5 CD 2016)[FLAC]-Naftamusic\CD 1\18 - Belinda Carlisle - Summer Rain.wav

Pre-gap length 0:00:01.73

Peak level 79.4 %
Extraction speed 5.1 X
Track quality 99.9 %
Test CRC 99D83432
Copy CRC 99D83432
Accurately ripped (confidence 5) [C7D228AC] (AR v2)
Copy OK

Track 19

Filename E:\Nafta Releases\VA - 100 Hits Pure 80s (5 CD 2016)[FLAC]-Naftamusic\CD 1\19 - The Lotus Eaters - The First Picture Of You.wav

Pre-gap length 0:00:01.64

Peak level 94.4 %
Extraction speed 4.5 X
Track quality 99.9 %
Test CRC 2E33D707
Copy CRC 2E33D707
Accurately ripped (confidence 5) [571C958B] (AR v2)
Copy OK

Track 20

Filename E:\Nafta Releases\VA - 100 Hits Pure 80s (5 CD 2016)[FLAC]-Naftamusic\CD 1\20 - The Blow Monkeys - Digging Your Scene.wav

Pre-gap length 0:00:01.63

Peak level 84.9 %
Extraction speed 5.9 X
Track quality 100.0 %
Test CRC 409F778D
Copy CRC 409F778D
Accurately ripped (confidence 5) [18E8AE96] (AR v2)
Copy OK


All tracks accurately ripped

No errors occurred

End of status report

==== Log checksum 8E3F35F73EA9492D7172A73FBAC99D8AB64A9B549F4B3831D432BB49BC4001B0 ====


Tracklist CD2:

01 - Haircut 100 - Love Plus One (00:03:33)
02 - The Thompson Twins - Hold Me Now (00:04:28)
03 - H2O - Dream To Sleep (00:03:56)
04 - Hall & Oates - Out Of Touch (00:04:31)
05 - Matthew Wilder - Break My Stride (00:03:03)
06 - Fiction Factory - (Feels Like) Heaven (00:03:31)
07 - Belinda Carlisle - Do You Feel Like I Feel (00:04:16)
08 - Landscape - Einstein A Go-Go (00:03:01)
09 - Furniture - Brilliant Mind (00:03:43)
10 - Prefab Sprout - When Love Breaks Down (00:03:48)
11 - Nick Heyward - Love All Day (And Night) (00:03:55)
12 - The Lotus Eaters - You Don't Need Someone New (00:05:06)
13 - A Flock Of Seagulls - Wishing (If I Had APhotograph Of You) (00:04:11)
14 - Adam & The Ants - Antmusic (00:03:38)
15 - That Petrol Emotion - It's A Good Thing (00:02:35)
16 - Men Without Hats - The Safety Dance (00:02:45)
17 - Mental As Anything - Live It Up (00:04:15)
18 - Altered Images - Don't Talk To Me About Love (00:03:49)
19 - Japan - Life In Tokyo (00:03:32)
20 - Aneka - Japanese Boy (00:03:55)

Exact Audio Copy V1.3 from 2. September 2016

EAC extraction logfile from 8. May 2019, 22:45

Various Artists / 100 Hits Pure 80s

Used drive : PLEXTOR PX-891SAF PLUS Adapter: 1 ID: 0

Read mode : Secure
Utilize accurate stream : Yes
Defeat audio cache : Yes
Make use of C2 pointers : No

Read offset correction : 6
Overread into Lead-In and Lead-Out : No
Fill up missing offset samples with silence : Yes
Delete leading and trailing silent blocks : No
Null samples used in CRC calculations : Yes
Used interface : Native Win32 interface for Win NT & 2000
Gap handling : Appended to previous track

Used output format : User Defined Encoder
Selected bitrate : 1024 kBit/s
Quality : High
Add ID3 tag : No
Command line compressor : C:\Program Files (x86)\Exact Audio Copy\Flac\flac.exe
Additional command line options : -0 -V -T "ARTIST=%artist%" -T "TITLE=%title%" -T "ALBUM=%albumtitle%" -T "DATE=%year%" -T "TRACKNUMBER=%tracknr%" -T "TOTALTRACKS=%numtracks%" -T "GENRE=%genre%" -T "COMMENT=Naftamusic Release!" %source%


TOC of the extracted CD

Track | Start | Length | Start sector | End sector
––––––––––––––––––––––––––––-
1 | 0:00.00 | 3:32.57 | 0 | 15956
2 | 3:32.57 | 4:27.66 | 15957 | 36047
3 | 8:00.48 | 3:55.47 | 36048 | 53719
4 | 11:56.20 | 4:30.42 | 53720 | 74011
5 | 16:26.62 | 3:03.29 | 74012 | 87765
6 | 19:30.16 | 3:31.36 | 87766 | 103626
7 | 23:01.52 | 4:15.42 | 103627 | 122793
8 | 27:17.19 | 3:01.21 | 122794 | 136389
9 | 30:18.40 | 3:43.06 | 136390 | 153120
10 | 34:01.46 | 3:47.50 | 153121 | 170195
11 | 37:49.21 | 3:54.44 | 170196 | 187789
12 | 41:43.65 | 5:05.69 | 187790 | 210733
13 | 46:49.59 | 4:11.26 | 210734 | 229584
14 | 51:01.10 | 3:38.22 | 229585 | 245956
15 | 54:39.32 | 2:35.28 | 245957 | 257609
16 | 57:14.60 | 2:45.22 | 257610 | 270006
17 | 60:00.07 | 4:15.20 | 270007 | 289151
18 | 64:15.27 | 3:49.24 | 289152 | 306350
19 | 68:04.51 | 3:31.43 | 306351 | 322218
20 | 71:36.19 | 3:55.14 | 322219 | 339857


Track 1

Filename E:\Nafta Releases\VA - 100 Hits Pure 80s (5 CD 2016)[FLAC]-Naftamusic\CD 2\01 - Haircut 100 - Love Plus One.wav

Pre-gap length 0:00:02.00

Peak level 94.4 %
Extraction speed 2.8 X
Track quality 100.0 %
Test CRC 89FE2B82
Copy CRC 89FE2B82
Accurately ripped (confidence 15) [0F4919AB] (AR v2)
Copy OK

Track 2

Filename E:\Nafta Releases\VA - 100 Hits Pure 80s (5 CD 2016)[FLAC]-Naftamusic\CD 2\02 - The Thompson Twins - Hold Me Now.wav

Pre-gap length 0:00:00.45

Peak level 94.4 %
Extraction speed 2.6 X
Track quality 99.9 %
Test CRC AB1E5C68
Copy CRC AB1E5C68
Accurately ripped (confidence 15) [35D5CED7] (AR v2)
Copy OK

Track 3

Filename E:\Nafta Releases\VA - 100 Hits Pure 80s (5 CD 2016)[FLAC]-Naftamusic\CD 2\03 - H2O - Dream To Sleep.wav

Pre-gap length 0:00:01.37

Peak level 93.0 %
Extraction speed 3.4 X
Track quality 100.0 %
Test CRC A952CC9D
Copy CRC A952CC9D
Accurately ripped (confidence 15) [B556ACF9] (AR v2)
Copy OK

Track 4

Filename E:\Nafta Releases\VA - 100 Hits Pure 80s (5 CD 2016)[FLAC]-Naftamusic\CD 2\04 - Hall & Oates - Out Of Touch.wav

Pre-gap length 0:00:02.10

Peak level 91.2 %
Extraction speed 3.1 X
Track quality 99.9 %
Test CRC 7082DBF7
Copy CRC 7082DBF7
Accurately ripped (confidence 15) [D03214BA] (AR v2)
Copy OK

Track 5

Filename E:\Nafta Releases\VA - 100 Hits Pure 80s (5 CD 2016)[FLAC]-Naftamusic\CD 2\05 - Matthew Wilder - Break My Stride.wav

Pre-gap length 0:00:02.03

Peak level 90.3 %
Extraction speed 3.8 X
Track quality 100.0 %
Test CRC A451F4B0
Copy CRC A451F4B0
Accurately ripped (confidence 15) [DA3CB690] (AR v2)
Copy OK

Track 6

Filename E:\Nafta Releases\VA - 100 Hits Pure 80s (5 CD 2016)[FLAC]-Naftamusic\CD 2\06 - Fiction Factory - (Feels Like) Heaven.wav

Pre-gap length 0:00:02.18

Peak level 91.2 %
Extraction speed 3.1 X
Track quality 99.9 %
Test CRC 3BCE61B5
Copy CRC 3BCE61B5
Accurately ripped (confidence 15) [880F8984] (AR v2)
Copy OK

Track 7

Filename E:\Nafta Releases\VA - 100 Hits Pure 80s (5 CD 2016)[FLAC]-Naftamusic\CD 2\07 - Belinda Carlisle - Do You Feel Like I Feel.wav

Pre-gap length 0:00:01.64

Peak level 72.0 %
Extraction speed 4.3 X
Track quality 100.0 %
Test CRC 8BC01EAC
Copy CRC 8BC01EAC
Accurately ripped (confidence 15) [06CB7AC0] (AR v2)
Copy OK

Track 8

Filename E:\Nafta Releases\VA - 100 Hits Pure 80s (5 CD 2016)[FLAC]-Naftamusic\CD 2\08 - Landscape - Einstein A Go-Go.wav

Pre-gap length 0:00:01.70

Peak level 78.5 %
Extraction speed 3.2 X
Track quality 99.9 %
Test CRC 62BA470F
Copy CRC 62BA470F
Accurately ripped (confidence 15) [8423415C] (AR v2)
Copy OK

Track 9

Filename E:\Nafta Releases\VA - 100 Hits Pure 80s (5 CD 2016)[FLAC]-Naftamusic\CD 2\09 - Furniture - Brilliant Mind.wav

Pre-gap length 0:00:01.58

Peak level 94.2 %
Extraction speed 3.6 X
Track quality 99.9 %
Test CRC F07ABE8B
Copy CRC F07ABE8B
Accurately ripped (confidence 15) [024416B1] (AR v2)
Copy OK

Track 10

Filename E:\Nafta Releases\VA - 100 Hits Pure 80s (5 CD 2016)[FLAC]-Naftamusic\CD 2\10 - Prefab Sprout - When Love Breaks Down.wav

Pre-gap length 0:00:01.63

Peak level 89.7 %
Extraction speed 4.7 X
Track quality 100.0 %
Test CRC 8A551EEC
Copy CRC 8A551EEC
Accurately ripped (confidence 15) [2980E700] (AR v2)
Copy OK

Track 11

Filename E:\Nafta Releases\VA - 100 Hits Pure 80s (5 CD 2016)[FLAC]-Naftamusic\CD 2\11 - Nick Heyward - Love All Day (And Night).wav

Pre-gap length 0:00:01.57

Peak level 82.2 %
Extraction speed 4.9 X
Track quality 100.0 %
Test CRC 1D274A53
Copy CRC 1D274A53
Accurately ripped (confidence 15) [9D62C0F9] (AR v2)
Copy OK

Track 12

Filename E:\Nafta Releases\VA - 100 Hits Pure 80s (5 CD 2016)[FLAC]-Naftamusic\CD 2\12 - The Lotus Eaters - You Don't Need Someone New.wav

Pre-gap length 0:00:02.37

Peak level 84.6 %
Extraction speed 5.2 X
Track quality 100.0 %
Test CRC CBC23B1E
Copy CRC CBC23B1E
Accurately ripped (confidence 15) [5CC6700B] (AR v2)
Copy OK

Track 13

Filename E:\Nafta Releases\VA - 100 Hits Pure 80s (5 CD 2016)[FLAC]-Naftamusic\CD 2\13 - A Flock Of Seagulls - Wishing (If I Had APhotograph Of You).wav

Pre-gap length 0:00:01.50

Peak level 90.3 %
Extraction speed 4.3 X
Track quality 99.9 %
Test CRC 1E8E348D
Copy CRC 1E8E348D
Accurately ripped (confidence 15) [A4B5C21B] (AR v2)
Copy OK

Track 14

Filename E:\Nafta Releases\VA - 100 Hits Pure 80s (5 CD 2016)[FLAC]-Naftamusic\CD 2\14 - Adam & The Ants - Antmusic.wav

Pre-gap length 0:00:02.09

Peak level 94.4 %
Extraction speed 5.3 X
Track quality 100.0 %
Test CRC E5ADC68B
Copy CRC E5ADC68B
Accurately ripped (confidence 15) [3D0A9CD6] (AR v2)
Copy OK

Track 15

Filename E:\Nafta Releases\VA - 100 Hits Pure 80s (5 CD 2016)[FLAC]-Naftamusic\CD 2\15 - That Petrol Emotion - It's A Good Thing.wav

Pre-gap length 0:00:02.18

Peak level 94.4 %
Extraction speed 3.7 X
Track quality 99.9 %
Test CRC 2520108C
Copy CRC 2520108C
Accurately ripped (confidence 15) [E66E6865] (AR v2)
Copy OK

Track 16

Filename E:\Nafta Releases\VA - 100 Hits Pure 80s (5 CD 2016)[FLAC]-Naftamusic\CD 2\16 - Men Without Hats - The Safety Dance.wav

Pre-gap length 0:00:01.39

Peak level 75.4 %
Extraction speed 5.2 X
Track quality 100.0 %
Test CRC F484004B
Copy CRC F484004B
Accurately ripped (confidence 15) [AA32665C] (AR v2)
Copy OK

Track 17

Filename E:\Nafta Releases\VA - 100 Hits Pure 80s (5 CD 2016)[FLAC]-Naftamusic\CD 2\17 - Mental As Anything - Live It Up.wav

Pre-gap length 0:00:01.42

Peak level 90.0 %
Extraction speed 4.6 X
Track quality 99.9 %
Test CRC 096391AF
Copy CRC 096391AF
Accurately ripped (confidence 15) [51E4BD6C] (AR v2)
Copy OK

Track 18

Filename E:\Nafta Releases\VA - 100 Hits Pure 80s (5 CD 2016)[FLAC]-Naftamusic\CD 2\18 - Altered Images - Don't Talk To Me About Love.wav

Pre-gap length 0:00:02.11

Peak level 94.4 %
Extraction speed 5.8 X
Track quality 100.0 %
Test CRC 9B6ED396
Copy CRC 9B6ED396
Accurately ripped (confidence 15) [C5C9D3D0] (AR v2)
Copy OK

Track 19

Filename E:\Nafta Releases\VA - 100 Hits Pure 80s (5 CD 2016)[FLAC]-Naftamusic\CD 2\19 - Japan - Life In Tokyo.wav

Pre-gap length 0:00:02.35

Peak level 79.3 %
Extraction speed 5.9 X
Track quality 100.0 %
Test CRC 3E93D04D
Copy CRC 3E93D04D
Accurately ripped (confidence 15) [D5708F5A] (AR v2)
Copy OK

Track 20

Filename E:\Nafta Releases\VA - 100 Hits Pure 80s (5 CD 2016)[FLAC]-Naftamusic\CD 2\20 - Aneka - Japanese Boy.wav

Pre-gap length 0:00:01.44

Peak level 77.5 %
Extraction speed 6.0 X
Track quality 100.0 %
Test CRC 3B297F57
Copy CRC 3B297F57
Accurately ripped (confidence 15) [0656F95D] (AR v2)
Copy OK


All tracks accurately ripped

No errors occurred

End of status report

==== Log checksum E0EABEB6770A12CEB53380B4C14F4BADC6ADE8AD31BD7C025BE3135C553F7491 ====


Tracklist CD3:

01 - S-Express - Theme From S-Express (00:03:43)
02 - Herbie Hancock - Rockit (00:03:56)
03 - Full Force - Alice, I Want You Just For Me! (00:03:10)
04 - After The Fire - Der Kommissar (00:04:07)
05 - Lisa Lisa & Cult Jam - I Wonder If I Take You Home (00:03:28)
06 - Haysi Fantayzee - Shiny Shiny Bon Temps (00:03:22)
07 - Joyce Sims - (You Are My) All And All (00:04:27)
08 - Haywoode - Rose (00:03:48)
09 - Billy Ocean - Caribbean Queen (00:04:05)
10 - Alexander O'Neal - Fake (00:03:58)
11 - Milli Vanilli - Girl You Know It's True (00:03:19)
12 - Five Star - All Fall Down (00:03:30)
13 - Donna Summer - This Time I Know It's For Real (00:03:38)
14 - Cherrelle - I Didn't Mean To Turn You On (00:04:01)
15 - Phyllis Nelson - Move Closer (00:04:36)
16 - Bomb The Bass - Beat Dis (00:03:24)
17 - Wham - Wham Rap! (00:06:45)
18 - Frankie Knuckles & Jamie Principle - Your Love (00:03:43)
19 - Hot Streak - Body Work (00:04:15)
20 - Vicky 'D' - This Beat Is Mine (00:03:18)

Exact Audio Copy V1.3 from 2. September 2016

EAC extraction logfile from 8. May 2019, 23:42

Various Artists / 100 Hits Pure 80s

Used drive : PLEXTOR PX-891SAF PLUS Adapter: 1 ID: 0

Read mode : Secure
Utilize accurate stream : Yes
Defeat audio cache : Yes
Make use of C2 pointers : No

Read offset correction : 6
Overread into Lead-In and Lead-Out : No
Fill up missing offset samples with silence : Yes
Delete leading and trailing silent blocks : No
Null samples used in CRC calculations : Yes
Used interface : Native Win32 interface for Win NT & 2000
Gap handling : Appended to previous track

Used output format : User Defined Encoder
Selected bitrate : 1024 kBit/s
Quality : High
Add ID3 tag : No
Command line compressor : C:\Program Files (x86)\Exact Audio Copy\Flac\flac.exe
Additional command line options : -0 -V -T "ARTIST=%artist%" -T "TITLE=%title%" -T "ALBUM=%albumtitle%" -T "DATE=%year%" -T "TRACKNUMBER=%tracknr%" -T "TOTALTRACKS=%numtracks%" -T "GENRE=%genre%" -T "COMMENT=Naftamusic Release!" %source%


TOC of the extracted CD

Track | Start | Length | Start sector | End sector
––––––––––––––––––––––––––––-
1 | 0:00.00 | 3:42.65 | 0 | 16714
2 | 3:42.65 | 3:56.19 | 16715 | 34433
3 | 7:39.09 | 3:10.13 | 34434 | 48696
4 | 10:49.22 | 4:07.02 | 48697 | 67223
5 | 14:56.24 | 3:27.53 | 67224 | 82801
6 | 18:24.02 | 3:22.34 | 82802 | 97985
7 | 21:46.36 | 4:27.20 | 97986 | 118030
8 | 26:13.56 | 3:48.08 | 118031 | 135138
9 | 30:01.64 | 4:04.64 | 135139 | 153502
10 | 34:06.53 | 3:58.08 | 153503 | 171360
11 | 38:04.61 | 3:19.12 | 171361 | 186297
12 | 41:23.73 | 3:29.63 | 186298 | 202035
13 | 44:53.61 | 3:38.26 | 202036 | 218411
14 | 48:32.12 | 4:00.41 | 218412 | 236452
15 | 52:32.53 | 4:35.64 | 236453 | 257141
16 | 57:08.42 | 3:24.12 | 257142 | 272453
17 | 60:32.54 | 6:45.34 | 272454 | 302862
18 | 67:18.13 | 3:42.56 | 302863 | 319568
19 | 71:00.69 | 4:15.06 | 319569 | 338699
20 | 75:16.00 | 3:18.12 | 338700 | 353561


Track 1

Filename E:\Nafta Releases\VA - 100 Hits Pure 80s (5 CD 2016)[FLAC]-Naftamusic\CD 3\01 - S-Express - Theme From S-Express.wav

Pre-gap length 0:00:02.00

Peak level 85.1 %
Extraction speed 3.0 X
Track quality 100.0 %
Test CRC 259DD86B
Copy CRC 259DD86B
Accurately ripped (confidence 8) [FDB15588] (AR v2)
Copy OK

Track 2

Filename E:\Nafta Releases\VA - 100 Hits Pure 80s (5 CD 2016)[FLAC]-Naftamusic\CD 3\02 - Herbie Hancock - Rockit.wav

Pre-gap length 0:00:01.26

Peak level 93.3 %
Extraction speed 3.2 X
Track quality 100.0 %
Test CRC 7E6E9C5C
Copy CRC 7E6E9C5C
Accurately ripped (confidence 8) [BF503E6C] (AR v2)
Copy OK

Track 3

Filename E:\Nafta Releases\VA - 100 Hits Pure 80s (5 CD 2016)[FLAC]-Naftamusic\CD 3\03 - Full Force - Alice, I Want You Just For Me!.wav

Pre-gap length 0:00:01.48

Peak level 91.1 %
Extraction speed 3.4 X
Track quality 100.0 %
Test CRC A00727A1
Copy CRC A00727A1
Accurately ripped (confidence 8) [E21B2A08] (AR v2)
Copy OK

Track 4

Filename E:\Nafta Releases\VA - 100 Hits Pure 80s (5 CD 2016)[FLAC]-Naftamusic\CD 3\04 - After The Fire - Der Kommissar.wav

Pre-gap length 0:00:01.65

Peak level 94.4 %
Extraction speed 3.7 X
Track quality 100.0 %
Test CRC F01D79E4
Copy CRC F01D79E4
Accurately ripped (confidence 8) [38E0E924] (AR v2)
Copy OK

Track 5

Filename E:\Nafta Releases\VA - 100 Hits Pure 80s (5 CD 2016)[FLAC]-Naftamusic\CD 3\05 - Lisa Lisa & Cult Jam - I Wonder If I Take You Home.wav

Pre-gap length 0:00:02.05

Peak level 94.4 %
Extraction speed 3.8 X
Track quality 100.0 %
Test CRC F5FB81B1
Copy CRC F5FB81B1
Accurately ripped (confidence 8) [648DEDB6] (AR v2)
Copy OK

Track 6

Filename E:\Nafta Releases\VA - 100 Hits Pure 80s (5 CD 2016)[FLAC]-Naftamusic\CD 3\06 - Haysi Fantayzee - Shiny Shiny Bon Temps.wav

Pre-gap length 0:00:01.60

Peak level 85.1 %
Extraction speed 4.0 X
Track quality 100.0 %
Test CRC 4C62B14B
Copy CRC 4C62B14B
Accurately ripped (confidence 8) [71777788] (AR v2)
Copy OK

Track 7

Filename E:\Nafta Releases\VA - 100 Hits Pure 80s (5 CD 2016)[FLAC]-Naftamusic\CD 3\07 - Joyce Sims - (You Are My) All And All.wav

Pre-gap length 0:00:01.41

Peak level 84.1 %
Extraction speed 3.5 X
Track quality 99.9 %
Test CRC F171EEB2
Copy CRC F171EEB2
Accurately ripped (confidence 8) [B221C247] (AR v2)
Copy OK

Track 8

Filename E:\Nafta Releases\VA - 100 Hits Pure 80s (5 CD 2016)[FLAC]-Naftamusic\CD 3\08 - Haywoode - Rose.wav

Pre-gap length 0:00:01.21

Peak level 94.4 %
Extraction speed 4.4 X
Track quality 100.0 %
Test CRC 8C89BF04
Copy CRC 8C89BF04
Accurately ripped (confidence 8) [7BBC6354] (AR v2)
Copy OK

Track 9

Filename E:\Nafta Releases\VA - 100 Hits Pure 80s (5 CD 2016)[FLAC]-Naftamusic\CD 3\09 - Billy Ocean - Caribbean Queen.wav

Pre-gap length 0:00:01.69

Peak level 94.4 %
Extraction speed 4.6 X
Track quality 100.0 %
Test CRC 3AC282B5
Copy CRC 3AC282B5
Accurately ripped (confidence 8) [8A79B57C] (AR v2)
Copy OK

Track 10

Filename E:\Nafta Releases\VA - 100 Hits Pure 80s (5 CD 2016)[FLAC]-Naftamusic\CD 3\10 - Alexander O'Neal - Fake.wav

Pre-gap length 0:00:02.16

Peak level 94.4 %
Extraction speed 4.8 X
Track quality 100.0 %
Test CRC 78DEEB52
Copy CRC 78DEEB52
Accurately ripped (confidence 8) [62BE0158] (AR v2)
Copy OK

Track 11

Filename E:\Nafta Releases\VA - 100 Hits Pure 80s (5 CD 2016)[FLAC]-Naftamusic\CD 3\11 - Milli Vanilli - Girl You Know It's True.wav

Pre-gap length 0:00:01.62

Peak level 94.4 %
Extraction speed 4.8 X
Track quality 100.0 %
Test CRC CCB221EC
Copy CRC CCB221EC
Accurately ripped (confidence 8) [27524D06] (AR v2)
Copy OK

Track 12

Filename E:\Nafta Releases\VA - 100 Hits Pure 80s (5 CD 2016)[FLAC]-Naftamusic\CD 3\12 - Five Star - All Fall Down.wav

Pre-gap length 0:00:01.65

Peak level 94.4 %
Extraction speed 3.8 X
Track quality 99.9 %
Test CRC E91C037D
Copy CRC E91C037D
Accurately ripped (confidence 8) [8EAE15B4] (AR v2)
Copy OK

Track 13

Filename E:\Nafta Releases\VA - 100 Hits Pure 80s (5 CD 2016)[FLAC]-Naftamusic\CD 3\13 - Donna Summer - This Time I Know It's For Real.wav

Pre-gap length 0:00:01.62

Peak level 94.4 %
Extraction speed 5.2 X
Track quality 100.0 %
Test CRC 4DD5AAD6
Copy CRC 4DD5AAD6
Accurately ripped (confidence 8) [638A2C00] (AR v2)
Copy OK

Track 14

Filename E:\Nafta Releases\VA - 100 Hits Pure 80s (5 CD 2016)[FLAC]-Naftamusic\CD 3\14 - Cherrelle - I Didn't Mean To Turn You On.wav

Pre-gap length 0:00:01.59

Peak level 84.6 %
Extraction speed 5.3 X
Track quality 100.0 %
Test CRC DF7C909B
Copy CRC DF7C909B
Accurately ripped (confidence 8) [99FCE438] (AR v2)
Copy OK

Track 15

Filename E:\Nafta Releases\VA - 100 Hits Pure 80s (5 CD 2016)[FLAC]-Naftamusic\CD 3\15 - Phyllis Nelson - Move Closer.wav

Pre-gap length 0:00:02.13

Peak level 84.7 %
Extraction speed 4.5 X
Track quality 99.9 %
Test CRC E0D55910
Copy CRC E0D55910
Accurately ripped (confidence 8) [8F9B4F3D] (AR v2)
Copy OK

Track 16

Filename E:\Nafta Releases\VA - 100 Hits Pure 80s (5 CD 2016)[FLAC]-Naftamusic\CD 3\16 - Bomb The Bass - Beat Dis.wav

Pre-gap length 0:00:01.57

Peak level 94.4 %
Extraction speed 4.2 X
Track quality 99.9 %
Test CRC A2E36FF2
Copy CRC A2E36FF2
Accurately ripped (confidence 8) [D2B929C6] (AR v2)
Copy OK

Track 17

Filename E:\Nafta Releases\VA - 100 Hits Pure 80s (5 CD 2016)[FLAC]-Naftamusic\CD 3\17 - Wham - Wham Rap!.wav

Pre-gap length 0:00:02.32

Peak level 91.2 %
Extraction speed 6.1 X
Track quality 100.0 %
Test CRC 2D7F7C70
Copy CRC 2D7F7C70
Accurately ripped (confidence 8) [B40AC5A5] (AR v2)
Copy OK

Track 18

Filename E:\Nafta Releases\VA - 100 Hits Pure 80s (5 CD 2016)[FLAC]-Naftamusic\CD 3\18 - Frankie Knuckles & Jamie Principle - Your Love.wav

Pre-gap length 0:00:01.38

Peak level 83.1 %
Extraction speed 4.6 X
Track quality 99.9 %
Test CRC 7EC3D250
Copy CRC 7EC3D250
Accurately ripped (confidence 8) [9E1F2DB7] (AR v2)
Copy OK

Track 19

Filename E:\Nafta Releases\VA - 100 Hits Pure 80s (5 CD 2016)[FLAC]-Naftamusic\CD 3\19 - Hot Streak - Body Work.wav

Pre-gap length 0:00:02.16

Peak level 69.6 %
Extraction speed 6.2 X
Track quality 100.0 %
Test CRC 798490E2
Copy CRC 798490E2
Accurately ripped (confidence 8) [EF868329] (AR v2)
Copy OK

Track 20

Filename E:\Nafta Releases\VA - 100 Hits Pure 80s (5 CD 2016)[FLAC]-Naftamusic\CD 3\20 - Vicky ''D'' - This Beat Is Mine.wav

Pre-gap length 0:00:01.63

Peak level 94.4 %
Extraction speed 6.0 X
Track quality 100.0 %
Test CRC FBE73FDE
Copy CRC FBE73FDE
Accurately ripped (confidence 8) [3F97D636] (AR v2)
Copy OK


All tracks accurately ripped

No errors occurred

End of status report

==== Log checksum 15C2B65CC144EC779E3CAC546872B1BBB87B9D73058BF2BA00BFC280D4DAEB59 ====


Tracklist CD4:

01 - Phyllis Nelson - I Like You (00:05:14)
02 - Donna Summer - Dinner With Gershwin (00:04:40)
03 - Billy Ocean - When The Going Gets Tough (00:03:02)
04 - Alexander O'Neal - Criticize (00:04:04)
05 - Steve Shelto - Don't Give Your Love Away (00:03:22)
06 - Farley ''Jackmaster'' Funk - Love Can't Turn Around (00:03:44)
07 - Run DMC - It's Like That (00:04:50)
08 - Haywoode - Getting Closer (00:03:12)
09 - Haysi Fantayzee - John Wayne Is Big Leggy (00:03:20)
10 - Bow Wow Wow - Chihuahua (00:03:50)
11 - The Pointer Sisters - Automatic (00:04:02)
12 - Samantha Fox - Nothing's Gonna Stop Me Now (00:03:43)
13 - The Kids From ''Fame'' - Hi Fidelity (00:02:47)
14 - The Psychedelic Furs - Pretty In Pink (00:04:00)
15 - Deacon Blue - Real Gone Kid (00:04:06)
16 - Lisa Stansfield - What Did I Do To You (00:04:52)
17 - Sinitta - So Macho (00:03:25)
18 - Rick Astley - Together Forever (00:03:27)
19 - Owen Paul - Somebody's Angel (00:04:42)
20 - Europe - Carrie (00:04:30)

Exact Audio Copy V1.3 from 2. September 2016

EAC extraction logfile from 10. May 2019, 19:52

Various Artists / 100 Hits Pure 80s

Used drive : PLEXTOR PX-891SAF PLUS Adapter: 1 ID: 0

Read mode : Secure
Utilize accurate stream : Yes
Defeat audio cache : Yes
Make use of C2 pointers : No

Read offset correction : 6
Overread into Lead-In and Lead-Out : No
Fill up missing offset samples with silence : Yes
Delete leading and trailing silent blocks : No
Null samples used in CRC calculations : Yes
Used interface : Native Win32 interface for Win NT & 2000
Gap handling : Appended to previous track

Used output format : User Defined Encoder
Selected bitrate : 1024 kBit/s
Quality : High
Add ID3 tag : No
Command line compressor : C:\Program Files (x86)\Exact Audio Copy\Flac\flac.exe
Additional command line options : -0 -V -T "ARTIST=%artist%" -T "TITLE=%title%" -T "ALBUM=%albumtitle%" -T "DATE=%year%" -T "TRACKNUMBER=%tracknr%" -T "TOTALTRACKS=%numtracks%" -T "GENRE=%genre%" -T "COMMENT=Naftamusic Release!" %source%


TOC of the extracted CD

Track | Start | Length | Start sector | End sector
––––––––––––––––––––––––––––-
1 | 0:00.00 | 5:13.50 | 0 | 23524
2 | 5:13.50 | 4:39.62 | 23525 | 44511
3 | 9:53.37 | 3:02.29 | 44512 | 58190
4 | 12:55.66 | 4:03.51 | 58191 | 76466
5 | 16:59.42 | 3:22.03 | 76467 | 91619
6 | 20:21.45 | 3:43.39 | 91620 | 108383
7 | 24:05.09 | 4:50.20 | 108384 | 130153
8 | 28:55.29 | 3:11.56 | 130154 | 144534
9 | 32:07.10 | 3:19.39 | 144535 | 159498
10 | 35:26.49 | 3:49.50 | 159499 | 176723
11 | 39:16.24 | 4:01.66 | 176724 | 194864
12 | 43:18.15 | 3:42.74 | 194865 | 211588
13 | 47:01.14 | 2:47.21 | 211589 | 224134
14 | 49:48.35 | 4:00.04 | 224135 | 242138
15 | 53:48.39 | 4:05.46 | 242139 | 260559
16 | 57:54.10 | 4:51.38 | 260560 | 282422
17 | 62:45.48 | 3:25.13 | 282423 | 297810
18 | 66:10.61 | 3:26.48 | 297811 | 313308
19 | 69:37.34 | 4:42.01 | 313309 | 334459
20 | 74:19.35 | 4:30.04 | 334460 | 354713


Track 1

Filename E:\Nafta Releases\VA - 100 Hits Pure 80s (5 CD 2016)[FLAC]-Naftamusic\CD 4\01 - Phyllis Nelson - I Like You.wav

Pre-gap length 0:00:02.00

Peak level 94.4 %
Extraction speed 3.1 X
Track quality 100.0 %
Test CRC 2F0822C3
Copy CRC 2F0822C3
Accurately ripped (confidence 14) [3FD33952] (AR v2)
Copy OK

Track 2

Filename E:\Nafta Releases\VA - 100 Hits Pure 80s (5 CD 2016)[FLAC]-Naftamusic\CD 4\02 - Donna Summer - Dinner With Gershwin.wav

Pre-gap length 0:00:01.41

Peak level 82.2 %
Extraction speed 2.8 X
Track quality 99.9 %
Test CRC 296A6B94
Copy CRC 296A6B94
Accurately ripped (confidence 14) [A1ADDFD5] (AR v2)
Copy OK

Track 3

Filename E:\Nafta Releases\VA - 100 Hits Pure 80s (5 CD 2016)[FLAC]-Naftamusic\CD 4\03 - Billy Ocean - When The Going Gets Tough.wav

Pre-gap length 0:00:01.72

Peak level 94.4 %
Extraction speed 3.4 X
Track quality 100.0 %
Test CRC BEE9795E
Copy CRC BEE9795E
Accurately ripped (confidence 14) [1DF6DE7B] (AR v2)
Copy OK

Track 4

Filename E:\Nafta Releases\VA - 100 Hits Pure 80s (5 CD 2016)[FLAC]-Naftamusic\CD 4\04 - Alexander O'Neal - Criticize.wav

Pre-gap length 0:00:01.60

Peak level 91.2 %
Extraction speed 3.0 X
Track quality 99.9 %
Test CRC 28446EF7
Copy CRC 28446EF7
Accurately ripped (confidence 14) [C4CBE97A] (AR v2)
Copy OK

Track 5

Filename E:\Nafta Releases\VA - 100 Hits Pure 80s (5 CD 2016)[FLAC]-Naftamusic\CD 4\05 - Steve Shelto - Don't Give Your Love Away.wav

Pre-gap length 0:00:02.35

Peak level 81.7 %
Extraction speed 3.9 X
Track quality 100.0 %
Test CRC B6E54C03
Copy CRC B6E54C03
Accurately ripped (confidence 14) [5769F4CC] (AR v2)
Copy OK

Track 6

Filename E:\Nafta Releases\VA - 100 Hits Pure 80s (5 CD 2016)[FLAC]-Naftamusic\CD 4\06 - Farley ''Jackmaster'' Funk - Love Can't Turn Around.wav

Pre-gap length 0:00:01.14

Peak level 68.8 %
Extraction speed 4.1 X
Track quality 100.0 %
Test CRC 8EA2A71B
Copy CRC 8EA2A71B
Accurately ripped (confidence 14) [66A15BD2] (AR v2)
Copy OK

Track 7

Filename E:\Nafta Releases\VA - 100 Hits Pure 80s (5 CD 2016)[FLAC]-Naftamusic\CD 4\07 - Run DMC - It's Like That.wav

Pre-gap length 0:00:01.38

Peak level 94.4 %
Extraction speed 4.5 X
Track quality 100.0 %
Test CRC AA3F8C67
Copy CRC AA3F8C67
Accurately ripped (confidence 14) [50FC599F] (AR v2)
Copy OK

Track 8

Filename E:\Nafta Releases\VA - 100 Hits Pure 80s (5 CD 2016)[FLAC]-Naftamusic\CD 4\08 - Haywoode - Getting Closer.wav

Pre-gap length 0:00:01.67

Peak level 85.1 %
Extraction speed 4.4 X
Track quality 100.0 %
Test CRC 8ED202BF
Copy CRC 8ED202BF
Accurately ripped (confidence 14) [9FB1E04A] (AR v2)
Copy OK

Track 9

Filename E:\Nafta Releases\VA - 100 Hits Pure 80s (5 CD 2016)[FLAC]-Naftamusic\CD 4\09 - Haysi Fantayzee - John Wayne Is Big Leggy.wav

Pre-gap length 0:00:01.64

Peak level 82.2 %
Extraction speed 3.5 X
Track quality 99.9 %
Test CRC D824B6E6
Copy CRC D824B6E6
Accurately ripped (confidence 14) [21275D50] (AR v2)
Copy OK

Track 10

Filename E:\Nafta Releases\VA - 100 Hits Pure 80s (5 CD 2016)[FLAC]-Naftamusic\CD 4\10 - Bow Wow Wow - Chihuahua.wav

Pre-gap length 0:00:01.16

Peak level 94.4 %
Extraction speed 4.8 X
Track quality 100.0 %
Test CRC F44D3288
Copy CRC F44D3288
Accurately ripped (confidence 14) [0F2D654D] (AR v2)
Copy OK

Track 11

Filename E:\Nafta Releases\VA - 100 Hits Pure 80s (5 CD 2016)[FLAC]-Naftamusic\CD 4\11 - The Pointer Sisters - Automatic.wav

Pre-gap length 0:00:01.38

Peak level 94.4 %
Extraction speed 5.0 X
Track quality 100.0 %
Test CRC B06DF5B2
Copy CRC B06DF5B2
Accurately ripped (confidence 14) [22673237] (AR v2)
Copy OK

Track 12

Filename E:\Nafta Releases\VA - 100 Hits Pure 80s (5 CD 2016)[FLAC]-Naftamusic\CD 4\12 - Samantha Fox - Nothing's Gonna Stop Me Now.wav

Pre-gap length 0:00:01.67

Peak level 94.4 %
Extraction speed 5.1 X
Track quality 100.0 %
Test CRC 8E0A79EC
Copy CRC 8E0A79EC
Accurately ripped (confidence 14) [DD7EC254] (AR v2)
Copy OK

Track 13

Filename E:\Nafta Releases\VA - 100 Hits Pure 80s (5 CD 2016)[FLAC]-Naftamusic\CD 4\13 - The Kids From ''Fame'' - Hi Fidelity.wav

Pre-gap length 0:00:00.31

Peak level 74.1 %
Extraction speed 3.7 X
Track quality 99.9 %
Test CRC 19BD477E
Copy CRC 19BD477E
Accurately ripped (confidence 14) [C74FC72C] (AR v2)
Copy OK

Track 14

Filename E:\Nafta Releases\VA - 100 Hits Pure 80s (5 CD 2016)[FLAC]-Naftamusic\CD 4\14 - The Psychedelic Furs - Pretty In Pink.wav

Pre-gap length 0:00:01.49

Peak level 94.4 %
Extraction speed 5.4 X
Track quality 100.0 %
Test CRC B56AC72D
Copy CRC B56AC72D
Accurately ripped (confidence 14) [A843756B] (AR v2)
Copy OK

Track 15

Filename E:\Nafta Releases\VA - 100 Hits Pure 80s (5 CD 2016)[FLAC]-Naftamusic\CD 4\15 - Deacon Blue - Real Gone Kid.wav

Pre-gap length 0:00:01.74

Peak level 94.4 %
Extraction speed 5.6 X
Track quality 100.0 %
Test CRC 6561BF81
Copy CRC 6561BF81
Accurately ripped (confidence 14) [4F5C4699] (AR v2)
Copy OK

Track 16

Filename E:\Nafta Releases\VA - 100 Hits Pure 80s (5 CD 2016)[FLAC]-Naftamusic\CD 4\16 - Lisa Stansfield - What Did I Do To You.wav

Pre-gap length 0:00:02.00

Peak level 94.4 %
Extraction speed 4.8 X
Track quality 99.9 %
Test CRC 06C90826
Copy CRC 06C90826
Accurately ripped (confidence 14) [90F54159] (AR v2)
Copy OK

Track 17

Filename E:\Nafta Releases\VA - 100 Hits Pure 80s (5 CD 2016)[FLAC]-Naftamusic\CD 4\17 - Sinitta - So Macho.wav

Pre-gap length 0:00:02.01

Peak level 94.4 %
Extraction speed 4.4 X
Track quality 99.9 %
Test CRC 48BBF712
Copy CRC 48BBF712
Accurately ripped (confidence 14) [23E131D4] (AR v2)
Copy OK

Track 18

Filename E:\Nafta Releases\VA - 100 Hits Pure 80s (5 CD 2016)[FLAC]-Naftamusic\CD 4\18 - Rick Astley - Together Forever.wav

Pre-gap length 0:00:02.07

Peak level 94.4 %
Extraction speed 5.9 X
Track quality 100.0 %
Test CRC 32A5A780
Copy CRC 32A5A780
Accurately ripped (confidence 14) [1D3B3EFB] (AR v2)
Copy OK

Track 19

Filename E:\Nafta Releases\VA - 100 Hits Pure 80s (5 CD 2016)[FLAC]-Naftamusic\CD 4\19 - Owen Paul - Somebody's Angel.wav

Pre-gap length 0:00:01.14

Peak level 94.4 %
Extraction speed 6.2 X
Track quality 100.0 %
Test CRC FF0D5D69
Copy CRC FF0D5D69
Accurately ripped (confidence 15) [AFEFB56A] (AR v2)
Copy OK

Track 20

Filename E:\Nafta Releases\VA - 100 Hits Pure 80s (5 CD 2016)[FLAC]-Naftamusic\CD 4\20 - Europe - Carrie.wav

Pre-gap length 0:00:01.35

Peak level 94.4 %
Extraction speed 6.3 X
Track quality 100.0 %
Test CRC 709184AD
Copy CRC 709184AD
Accurately ripped (confidence 15) [523CB5CD] (AR v2)
Copy OK


All tracks accurately ripped

No errors occurred

End of status report

==== Log checksum FF6F3BB318C84A7EAD4A04B80AA110AFD5B3AB567AC73CDF2ADBB7CC8EE41F09 ====


Tracklist CD5:

01 - Wham! - I'm Your Man (00:04:05)
02 - JoBoxers - Boxerbeat (00:02:55)
03 - Cherrelle - Saturday Love (00:03:42)
04 - The Thompson Twins - Love On Your Side (00:03:31)
05 - The Psychedelic Furs - Love My Way (00:03:34)
06 - Weather Girls - It's Raining Men (00:03:32)
07 - Cyndi Lauper - Time After Time (00:04:01)
08 - Japan - European Son (00:03:39)
09 - Men Without Hats - I Like (00:04:13)
10 - Paul Young - Love Of The Common People (00:03:43)
11 - Furniture - Love Me (00:05:00)
12 - The Pointer Sisters - Neutron Dance (00:04:15)
13 - Joyce Sims - Come Into My Life (00:03:25)
14 - Toyah - Don't Fall In Love (I Said) (00:03:45)
15 - Martika - More Than You Know (00:04:04)
16 - Starship - Nothing's Gonna Stop Us Now (00:04:29)
17 - Miami Sound Machine - Dr Beat (00:04:23)
18 - Pseudo Echo - Funky Town (00:04:53)
19 - Mr. Mister - Broken Wings (00:04:25)
20 - Europe - The Final Countdown (00:03:57)

Exact Audio Copy V1.3 from 2. September 2016

EAC extraction logfile from 9. May 2019, 20:48

Various Artists / 100 Hits Pure 80s

Used drive : PLEXTOR PX-891SAF PLUS Adapter: 1 ID: 0

Read mode : Secure
Utilize accurate stream : Yes
Defeat audio cache : Yes
Make use of C2 pointers : No

Read offset correction : 6
Overread into Lead-In and Lead-Out : No
Fill up missing offset samples with silence : Yes
Delete leading and trailing silent blocks : No
Null samples used in CRC calculations : Yes
Used interface : Native Win32 interface for Win NT & 2000
Gap handling : Appended to previous track

Used output format : User Defined Encoder
Selected bitrate : 1024 kBit/s
Quality : High
Add ID3 tag : No
Command line compressor : C:\Program Files (x86)\Exact Audio Copy\Flac\flac.exe
Additional command line options : -0 -V -T "ARTIST=%artist%" -T "TITLE=%title%" -T "ALBUM=%albumtitle%" -T "DATE=%year%" -T "TRACKNUMBER=%tracknr%" -T "TOTALTRACKS=%numtracks%" -T "GENRE=%genre%" -T "COMMENT=Naftamusic Release!" %source%


TOC of the extracted CD

Track | Start | Length | Start sector | End sector
––––––––––––––––––––––––––––-
1 | 0:00.00 | 4:05.00 | 0 | 18374
2 | 4:05.00 | 2:55.03 | 18375 | 31502
3 | 7:00.03 | 3:41.46 | 31503 | 48123
4 | 10:41.49 | 3:31.33 | 48124 | 63981
5 | 14:13.07 | 3:34.02 | 63982 | 80033
6 | 17:47.09 | 3:32.08 | 80034 | 95941
7 | 21:19.17 | 4:00.53 | 95942 | 113994
8 | 25:19.70 | 3:39.25 | 113995 | 130444
9 | 28:59.20 | 4:12.56 | 130445 | 149400
10 | 33:12.01 | 3:42.73 | 149401 | 166123
11 | 36:54.74 | 4:59.67 | 166124 | 188615
12 | 41:54.66 | 4:15.05 | 188616 | 207745
13 | 46:09.71 | 3:24.38 | 207746 | 223083
14 | 49:34.34 | 3:44.53 | 223084 | 239936
15 | 53:19.12 | 4:03.42 | 239937 | 258203
16 | 57:22.54 | 4:29.15 | 258204 | 278393
17 | 61:51.69 | 4:23.32 | 278394 | 298150
18 | 66:15.26 | 4:53.07 | 298151 | 320132
19 | 71:08.33 | 4:24.45 | 320133 | 339977
20 | 75:33.03 | 3:57.01 | 339978 | 357753


Track 1

Filename E:\Nafta Releases\VA - 100 Hits Pure 80s (5 CD 2016)[FLAC]-Naftamusic\CD 5\01 - Wham! - I'm Your Man.wav

Pre-gap length 0:00:02.00

Peak level 87.1 %
Extraction speed 2.4 X
Track quality 99.9 %
Test CRC 7649C807
Copy CRC 7649C807
Accurately ripped (confidence 5) [25EC15AE] (AR v2)
Copy OK

Track 2

Filename E:\Nafta Releases\VA - 100 Hits Pure 80s (5 CD 2016)[FLAC]-Naftamusic\CD 5\02 - JoBoxers - Boxerbeat.wav

Pre-gap length 0:00:02.05

Peak level 94.4 %
Extraction speed 3.1 X
Track quality 100.0 %
Test CRC 21355FD4
Copy CRC 21355FD4
Accurately ripped (confidence 5) [74E1BFD1] (AR v2)
Copy OK

Track 3

Filename E:\Nafta Releases\VA - 100 Hits Pure 80s (5 CD 2016)[FLAC]-Naftamusic\CD 5\03 - Cherrelle - Saturday Love.wav

Pre-gap length 0:00:02.04

Peak level 75.8 %
Extraction speed 3.4 X
Track quality 100.0 %
Test CRC 00A70D62
Copy CRC 00A70D62
Accurately ripped (confidence 5) [E29304B2] (AR v2)
Copy OK

Track 4

Filename E:\Nafta Releases\VA - 100 Hits Pure 80s (5 CD 2016)[FLAC]-Naftamusic\CD 5\04 - The Thompson Twins - Love On Your Side.wav

Pre-gap length 0:00:01.59

Peak level 79.4 %
Extraction speed 3.6 X
Track quality 100.0 %
Test CRC 75F1C510
Copy CRC 75F1C510
Accurately ripped (confidence 5) [7C8CD2AC] (AR v2)
Copy OK

Track 5

Filename E:\Nafta Releases\VA - 100 Hits Pure 80s (5 CD 2016)[FLAC]-Naftamusic\CD 5\05 - The Psychedelic Furs - Love My Way.wav

Pre-gap length 0:00:01.64

Peak level 69.1 %
Extraction speed 3.8 X
Track quality 100.0 %
Test CRC 42D06C18
Copy CRC 42D06C18
Accurately ripped (confidence 5) [AB5249DA] (AR v2)
Copy OK

Track 6

Filename E:\Nafta Releases\VA - 100 Hits Pure 80s (5 CD 2016)[FLAC]-Naftamusic\CD 5\06 - Weather Girls - It's Raining Men.wav

Pre-gap length 0:00:01.64

Peak level 92.5 %
Extraction speed 4.0 X
Track quality 100.0 %
Test CRC 09B32A93
Copy CRC 09B32A93
Accurately ripped (confidence 5) [863C3460] (AR v2)
Copy OK

Track 7

Filename E:\Nafta Releases\VA - 100 Hits Pure 80s (5 CD 2016)[FLAC]-Naftamusic\CD 5\07 - Cyndi Lauper - Time After Time.wav

Pre-gap length 0:00:01.63

Peak level 82.7 %
Extraction speed 3.3 X
Track quality 99.9 %
Test CRC F372B9F7
Copy CRC F372B9F7
Accurately ripped (confidence 5) [B89ADC33] (AR v2)
Copy OK

Track 8

Filename E:\Nafta Releases\VA - 100 Hits Pure 80s (5 CD 2016)[FLAC]-Naftamusic\CD 5\08 - Japan - European Son.wav

Pre-gap length 0:00:02.01

Peak level 94.4 %
Extraction speed 4.4 X
Track quality 100.0 %
Test CRC 0BE20A07
Copy CRC 0BE20A07
Accurately ripped (confidence 5) [7AB1EC20] (AR v2)
Copy OK

Track 9

Filename E:\Nafta Releases\VA - 100 Hits Pure 80s (5 CD 2016)[FLAC]-Naftamusic\CD 5\09 - Men Without Hats - I Like.wav

Pre-gap length 0:00:01.62

Peak level 79.4 %
Extraction speed 4.6 X
Track quality 100.0 %
Test CRC 7FCE140C
Copy CRC 7FCE140C
Accurately ripped (confidence 5) [18E2C95E] (AR v2)
Copy OK

Track 10

Filename E:\Nafta Releases\VA - 100 Hits Pure 80s (5 CD 2016)[FLAC]-Naftamusic\CD 5\10 - Paul Young - Love Of The Common People.wav

Pre-gap length 0:00:01.57

Peak level 94.4 %
Extraction speed 4.7 X
Track quality 100.0 %
Test CRC 03669BE3
Copy CRC 03669BE3
Accurately ripped (confidence 5) [30CC68BB] (AR v2)
Copy OK

Track 11

Filename E:\Nafta Releases\VA - 100 Hits Pure 80s (5 CD 2016)[FLAC]-Naftamusic\CD 5\11 - Furniture - Love Me.wav

Pre-gap length 0:00:02.14

Peak level 94.4 %
Extraction speed 5.1 X
Track quality 100.0 %
Test CRC B054CFD6
Copy CRC B054CFD6
Accurately ripped (confidence 5) [10EE92C9] (AR v2)
Copy OK

Track 12

Filename E:\Nafta Releases\VA - 100 Hits Pure 80s (5 CD 2016)[FLAC]-Naftamusic\CD 5\12 - The Pointer Sisters - Neutron Dance.wav

Pre-gap length 0:00:01.56

Peak level 94.4 %
Extraction speed 5.2 X
Track quality 100.0 %
Test CRC F93E0A01
Copy CRC F93E0A01
Accurately ripped (confidence 5) [32CDD043] (AR v2)
Copy OK

Track 13

Filename E:\Nafta Releases\VA - 100 Hits Pure 80s (5 CD 2016)[FLAC]-Naftamusic\CD 5\13 - Joyce Sims - Come Into My Life.wav

Pre-gap length 0:00:01.12

Peak level 71.0 %
Extraction speed 4.0 X
Track quality 99.9 %
Test CRC A8A0CBE3
Copy CRC A8A0CBE3
Accurately ripped (confidence 5) [B91A88F0] (AR v2)
Copy OK

Track 14

Filename E:\Nafta Releases\VA - 100 Hits Pure 80s (5 CD 2016)[FLAC]-Naftamusic\CD 5\14 - Toyah - Don't Fall In Love (I Said).wav

Pre-gap length 0:00:01.25

Peak level 94.4 %
Extraction speed 5.4 X
Track quality 100.0 %
Test CRC 6A59F458
Copy CRC 6A59F458
Accurately ripped (confidence 5) [6806A96D] (AR v2)
Copy OK

Track 15

Filename E:\Nafta Releases\VA - 100 Hits Pure 80s (5 CD 2016)[FLAC]-Naftamusic\CD 5\15 - Martika - More Than You Know.wav

Pre-gap length 0:00:02.06

Peak level 74.0 %
Extraction speed 5.6 X
Track quality 100.0 %
Test CRC 2409FEF6
Copy CRC 2409FEF6
Accurately ripped (confidence 5) [226337FA] (AR v2)
Copy OK

Track 16

Filename E:\Nafta Releases\VA - 100 Hits Pure 80s (5 CD 2016)[FLAC]-Naftamusic\CD 5\16 - Starship - Nothing's Gonna Stop Us Now.wav

Pre-gap length 0:00:01.25

Peak level 93.2 %
Extraction speed 5.7 X
Track quality 100.0 %
Test CRC 1C28C9E9
Copy CRC 1C28C9E9
Accurately ripped (confidence 5) [FB3B5C96] (AR v2)
Copy OK

Track 17

Filename E:\Nafta Releases\VA - 100 Hits Pure 80s (5 CD 2016)[FLAC]-Naftamusic\CD 5\17 - Miami Sound Machine - Dr Beat.wav

Pre-gap length 0:00:02.02

Peak level 94.4 %
Extraction speed 5.9 X
Track quality 100.0 %
Test CRC C422EB7E
Copy CRC C422EB7E
Accurately ripped (confidence 5) [4DEFE753] (AR v2)
Copy OK

Track 18

Filename E:\Nafta Releases\VA - 100 Hits Pure 80s (5 CD 2016)[FLAC]-Naftamusic\CD 5\18 - Pseudo Echo - Funky Town.wav

Pre-gap length 0:00:01.43

Peak level 82.0 %
Extraction speed 6.1 X
Track quality 100.0 %
Test CRC E9F8C1E7
Copy CRC E9F8C1E7
Accurately ripped (confidence 5) [EBF8D4C4] (AR v2)
Copy OK

Track 19

Filename E:\Nafta Releases\VA - 100 Hits Pure 80s (5 CD 2016)[FLAC]-Naftamusic\CD 5\19 - Mr. Mister - Broken Wings.wav

Pre-gap length 0:00:01.66

Peak level 79.3 %
Extraction speed 5.0 X
Track quality 99.9 %
Test CRC 7D957988
Copy CRC 7D957988
Accurately ripped (confidence 5) [4537C9CE] (AR v2)
Copy OK

Track 20

Filename E:\Nafta Releases\VA - 100 Hits Pure 80s (5 CD 2016)[FLAC]-Naftamusic\CD 5\20 - Europe - The Final Countdown.wav

Pre-gap length 0:00:01.58

Peak level 94.4 %
Extraction speed 6.2 X
Track quality 100.0 %
Test CRC D433A1C6
Copy CRC D433A1C6
Accurately ripped (confidence 5) [746A2AC8] (AR v2)
Copy OK


All tracks accurately ripped

No errors occurred

End of status report

==== Log checksum 0F80BD0B5B0CF0DD4DF23A0FB58501D02CDF387C4D8A05B2009A0CB58CC22DEF ====


VA - 100 Hits Pure 80s (2016) [5CD Box Set]

All thanks go to the original releaser

Download VA - 100 Hits Pure 80s (2016):