Tags
Language
Tags

VA - 40 Years of Music (2015)

Posted By: Rtax
VA - 40 Years of Music (2015)

VA - 40 Years of Music (2015)
EAC Rip | FLAC (tracks, cue, log) - 2.06 GB | MP3 CBR 320kbps - 720 MB
5:14:34 | Rock, Funk, Soul, Pop | Label: Triple J/ABC Music/Universal Music

On January 19 1975, we pressed play on Double Jay and launched the ABC's first youth radio station. Fast forward 40 years and today we're celebrating the moments and milestones that shaped our history and changed music forever. This 4 CD pack featuring the best tunes from 1975 to now, handpicked especially for you!

Tracklist

Disc 1
1. Patti Smith – Gloria (05:53)
2. The Saints – (Im) Stranded (03:31)
3. Ramones – Sheena Is a Punk Rocker (02:45)
4. Marvin Gaye – Got to Give It Up (Part 1) (04:10)
5. The Only Ones – Another Girl, Another Planet (03:01)
6. Radio Birdman – New Race (02:44)
7. The Clash – London Calling (03:19)
8. The Slits – Typical Girls (03:56)
9. Flowers – We Can Get Together (03:48)
10. Joy Division – Love Will Tear Us Apart (03:23)
11. DEVO – Whip It (02:40)
12. Divinyls – Boys in Town (02:52)
13. Sunnyboys – Alone With You (04:00)
14. Models – Local &/Or General (03:23)
15. The Reels – Quasimodos Dream (04:10)
16. Monsoon – Ever So Lonely (04:19)
17. Romeo Void – Never Say Never (03:30)
18. Midnight Oil – Power and the Passion (05:42)
19. New Order – Blue Monday (07:29)
20. Hunters & Collectors – Throw Your Arms Around Me (03:27)
Exact Audio Copy V1.3 from 2. September 2016

EAC extraction logfile from 22. October 2017, 3:22

Various Artists / 40 Years of Music (Disc 1)

Used drive : BENQ CDRW 5232X Adapter: 1 ID: 3

Read mode : Secure
Utilize accurate stream : Yes
Defeat audio cache : Yes
Make use of C2 pointers : No

Read offset correction : 738
Overread into Lead-In and Lead-Out : Yes
Fill up missing offset samples with silence : Yes
Delete leading and trailing silent blocks : No
Null samples used in CRC calculations : Yes
Used interface : Native Win32 interface for Win NT & 2000
Gap handling : Appended to previous track

Used output format : User Defined Encoder
Selected bitrate : 896 kBit/s
Quality : High
Add ID3 tag : No
Command line compressor : C:\Program Files (x86)\Exact Audio Copy\Flac\flac.exe
Additional command line options : -8 -V -T "ARTIST=%artist%" -T "TITLE=%title%" -T "ALBUM=%albumtitle%" -T "DATE=%year%" -T "TRACKNUMBER=%tracknr%" -T "TOTALTRACKS=%numtracks%" -T "GENRE=%genre%" -T "ALBUMARTIST=%albumartist%" -T "ALBUM ARTIST=%albumartist%" -T "COMMENT=EAC Secure Mode, Test & Copy, AccurateRip, FLAC -8" %source%


TOC of the extracted CD

Track | Start | Length | Start sector | End sector
––––––––––––––––––––––––––––-
1 | 0:00.00 | 5:53.09 | 0 | 26483
2 | 5:53.09 | 3:31.19 | 26484 | 42327
3 | 9:24.28 | 2:45.07 | 42328 | 54709
4 | 12:09.35 | 4:09.40 | 54710 | 73424
5 | 16:19.00 | 3:01.33 | 73425 | 87032
6 | 19:20.33 | 2:43.52 | 87033 | 99309
7 | 22:04.10 | 3:19.15 | 99310 | 114249
8 | 25:23.25 | 3:56.24 | 114250 | 131973
9 | 29:19.49 | 3:48.01 | 131974 | 149074
10 | 33:07.50 | 3:23.21 | 149075 | 164320
11 | 36:30.71 | 2:39.71 | 164321 | 176316
12 | 39:10.67 | 2:52.03 | 176317 | 189219
13 | 42:02.70 | 3:59.71 | 189220 | 207215
14 | 46:02.66 | 3:22.68 | 207216 | 222433
15 | 49:25.59 | 4:10.03 | 222434 | 241186
16 | 53:35.62 | 4:19.27 | 241187 | 260638
17 | 57:55.14 | 3:30.10 | 260639 | 276398
18 | 61:25.24 | 5:41.70 | 276399 | 302043
19 | 67:07.19 | 7:29.16 | 302044 | 335734
20 | 74:36.35 | 3:27.14 | 335735 | 351273


Track 1

Filename E:\PT\Various Artists - 40 Years of Music (2015) [FLAC] {5365471}\Disc 1of4\01 - Patti Smith - Gloria.wav

Pre-gap length 0:00:02.00

Peak level 100.0 %
Extraction speed 7.0 X
Track quality 100.0 %
Test CRC 4463A4B9
Copy CRC 4463A4B9
Accurately ripped (confidence 10) [66508962] (AR v2)
Copy OK

Track 2

Filename E:\PT\Various Artists - 40 Years of Music (2015) [FLAC] {5365471}\Disc 1of4\02 - The Saints - (I'm) Stranded.wav

Peak level 98.3 %
Extraction speed 6.7 X
Track quality 100.0 %
Test CRC B1B0824E
Copy CRC B1B0824E
Accurately ripped (confidence 10) [2570D5E9] (AR v2)
Copy OK

Track 3

Filename E:\PT\Various Artists - 40 Years of Music (2015) [FLAC] {5365471}\Disc 1of4\03 - Ramones - Sheena Is a Punk Rocker.wav

Peak level 100.0 %
Extraction speed 6.8 X
Track quality 100.0 %
Test CRC ABA8C793
Copy CRC ABA8C793
Accurately ripped (confidence 9) [F88F8A50] (AR v2)
Copy OK

Track 4

Filename E:\PT\Various Artists - 40 Years of Music (2015) [FLAC] {5365471}\Disc 1of4\04 - Marvin Gaye - Got to Give It Up (Part 1).wav

Peak level 98.3 %
Extraction speed 7.4 X
Track quality 100.0 %
Test CRC BD67E682
Copy CRC BD67E682
Accurately ripped (confidence 10) [7956C369] (AR v2)
Copy OK

Track 5

Filename E:\PT\Various Artists - 40 Years of Music (2015) [FLAC] {5365471}\Disc 1of4\05 - The Only Ones - Another Girl, Another Planet.wav

Peak level 97.0 %
Extraction speed 7.6 X
Track quality 100.0 %
Test CRC 2BB588EA
Copy CRC 2BB588EA
Accurately ripped (confidence 10) [769E714D] (AR v2)
Copy OK

Track 6

Filename E:\PT\Various Artists - 40 Years of Music (2015) [FLAC] {5365471}\Disc 1of4\06 - Radio Birdman - New Race.wav

Peak level 83.4 %
Extraction speed 6.6 X
Track quality 99.9 %
Test CRC CF3C845A
Copy CRC CF3C845A
Accurately ripped (confidence 10) [A2FC406C] (AR v2)
Copy OK

Track 7

Filename E:\PT\Various Artists - 40 Years of Music (2015) [FLAC] {5365471}\Disc 1of4\07 - The Clash - London Calling.wav

Peak level 98.3 %
Extraction speed 7.1 X
Track quality 99.9 %
Test CRC 009B3CB7
Copy CRC 009B3CB7
Accurately ripped (confidence 10) [651F8285] (AR v2)
Copy OK

Track 8

Filename E:\PT\Various Artists - 40 Years of Music (2015) [FLAC] {5365471}\Disc 1of4\08 - The Slits - Typical Girls.wav

Peak level 98.3 %
Extraction speed 8.7 X
Track quality 100.0 %
Test CRC 8302C1C0
Copy CRC 8302C1C0
Accurately ripped (confidence 10) [74585629] (AR v2)
Copy OK

Track 9

Filename E:\PT\Various Artists - 40 Years of Music (2015) [FLAC] {5365471}\Disc 1of4\09 - Flowers - We Can Get Together.wav

Peak level 100.0 %
Extraction speed 8.9 X
Track quality 100.0 %
Test CRC 529660F2
Copy CRC 529660F2
Accurately ripped (confidence 10) [BF5C83F1] (AR v2)
Copy OK

Track 10

Filename E:\PT\Various Artists - 40 Years of Music (2015) [FLAC] {5365471}\Disc 1of4\10 - Joy Division - Love Will Tear Us Apart.wav

Peak level 97.2 %
Extraction speed 9.0 X
Track quality 100.0 %
Test CRC 1F3A6DCA
Copy CRC 1F3A6DCA
Accurately ripped (confidence 11) [98632F59] (AR v2)
Copy OK

Track 11

Filename E:\PT\Various Artists - 40 Years of Music (2015) [FLAC] {5365471}\Disc 1of4\11 - DEVO - Whip It.wav

Peak level 100.0 %
Extraction speed 8.9 X
Track quality 100.0 %
Test CRC 9EE6BD0F
Copy CRC 9EE6BD0F
Accurately ripped (confidence 10) [A9094F5F] (AR v2)
Copy OK

Track 12

Filename E:\PT\Various Artists - 40 Years of Music (2015) [FLAC] {5365471}\Disc 1of4\12 - Divinyls - Boys in Town.wav

Peak level 100.0 %
Extraction speed 9.3 X
Track quality 100.0 %
Test CRC 901FCAF2
Copy CRC 901FCAF2
Accurately ripped (confidence 9) [86C997E9] (AR v2)
Copy OK

Track 13

Filename E:\PT\Various Artists - 40 Years of Music (2015) [FLAC] {5365471}\Disc 1of4\13 - Sunnyboys - Alone With You.wav

Peak level 84.8 %
Extraction speed 9.7 X
Track quality 100.0 %
Test CRC 1307858F
Copy CRC 1307858F
Accurately ripped (confidence 11) [A0F8B1CB] (AR v2)
Copy OK

Track 14

Filename E:\PT\Various Artists - 40 Years of Music (2015) [FLAC] {5365471}\Disc 1of4\14 - The Models - Local &,Or General.wav

Peak level 98.5 %
Extraction speed 9.9 X
Track quality 100.0 %
Test CRC 20E0BD9F
Copy CRC 20E0BD9F
Accurately ripped (confidence 10) [6CE0727C] (AR v2)
Copy OK

Track 15

Filename E:\PT\Various Artists - 40 Years of Music (2015) [FLAC] {5365471}\Disc 1of4\15 - The Reels - Quasimodo's Dream.wav

Peak level 98.3 %
Extraction speed 10.3 X
Track quality 100.0 %
Test CRC D817EACE
Copy CRC D817EACE
Accurately ripped (confidence 10) [3A25B353] (AR v2)
Copy OK

Track 16

Filename E:\PT\Various Artists - 40 Years of Music (2015) [FLAC] {5365471}\Disc 1of4\16 - Monsoon - Ever So Lonely.wav

Peak level 97.9 %
Extraction speed 10.5 X
Track quality 100.0 %
Test CRC D64AA300
Copy CRC D64AA300
Accurately ripped (confidence 10) [04080CB0] (AR v2)
Copy OK

Track 17

Filename E:\PT\Various Artists - 40 Years of Music (2015) [FLAC] {5365471}\Disc 1of4\17 - Romeo Void - Never Say Never.wav

Peak level 100.0 %
Extraction speed 9.5 X
Track quality 99.9 %
Test CRC DEE0FBA2
Copy CRC DEE0FBA2
Accurately ripped (confidence 10) [9AA91DBB] (AR v2)
Copy OK

Track 18

Filename E:\PT\Various Artists - 40 Years of Music (2015) [FLAC] {5365471}\Disc 1of4\18 - Midnight Oil - Power and the Passion.wav

Peak level 98.3 %
Extraction speed 10.5 X
Track quality 99.9 %
Test CRC 7F71FC53
Copy CRC 7F71FC53
Accurately ripped (confidence 10) [0F545FB3] (AR v2)
Copy OK

Track 19

Filename E:\PT\Various Artists - 40 Years of Music (2015) [FLAC] {5365471}\Disc 1of4\19 - New Order - Blue Monday.wav

Peak level 98.2 %
Extraction speed 11.1 X
Track quality 99.9 %
Test CRC 353DE577
Copy CRC 353DE577
Accurately ripped (confidence 10) [F9D017E9] (AR v2)
Copy OK

Track 20

Filename E:\PT\Various Artists - 40 Years of Music (2015) [FLAC] {5365471}\Disc 1of4\20 - Hunters & Collectors - Throw Your Arms Around Me.wav

Peak level 98.2 %
Extraction speed 11.7 X
Track quality 100.0 %
Test CRC 17F3C598
Copy CRC 17F3C598
Accurately ripped (confidence 10) [255ED62E] (AR v2)
Copy OK


All tracks accurately ripped

No errors occurred

End of status report

–– AcoustID Plugin V1.2.0

Total fingerprints: 20


–– CUETools DB Plugin V2.1.6

[CTDB TOCID: wkYmXz8fuGnGzXLGNpVdhTVqJt8-] found
Submit result: wkYmXz8fuGnGzXLGNpVdhTVqJt8- has been confirmed
Track | CTDB Status
1 | (46/46) Accurately ripped
2 | (46/46) Accurately ripped
3 | (46/46) Accurately ripped
4 | (46/46) Accurately ripped
5 | (46/46) Accurately ripped
6 | (46/46) Accurately ripped
7 | (46/46) Accurately ripped
8 | (46/46) Accurately ripped
9 | (46/46) Accurately ripped
10 | (46/46) Accurately ripped
11 | (46/46) Accurately ripped
12 | (46/46) Accurately ripped
13 | (46/46) Accurately ripped
14 | (46/46) Accurately ripped
15 | (46/46) Accurately ripped
16 | (46/46) Accurately ripped
17 | (46/46) Accurately ripped
18 | (45/46) Accurately ripped
19 | (45/46) Accurately ripped
20 | (46/46) Accurately ripped


==== Log checksum EF82B4655CF04013B90D057420B422A652970CA449E15BA4AF9A56F1AD6CC774 ====


Disc 2
1. Paul Kelly – From St Kilda to Kings Cross (02:55)
2. Hoodoo Gurus – Like Wow - Wipeout! (03:13)
3. Beastie Boys – (You Gotta) Fight for Your Right (To Party) (03:29)
4. Pet Shop Boys – West End Girls (04:47)
5. The Triffids – Wide Open Road (04:08)
6. Sinéad O’Connor – Mandinka (03:47)
7. The Cure – Just Like Heaven (03:33)
8. The Go‐Betweens – Streets of Your Town (03:35)
9. N.W.A – Fuck tha Police (05:47)
10. Pixies – Monkey Gone to Heaven (02:57)
11. The Stone Roses – Fools Gold (04:17)
12. Cocteau Twins – Cherry-Coloured Funk (03:12)
13. Falling Joys – Lock It (04:39)
14. A Tribe Called Quest – Can I Kick It? (04:13)
15. Yothu Yindi – Treaty (04:04)
16. Rage Against the Machine – Killing in the Name (05:15)
17. L7 – Pretend Were Dead (03:55)
18. You Am I – Berlin Chair (02:36)
19. Cypress Hill – Insane in the Brain (03:28)
20. Tori Amos – Cornflake Girl (05:07)
Exact Audio Copy V1.3 from 2. September 2016

EAC extraction logfile from 22. October 2017, 4:11

Various Artists / 40 Years of Music (Disc 2)

Used drive : BENQ CDRW 5232X Adapter: 1 ID: 3

Read mode : Secure
Utilize accurate stream : Yes
Defeat audio cache : Yes
Make use of C2 pointers : No

Read offset correction : 738
Overread into Lead-In and Lead-Out : Yes
Fill up missing offset samples with silence : Yes
Delete leading and trailing silent blocks : No
Null samples used in CRC calculations : Yes
Used interface : Native Win32 interface for Win NT & 2000
Gap handling : Appended to previous track

Used output format : User Defined Encoder
Selected bitrate : 896 kBit/s
Quality : High
Add ID3 tag : No
Command line compressor : C:\Program Files (x86)\Exact Audio Copy\Flac\flac.exe
Additional command line options : -8 -V -T "ARTIST=%artist%" -T "TITLE=%title%" -T "ALBUM=%albumtitle%" -T "DATE=%year%" -T "TRACKNUMBER=%tracknr%" -T "TOTALTRACKS=%numtracks%" -T "GENRE=%genre%" -T "ALBUMARTIST=%albumartist%" -T "ALBUM ARTIST=%albumartist%" -T "COMMENT=EAC Secure Mode, Test & Copy, AccurateRip, FLAC -8" %source%


TOC of the extracted CD

Track | Start | Length | Start sector | End sector
––––––––––––––––––––––––––––-
1 | 0:00.00 | 2:55.25 | 0 | 13149
2 | 2:55.25 | 3:12.61 | 13150 | 27610
3 | 6:08.11 | 3:29.01 | 27611 | 43286
4 | 9:37.12 | 4:46.59 | 43287 | 64795
5 | 14:23.71 | 4:07.43 | 64796 | 83363
6 | 18:31.39 | 3:47.23 | 83364 | 100411
7 | 22:18.62 | 3:33.33 | 100412 | 116419
8 | 25:52.20 | 3:34.50 | 116420 | 132519
9 | 29:26.70 | 5:46.70 | 132520 | 158539
10 | 35:13.65 | 2:57.26 | 158540 | 171840
11 | 38:11.16 | 4:16.64 | 171841 | 191104
12 | 42:28.05 | 3:12.16 | 191105 | 205520
13 | 45:40.21 | 4:39.14 | 205521 | 226459
14 | 50:19.35 | 4:12.60 | 226460 | 245419
15 | 54:32.20 | 4:04.01 | 245420 | 263720
16 | 58:36.21 | 5:14.40 | 263721 | 287310
17 | 63:50.61 | 3:55.26 | 287311 | 304961
18 | 67:46.12 | 2:35.41 | 304962 | 316627
19 | 70:21.53 | 3:28.06 | 316628 | 332233
20 | 73:49.59 | 5:07.04 | 332234 | 355262


Track 1

Filename E:\PT\Various Artists - 40 Years of Music (2015) [FLAC] {5365471}\Disc 2of4\01 - Paul Kelly - From St Kilda to Kings Cross.wav

Pre-gap length 0:00:02.00

Peak level 98.3 %
Extraction speed 5.0 X
Track quality 100.0 %
Test CRC 764B3987
Copy CRC 764B3987
Accurately ripped (confidence 10) [B38DD9DC] (AR v2)
Copy OK

Track 2

Filename E:\PT\Various Artists - 40 Years of Music (2015) [FLAC] {5365471}\Disc 2of4\02 - Hoodoo Gurus - Like Wow - Wipeout!.wav

Peak level 77.7 %
Extraction speed 5.4 X
Track quality 100.0 %
Test CRC 531FC999
Copy CRC 531FC999
Accurately ripped (confidence 10) [149C616A] (AR v2)
Copy OK

Track 3

Filename E:\PT\Various Artists - 40 Years of Music (2015) [FLAC] {5365471}\Disc 2of4\03 - Beastie Boys - (You Gotta) Fight for Your Right (To Party).wav

Peak level 93.5 %
Extraction speed 5.4 X
Track quality 100.0 %
Test CRC 19D3E532
Copy CRC 19D3E532
Accurately ripped (confidence 10) [73EB43F1] (AR v2)
Copy OK

Track 4

Filename E:\PT\Various Artists - 40 Years of Music (2015) [FLAC] {5365471}\Disc 2of4\04 - Pet Shop Boys - West End Girls.wav

Peak level 100.0 %
Extraction speed 4.5 X
Track quality 100.0 %
Test CRC 75FD73D6
Copy CRC 75FD73D6
Accurately ripped (confidence 10) [F6CC28AF] (AR v2)
Copy OK

Track 5

Filename E:\PT\Various Artists - 40 Years of Music (2015) [FLAC] {5365471}\Disc 2of4\05 - The Triffids - Wide Open Road.wav

Peak level 95.3 %
Extraction speed 4.5 X
Track quality 100.0 %
Test CRC 10746D49
Copy CRC 10746D49
Accurately ripped (confidence 10) [F41EFC79] (AR v2)
Copy OK

Track 6

Filename E:\PT\Various Artists - 40 Years of Music (2015) [FLAC] {5365471}\Disc 2of4\06 - Sinéad O’Connor - Mandinka.wav

Peak level 98.4 %
Extraction speed 3.7 X
Track quality 100.0 %
Test CRC 3F9F2474
Copy CRC 3F9F2474
Accurately ripped (confidence 10) [82955B6B] (AR v2)
Copy OK

Track 7

Filename E:\PT\Various Artists - 40 Years of Music (2015) [FLAC] {5365471}\Disc 2of4\07 - The Cure - Just Like Heaven.wav

Peak level 98.3 %
Extraction speed 5.1 X
Track quality 99.9 %
Test CRC 34DD1368
Copy CRC 34DD1368
Accurately ripped (confidence 11) [8D016B20] (AR v2)
Copy OK

Track 8

Filename E:\PT\Various Artists - 40 Years of Music (2015) [FLAC] {5365471}\Disc 2of4\08 - The Go‐Betweens - Streets of Your Town.wav

Peak level 100.0 %
Extraction speed 5.4 X
Track quality 100.0 %
Test CRC 4CB10B48
Copy CRC 4CB10B48
Accurately ripped (confidence 10) [3EF866B1] (AR v2)
Copy OK

Track 9

Filename E:\PT\Various Artists - 40 Years of Music (2015) [FLAC] {5365471}\Disc 2of4\09 - N.W.A. - Fuck tha Police.wav

Peak level 77.8 %
Extraction speed 4.5 X
Track quality 99.9 %
Test CRC 44856E12
Copy CRC 44856E12
Accurately ripped (confidence 10) [CB7AC8F4] (AR v2)
Copy OK

Track 10

Filename E:\PT\Various Artists - 40 Years of Music (2015) [FLAC] {5365471}\Disc 2of4\10 - Pixies - Monkey Gone to Heaven.wav

Peak level 98.3 %
Extraction speed 4.1 X
Track quality 100.0 %
Test CRC E1531F0A
Copy CRC E1531F0A
Accurately ripped (confidence 10) [2665FB9F] (AR v2)
Copy OK

Track 11

Filename E:\PT\Various Artists - 40 Years of Music (2015) [FLAC] {5365471}\Disc 2of4\11 - The Stone Roses - Fools Gold.wav

Peak level 86.7 %
Extraction speed 4.1 X
Track quality 100.0 %
Test CRC 8BF0D3BF
Copy CRC 8BF0D3BF
Accurately ripped (confidence 10) [E07F114F] (AR v2)
Copy OK

Track 12

Filename E:\PT\Various Artists - 40 Years of Music (2015) [FLAC] {5365471}\Disc 2of4\12 - Cocteau Twins - Cherry-Coloured Funk.wav

Peak level 98.3 %
Extraction speed 4.8 X
Track quality 99.9 %
Test CRC E0A25777
Copy CRC E0A25777
Accurately ripped (confidence 10) [875C84F0] (AR v2)
Copy OK

Track 13

Filename E:\PT\Various Artists - 40 Years of Music (2015) [FLAC] {5365471}\Disc 2of4\13 - Falling Joys - Lock It.wav

Peak level 100.0 %
Extraction speed 3.8 X
Track quality 99.9 %
Test CRC 8578155A
Copy CRC 8578155A
Accurately ripped (confidence 10) [DFDC25D0] (AR v2)
Copy OK

Track 14

Filename E:\PT\Various Artists - 40 Years of Music (2015) [FLAC] {5365471}\Disc 2of4\14 - A Tribe Called Quest - Can I Kick It.wav

Peak level 94.8 %
Extraction speed 3.8 X
Track quality 100.0 %
Test CRC 907DF63D
Copy CRC 907DF63D
Accurately ripped (confidence 10) [D92B92C0] (AR v2)
Copy OK

Track 15

Filename E:\PT\Various Artists - 40 Years of Music (2015) [FLAC] {5365471}\Disc 2of4\15 - Yothu Yindi - Treaty.wav

Peak level 88.3 %
Extraction speed 5.2 X
Track quality 99.9 %
Test CRC 21E9359E
Copy CRC 21E9359E
Accurately ripped (confidence 10) [92500771] (AR v2)
Copy OK

Track 16

Filename E:\PT\Various Artists - 40 Years of Music (2015) [FLAC] {5365471}\Disc 2of4\16 - Rage Against the Machine - Killing in the Name.wav

Peak level 98.3 %
Extraction speed 5.6 X
Track quality 100.0 %
Test CRC ED338A5E
Copy CRC ED338A5E
Accurately ripped (confidence 10) [7C2793AC] (AR v2)
Copy OK

Track 17

Filename E:\PT\Various Artists - 40 Years of Music (2015) [FLAC] {5365471}\Disc 2of4\17 - L7 - Pretend We're Dead.wav

Peak level 100.0 %
Extraction speed 4.9 X
Track quality 99.9 %
Test CRC 83C2B2DA
Copy CRC 83C2B2DA
Accurately ripped (confidence 10) [2AEAD948] (AR v2)
Copy OK

Track 18

Filename E:\PT\Various Artists - 40 Years of Music (2015) [FLAC] {5365471}\Disc 2of4\18 - You Am I - Berlin Chair.wav

Peak level 100.0 %
Extraction speed 3.6 X
Track quality 100.0 %
Test CRC E4C2C047
Copy CRC E4C2C047
Accurately ripped (confidence 10) [43683DF2] (AR v2)
Copy OK

Track 19

Filename E:\PT\Various Artists - 40 Years of Music (2015) [FLAC] {5365471}\Disc 2of4\19 - Cypress Hill - Insane in the Brain.wav

Peak level 98.3 %
Extraction speed 3.9 X
Track quality 100.0 %
Test CRC 4C375E5C
Copy CRC 4C375E5C
Accurately ripped (confidence 10) [3EE3AE9C] (AR v2)
Copy OK

Track 20

Filename E:\PT\Various Artists - 40 Years of Music (2015) [FLAC] {5365471}\Disc 2of4\20 - Tori Amos - Cornflake Girl.wav

Peak level 100.0 %
Extraction speed 5.5 X
Track quality 99.9 %
Test CRC 89598AFF
Copy CRC 89598AFF
Accurately ripped (confidence 10) [385E34EE] (AR v2)
Copy OK


All tracks accurately ripped

No errors occurred

End of status report

–– AcoustID Plugin V1.2.0

Total fingerprints: 20


–– CUETools DB Plugin V2.1.6

[CTDB TOCID: 5_ytmdmDzYcx8XGGa5Z_wVpxac0-] found
Submit result: 5_ytmdmDzYcx8XGGa5Z_wVpxac0- has been confirmed
Track | CTDB Status
1 | (47/47) Accurately ripped
2 | (47/47) Accurately ripped
3 | (47/47) Accurately ripped
4 | (47/47) Accurately ripped
5 | (47/47) Accurately ripped
6 | (47/47) Accurately ripped
7 | (47/47) Accurately ripped
8 | (47/47) Accurately ripped
9 | (47/47) Accurately ripped
10 | (47/47) Accurately ripped
11 | (47/47) Accurately ripped
12 | (47/47) Accurately ripped
13 | (47/47) Accurately ripped
14 | (47/47) Accurately ripped
15 | (47/47) Accurately ripped
16 | (47/47) Accurately ripped
17 | (47/47) Accurately ripped
18 | (47/47) Accurately ripped
19 | (47/47) Accurately ripped
20 | (47/47) Accurately ripped


==== Log checksum 76C234A0FA9EBA72FA2DFFFC67E170239200929B4834942A3D05F1BE20941BEF ====


Disc 3
1. Garbage – Vow (04:32)
2. Custard – Apartment (02:25)
3. Rancid – Time Bomb (02:26)
4. Tricky – Hell Is Round the Corner (03:48)
5. PJ Harvey – Down by the Water (03:13)
6. The Prodigy – Firestarter (04:43)
7. Radiohead – Paranoid Android (06:24)
8. Nick Cave & The Bad Seeds – Into My Arms (04:14)
9. Moloko – Sing It Back (04:40)
10. Slipknot – Wait and Bleed (02:33)
11. OutKast – Ms. Jackson (04:32)
12. Powderfinger – My Happiness (04:38)
13. The Avalanches – Frontier Psychiatrist (04:50)
14. Missy Elliott – Get Ur Freak On (03:57)
15. System of a Down – Chop Suey! (03:33)
16. Something for Kate – Monsters (03:40)
17. The Flaming Lips – Do You Realize?? (03:33)
18. Hilltop Hoods – The Nosebleed Section (03:39)
19. Dizzee Rascal – Fix Up, Look Sharp (03:46)
20. Franz Ferdinand – Take Me Out (03:59)
Exact Audio Copy V1.3 from 2. September 2016

EAC extraction logfile from 22. October 2017, 4:52

Various Artists / 40 Years of Music (Disc 3)

Used drive : BENQ CDRW 5232X Adapter: 1 ID: 3

Read mode : Secure
Utilize accurate stream : Yes
Defeat audio cache : Yes
Make use of C2 pointers : No

Read offset correction : 738
Overread into Lead-In and Lead-Out : Yes
Fill up missing offset samples with silence : Yes
Delete leading and trailing silent blocks : No
Null samples used in CRC calculations : Yes
Used interface : Native Win32 interface for Win NT & 2000
Gap handling : Appended to previous track

Used output format : User Defined Encoder
Selected bitrate : 896 kBit/s
Quality : High
Add ID3 tag : No
Command line compressor : C:\Program Files (x86)\Exact Audio Copy\Flac\flac.exe
Additional command line options : -8 -V -T "ARTIST=%artist%" -T "TITLE=%title%" -T "ALBUM=%albumtitle%" -T "DATE=%year%" -T "TRACKNUMBER=%tracknr%" -T "TOTALTRACKS=%numtracks%" -T "GENRE=%genre%" -T "ALBUMARTIST=%albumartist%" -T "ALBUM ARTIST=%albumartist%" -T "COMMENT=EAC Secure Mode, Test & Copy, AccurateRip, FLAC -8" %source%


TOC of the extracted CD

Track | Start | Length | Start sector | End sector
––––––––––––––––––––––––––––-
1 | 0:00.00 | 4:31.39 | 0 | 20363
2 | 4:31.39 | 2:24.46 | 20364 | 31209
3 | 6:56.10 | 2:25.59 | 31210 | 42143
4 | 9:21.69 | 3:47.66 | 42144 | 59234
5 | 13:09.60 | 3:13.21 | 59235 | 73730
6 | 16:23.06 | 4:42.48 | 73731 | 94928
7 | 21:05.54 | 6:24.23 | 94929 | 123751
8 | 27:30.02 | 4:13.63 | 123752 | 142789
9 | 31:43.65 | 4:39.56 | 142790 | 163770
10 | 36:23.46 | 2:32.50 | 163771 | 175220
11 | 38:56.21 | 4:32.05 | 175221 | 195625
12 | 43:28.26 | 4:38.30 | 195626 | 216505
13 | 48:06.56 | 4:50.10 | 216506 | 238265
14 | 52:56.66 | 3:56.48 | 238266 | 256013
15 | 56:53.39 | 3:32.41 | 256014 | 271954
16 | 60:26.05 | 3:40.07 | 271955 | 288461
17 | 64:06.12 | 3:32.47 | 288462 | 304408
18 | 67:38.59 | 3:38.50 | 304409 | 320808
19 | 71:17.34 | 3:45.46 | 320809 | 337729
20 | 75:03.05 | 3:58.68 | 337730 | 355647


Track 1

Filename E:\PT\Various Artists - 40 Years of Music (2015) [FLAC] {5365471}\Disc 3of4\01 - Garbage - Vow.wav

Pre-gap length 0:00:02.00

Peak level 98.3 %
Extraction speed 4.7 X
Track quality 100.0 %
Test CRC 00EADC18
Copy CRC 00EADC18
Accurately ripped (confidence 10) [B03133C5] (AR v2)
Copy OK

Track 2

Filename E:\PT\Various Artists - 40 Years of Music (2015) [FLAC] {5365471}\Disc 3of4\02 - Custard - Apartment.wav

Peak level 100.0 %
Extraction speed 5.1 X
Track quality 100.0 %
Test CRC 40C40BFF
Copy CRC 40C40BFF
Accurately ripped (confidence 10) [787C5813] (AR v2)
Copy OK

Track 3

Filename E:\PT\Various Artists - 40 Years of Music (2015) [FLAC] {5365471}\Disc 3of4\03 - Rancid - Time Bomb.wav

Peak level 89.1 %
Extraction speed 5.0 X
Track quality 100.0 %
Test CRC CE9FA10A
Copy CRC CE9FA10A
Accurately ripped (confidence 10) [F124D348] (AR v2)
Copy OK

Track 4

Filename E:\PT\Various Artists - 40 Years of Music (2015) [FLAC] {5365471}\Disc 3of4\04 - Tricky - Hell Is Round the Corner.wav

Peak level 98.2 %
Extraction speed 5.5 X
Track quality 100.0 %
Test CRC 42C74340
Copy CRC 42C74340
Accurately ripped (confidence 10) [B119FFAF] (AR v2)
Copy OK

Track 5

Filename E:\PT\Various Artists - 40 Years of Music (2015) [FLAC] {5365471}\Disc 3of4\05 - PJ Harvey - Down by the Water.wav

Peak level 98.3 %
Extraction speed 4.2 X
Track quality 100.0 %
Test CRC A87A051B
Copy CRC A87A051B
Accurately ripped (confidence 10) [498DFF0A] (AR v2)
Copy OK

Track 6

Filename E:\PT\Various Artists - 40 Years of Music (2015) [FLAC] {5365471}\Disc 3of4\06 - The Prodigy - Firestarter.wav

Peak level 83.5 %
Extraction speed 4.6 X
Track quality 100.0 %
Test CRC 0641E9BE
Copy CRC 0641E9BE
Accurately ripped (confidence 10) [132C9B4B] (AR v2)
Copy OK

Track 7

Filename E:\PT\Various Artists - 40 Years of Music (2015) [FLAC] {5365471}\Disc 3of4\07 - Radiohead - Paranoid Android.wav

Peak level 98.3 %
Extraction speed 5.2 X
Track quality 100.0 %
Test CRC 3EAE86D5
Copy CRC 3EAE86D5
Accurately ripped (confidence 10) [D812968E] (AR v2)
Copy OK

Track 8

Filename E:\PT\Various Artists - 40 Years of Music (2015) [FLAC] {5365471}\Disc 3of4\08 - Nick Cave & The Bad Seeds - Into My Arms.wav

Peak level 99.2 %
Extraction speed 5.8 X
Track quality 100.0 %
Test CRC E058CAA5
Copy CRC E058CAA5
Accurately ripped (confidence 10) [95E8B6A9] (AR v2)
Copy OK

Track 9

Filename E:\PT\Various Artists - 40 Years of Music (2015) [FLAC] {5365471}\Disc 3of4\09 - Moloko - Sing It Back.wav

Peak level 100.0 %
Extraction speed 5.4 X
Track quality 100.0 %
Test CRC B2D826EB
Copy CRC B2D826EB
Accurately ripped (confidence 10) [1395B390] (AR v2)
Copy OK

Track 10

Filename E:\PT\Various Artists - 40 Years of Music (2015) [FLAC] {5365471}\Disc 3of4\10 - Slipknot - Wait and Bleed.wav

Peak level 98.3 %
Extraction speed 5.0 X
Track quality 100.0 %
Test CRC E4CA668F
Copy CRC E4CA668F
Accurately ripped (confidence 9) [991B1B95] (AR v2)
Copy OK

Track 11

Filename E:\PT\Various Artists - 40 Years of Music (2015) [FLAC] {5365471}\Disc 3of4\11 - OutKast - Ms. Jackson.wav

Peak level 94.4 %
Extraction speed 5.5 X
Track quality 100.0 %
Test CRC 94C8D39B
Copy CRC 94C8D39B
Accurately ripped (confidence 10) [1412DA00] (AR v2)
Copy OK

Track 12

Filename E:\PT\Various Artists - 40 Years of Music (2015) [FLAC] {5365471}\Disc 3of4\12 - Powderfinger - My Happiness.wav

Peak level 88.8 %
Extraction speed 4.8 X
Track quality 100.0 %
Test CRC 2B0E6AED
Copy CRC 2B0E6AED
Accurately ripped (confidence 11) [0F8B8F33] (AR v2)
Copy OK

Track 13

Filename E:\PT\Various Artists - 40 Years of Music (2015) [FLAC] {5365471}\Disc 3of4\13 - The Avalanches - Frontier Psychiatrist.wav

Peak level 89.9 %
Extraction speed 4.7 X
Track quality 99.9 %
Test CRC DE15166C
Copy CRC DE15166C
Accurately ripped (confidence 10) [80677460] (AR v2)
Copy OK

Track 14

Filename E:\PT\Various Artists - 40 Years of Music (2015) [FLAC] {5365471}\Disc 3of4\14 - Missy Elliott - Get Ur Freak On.wav

Peak level 88.9 %
Extraction speed 5.8 X
Track quality 100.0 %
Test CRC 7FCF7970
Copy CRC 7FCF7970
Accurately ripped (confidence 10) [45BA1CD5] (AR v2)
Copy OK

Track 15

Filename E:\PT\Various Artists - 40 Years of Music (2015) [FLAC] {5365471}\Disc 3of4\15 - System of a Down - Chop Suey!.wav

Peak level 88.3 %
Extraction speed 5.3 X
Track quality 100.0 %
Test CRC 8CB233EE
Copy CRC 8CB233EE
Accurately ripped (confidence 10) [38EE1A51] (AR v2)
Copy OK

Track 16

Filename E:\PT\Various Artists - 40 Years of Music (2015) [FLAC] {5365471}\Disc 3of4\16 - Something for Kate - Monsters.wav

Peak level 98.3 %
Extraction speed 5.4 X
Track quality 99.9 %
Test CRC BD92F73B
Copy CRC BD92F73B
Accurately ripped (confidence 10) [8D4F88FB] (AR v2)
Copy OK

Track 17

Filename E:\PT\Various Artists - 40 Years of Music (2015) [FLAC] {5365471}\Disc 3of4\17 - The Flaming Lips - Do You Realize.wav

Peak level 90.5 %
Extraction speed 5.3 X
Track quality 100.0 %
Test CRC 2FE2CC44
Copy CRC 2FE2CC44
Accurately ripped (confidence 10) [F6D679D9] (AR v2)
Copy OK

Track 18

Filename E:\PT\Various Artists - 40 Years of Music (2015) [FLAC] {5365471}\Disc 3of4\18 - Hilltop Hoods - The Nosebleed Section.wav

Peak level 92.7 %
Extraction speed 3.7 X
Track quality 100.0 %
Test CRC 1221CA2F
Copy CRC 1221CA2F
Accurately ripped (confidence 10) [2BD2095B] (AR v2)
Copy OK

Track 19

Filename E:\PT\Various Artists - 40 Years of Music (2015) [FLAC] {5365471}\Disc 3of4\19 - Dizzee Rascal - Fix Up, Look Sharp.wav

Peak level 91.1 %
Extraction speed 5.6 X
Track quality 100.0 %
Test CRC 20BDABEC
Copy CRC 20BDABEC
Accurately ripped (confidence 10) [471136E9] (AR v2)
Copy OK

Track 20

Filename E:\PT\Various Artists - 40 Years of Music (2015) [FLAC] {5365471}\Disc 3of4\20 - Franz Ferdinand - Take Me Out.wav

Peak level 89.6 %
Extraction speed 5.7 X
Track quality 100.0 %
Test CRC CCA822ED
Copy CRC CCA822ED
Accurately ripped (confidence 9) [275D832E] (AR v2)
Copy OK


All tracks accurately ripped

No errors occurred

End of status report

–– AcoustID Plugin V1.2.0

Total fingerprints: 20


–– CUETools DB Plugin V2.1.6

[CTDB TOCID: OcIsw5vnDL1f74NsoZzMuF2o_8o-] found
Submit result: OcIsw5vnDL1f74NsoZzMuF2o_8o- has been confirmed
Track | CTDB Status
1 | (46/46) Accurately ripped
2 | (46/46) Accurately ripped
3 | (46/46) Accurately ripped
4 | (46/46) Accurately ripped
5 | (46/46) Accurately ripped
6 | (46/46) Accurately ripped
7 | (46/46) Accurately ripped
8 | (45/46) Accurately ripped
9 | (46/46) Accurately ripped
10 | (46/46) Accurately ripped
11 | (46/46) Accurately ripped
12 | (46/46) Accurately ripped
13 | (45/46) Accurately ripped
14 | (45/46) Accurately ripped
15 | (46/46) Accurately ripped
16 | (45/46) Accurately ripped
17 | (46/46) Accurately ripped
18 | (46/46) Accurately ripped
19 | (46/46) Accurately ripped
20 | (46/46) Accurately ripped


==== Log checksum 854114A26BD30465D821CBD8E46327FE54CC2CA32ABE5CFF3112E81C9198CB40 ====


Disc 4
1. Wolfmother – Joker and the Thief (04:40)
2. Augie March – One Crowded Hour (04:14)
3. MGMT – Electric Feel (03:51)
4. The Presets – My People (04:28)
5. The John Butler Trio – Better Than (03:29)
6. Sarah Blasko – We Wont Run (03:57)
7. Phoenix – Lisztomania (04:02)
8. Kanye West – Runaway (feat. Pusha T) (05:39)
9. The Wombats – Tokyo (Vampires & Wolves) (03:39)
10. Florence + the Machine – Shake It Out (04:36)
11. Of Monsters and Men – Little Talks (04:14)
12. alt-J – Breezeblocks (03:48)
13. Tame Impala – Feels Like We Only Go Backwards (03:14)
14. Flume – Holdin On (02:34)
15. Lorde – Royals (03:12)
16. Arctic Monkeys – Do I Wanna Know? (04:34)
17. Vance Joy – Riptide (03:22)
18. The Preatures – Is This How You Feel? (03:35)
19. Peking Duk – High (feat. Nicole Millar) (03:48)
20. Chet Faker – Talk Is Cheap (03:39)
Exact Audio Copy V1.3 from 2. September 2016

EAC extraction logfile from 22. October 2017, 13:06

Various Artists / 40 Years of Music (Disc 4)

Used drive : BENQ CDRW 5232X Adapter: 1 ID: 3

Read mode : Secure
Utilize accurate stream : Yes
Defeat audio cache : Yes
Make use of C2 pointers : No

Read offset correction : 738
Overread into Lead-In and Lead-Out : Yes
Fill up missing offset samples with silence : Yes
Delete leading and trailing silent blocks : No
Null samples used in CRC calculations : Yes
Used interface : Native Win32 interface for Win NT & 2000
Gap handling : Appended to previous track

Used output format : User Defined Encoder
Selected bitrate : 896 kBit/s
Quality : High
Add ID3 tag : No
Command line compressor : C:\Program Files (x86)\Exact Audio Copy\Flac\flac.exe
Additional command line options : -8 -V -T "ARTIST=%artist%" -T "TITLE=%title%" -T "ALBUM=%albumtitle%" -T "DATE=%year%" -T "TRACKNUMBER=%tracknr%" -T "TOTALTRACKS=%numtracks%" -T "GENRE=%genre%" -T "ALBUMARTIST=%albumartist%" -T "ALBUM ARTIST=%albumartist%" -T "COMMENT=EAC Secure Mode, Test & Copy, AccurateRip, FLAC -8" %source%


TOC of the extracted CD

Track | Start | Length | Start sector | End sector
––––––––––––––––––––––––––––-
1 | 0:00.00 | 4:39.42 | 0 | 20966
2 | 4:39.42 | 4:13.41 | 20967 | 39982
3 | 8:53.08 | 3:50.43 | 39983 | 57275
4 | 12:43.51 | 4:27.41 | 57276 | 77341
5 | 17:11.17 | 3:28.57 | 77342 | 92998
6 | 20:39.74 | 3:57.37 | 92999 | 110810
7 | 24:37.36 | 4:01.72 | 110811 | 128957
8 | 28:39.33 | 5:39.26 | 128958 | 154408
9 | 34:18.59 | 3:38.60 | 154409 | 170818
10 | 37:57.44 | 4:35.45 | 170819 | 191488
11 | 42:33.14 | 4:13.39 | 191489 | 210502
12 | 46:46.53 | 3:48.05 | 210503 | 227607
13 | 50:34.58 | 3:14.01 | 227608 | 242158
14 | 53:48.59 | 2:33.50 | 242159 | 253683
15 | 56:22.34 | 3:11.44 | 253684 | 268052
16 | 59:34.03 | 4:33.54 | 268053 | 288581
17 | 64:07.57 | 3:21.42 | 288582 | 303698
18 | 67:29.24 | 3:34.52 | 303699 | 319800
19 | 71:04.01 | 3:48.27 | 319801 | 336927
20 | 74:52.28 | 3:39.35 | 336928 | 353387


Track 1

Filename E:\PT\Various Artists - 40 Years of Music (2015) [FLAC] {5365471}\Disc 4of4\01 - Wolfmother - Joker and the Thief.wav

Pre-gap length 0:00:02.00

Peak level 89.1 %
Extraction speed 5.4 X
Track quality 100.0 %
Test CRC A5E7C9EA
Copy CRC A5E7C9EA
Accurately ripped (confidence 9) [95C52785] (AR v2)
Copy OK

Track 2

Filename E:\PT\Various Artists - 40 Years of Music (2015) [FLAC] {5365471}\Disc 4of4\02 - Augie March - One Crowded Hour.wav

Peak level 89.1 %
Extraction speed 5.4 X
Track quality 100.0 %
Test CRC 5B85050A
Copy CRC 5B85050A
Accurately ripped (confidence 9) [D2D57112] (AR v2)
Copy OK

Track 3

Filename E:\PT\Various Artists - 40 Years of Music (2015) [FLAC] {5365471}\Disc 4of4\03 - MGMT - Electric Feel.wav

Peak level 89.1 %
Extraction speed 5.5 X
Track quality 100.0 %
Test CRC D4FB8774
Copy CRC D4FB8774
Accurately ripped (confidence 9) [85D3CD47] (AR v2)
Copy OK

Track 4

Filename E:\PT\Various Artists - 40 Years of Music (2015) [FLAC] {5365471}\Disc 4of4\04 - The Presets - My People.wav

Peak level 83.0 %
Extraction speed 5.1 X
Track quality 99.9 %
Test CRC E430AC99
Copy CRC E430AC99
Accurately ripped (confidence 9) [5E0D28D0] (AR v2)
Copy OK

Track 5

Filename E:\PT\Various Artists - 40 Years of Music (2015) [FLAC] {5365471}\Disc 4of4\05 - The John Butler Trio - Better Than.wav

Peak level 89.1 %
Extraction speed 5.4 X
Track quality 100.0 %
Test CRC 312E75DE
Copy CRC 312E75DE
Accurately ripped (confidence 9) [4C29983E] (AR v2)
Copy OK

Track 6

Filename E:\PT\Various Artists - 40 Years of Music (2015) [FLAC] {5365471}\Disc 4of4\06 - Sarah Blasko - We Won't Run.wav

Peak level 89.1 %
Extraction speed 5.6 X
Track quality 100.0 %
Test CRC 22444B91
Copy CRC 22444B91
Accurately ripped (confidence 9) [94BA04B0] (AR v2)
Copy OK

Track 7

Filename E:\PT\Various Artists - 40 Years of Music (2015) [FLAC] {5365471}\Disc 4of4\07 - Phoenix - Lisztomania.wav

Peak level 83.5 %
Extraction speed 5.5 X
Track quality 100.0 %
Test CRC F0B1E905
Copy CRC F0B1E905
Accurately ripped (confidence 9) [ABBFCCC8] (AR v2)
Copy OK

Track 8

Filename E:\PT\Various Artists - 40 Years of Music (2015) [FLAC] {5365471}\Disc 4of4\08 - Kanye West feat. Pusha T - Runaway.wav

Peak level 80.2 %
Extraction speed 5.1 X
Track quality 100.0 %
Test CRC E21DDC10
Copy CRC E21DDC10
Accurately ripped (confidence 9) [4EBFABE9] (AR v2)
Copy OK

Track 9

Filename E:\PT\Various Artists - 40 Years of Music (2015) [FLAC] {5365471}\Disc 4of4\09 - The Wombats - Tokyo (Vampires & Wolves).wav

Peak level 83.0 %
Extraction speed 5.4 X
Track quality 99.9 %
Test CRC 1CA5CEDE
Copy CRC 1CA5CEDE
Accurately ripped (confidence 9) [EFFAD453] (AR v2)
Copy OK

Track 10

Filename E:\PT\Various Artists - 40 Years of Music (2015) [FLAC] {5365471}\Disc 4of4\10 - Florence + the Machine - Shake It Out.wav

Peak level 82.2 %
Extraction speed 5.4 X
Track quality 100.0 %
Test CRC 8E5F445D
Copy CRC 8E5F445D
Accurately ripped (confidence 9) [2CE48DF0] (AR v2)
Copy OK

Track 11

Filename E:\PT\Various Artists - 40 Years of Music (2015) [FLAC] {5365471}\Disc 4of4\11 - Of Monsters and Men - Little Talks.wav

Peak level 89.1 %
Extraction speed 5.5 X
Track quality 100.0 %
Test CRC 6B79A3CA
Copy CRC 6B79A3CA
Accurately ripped (confidence 9) [8437BCCB] (AR v2)
Copy OK

Track 12

Filename E:\PT\Various Artists - 40 Years of Music (2015) [FLAC] {5365471}\Disc 4of4\12 - alt-J (∆) - Breezeblocks.wav

Peak level 89.1 %
Extraction speed 5.6 X
Track quality 99.9 %
Test CRC 50EAA756
Copy CRC 50EAA756
Accurately ripped (confidence 9) [FE36E531] (AR v2)
Copy OK

Track 13

Filename E:\PT\Various Artists - 40 Years of Music (2015) [FLAC] {5365471}\Disc 4of4\13 - Tame Impala - Feels Like We Only Go Backwards.wav

Peak level 89.1 %
Extraction speed 4.1 X
Track quality 100.0 %
Test CRC F743D6E7
Copy CRC F743D6E7
Accurately ripped (confidence 8) [8B68D2C2] (AR v2)
Copy OK

Track 14

Filename E:\PT\Various Artists - 40 Years of Music (2015) [FLAC] {5365471}\Disc 4of4\14 - Flume - Holdin On.wav

Peak level 89.1 %
Extraction speed 4.6 X
Track quality 99.9 %
Test CRC 5FBA1DB2
Copy CRC 5FBA1DB2
Accurately ripped (confidence 9) [D93A75EA] (AR v2)
Copy OK

Track 15

Filename E:\PT\Various Artists - 40 Years of Music (2015) [FLAC] {5365471}\Disc 4of4\15 - Lorde - Royals.wav

Peak level 89.1 %
Extraction speed 4.4 X
Track quality 99.9 %
Test CRC C26B979A
Copy CRC C26B979A
Accurately ripped (confidence 9) [CD910337] (AR v2)
Copy OK

Track 16

Filename E:\PT\Various Artists - 40 Years of Music (2015) [FLAC] {5365471}\Disc 4of4\16 - Arctic Monkeys - Do I Wanna Know.wav

Peak level 89.1 %
Extraction speed 4.7 X
Track quality 100.0 %
Test CRC 81576CBD
Copy CRC 81576CBD
Accurately ripped (confidence 9) [7C7873AE] (AR v2)
Copy OK

Track 17

Filename E:\PT\Various Artists - 40 Years of Music (2015) [FLAC] {5365471}\Disc 4of4\17 - Vance Joy - Riptide.wav

Peak level 89.1 %
Extraction speed 4.3 X
Track quality 100.0 %
Test CRC 391D6B12
Copy CRC 391D6B12
Accurately ripped (confidence 9) [AD35B3DF] (AR v2)
Copy OK

Track 18

Filename E:\PT\Various Artists - 40 Years of Music (2015) [FLAC] {5365471}\Disc 4of4\18 - The Preatures - Is This How You Feel.wav

Peak level 89.1 %
Extraction speed 4.0 X
Track quality 100.0 %
Test CRC 14A0162D
Copy CRC 14A0162D
Accurately ripped (confidence 9) [0A2722AB] (AR v2)
Copy OK

Track 19

Filename E:\PT\Various Artists - 40 Years of Music (2015) [FLAC] {5365471}\Disc 4of4\19 - Peking Duk feat. Nicole Millar - High.wav

Peak level 77.0 %
Extraction speed 4.4 X
Track quality 100.0 %
Test CRC DE3EA43F
Copy CRC DE3EA43F
Accurately ripped (confidence 9) [AD29E6B0] (AR v2)
Copy OK

Track 20

Filename E:\PT\Various Artists - 40 Years of Music (2015) [FLAC] {5365471}\Disc 4of4\20 - Chet Faker - Talk Is Cheap.wav

Peak level 83.5 %
Extraction speed 4.4 X
Track quality 99.9 %
Test CRC DF714307
Copy CRC DF714307
Accurately ripped (confidence 9) [EC005544] (AR v2)
Copy OK


All tracks accurately ripped

No errors occurred

End of status report

–– AcoustID Plugin V1.2.0

Total fingerprints: 20


–– CUETools DB Plugin V2.1.6

[CTDB TOCID: DwrA1jhxxxaVepIyf4J2feS2T10-] found
Submit result: DwrA1jhxxxaVepIyf4J2feS2T10- has been confirmed
Track | CTDB Status
1 | (43/43) Accurately ripped
2 | (43/43) Accurately ripped
3 | (43/43) Accurately ripped
4 | (43/43) Accurately ripped
5 | (43/43) Accurately ripped
6 | (43/43) Accurately ripped
7 | (43/43) Accurately ripped
8 | (43/43) Accurately ripped
9 | (43/43) Accurately ripped
10 | (43/43) Accurately ripped
11 | (43/43) Accurately ripped
12 | (43/43) Accurately ripped
13 | (43/43) Accurately ripped
14 | (43/43) Accurately ripped
15 | (43/43) Accurately ripped
16 | (43/43) Accurately ripped
17 | (43/43) Accurately ripped
18 | (43/43) Accurately ripped
19 | (43/43) Accurately ripped
20 | (43/43) Accurately ripped


==== Log checksum 3934AC36337DE35F416160BC62641E647D03393FD407497DCC2BAB9709B02D41 ====