Subcategories

Snowman - Absence (2011) {Dot Dash Recordings}

Posted By: TestTickles
Snowman - Absence (2011) {Dot Dash Recordings}

Snowman - Absence (2011) {Dot Dash Recordings}
EAC Rip | FLAC with CUE and LOG | scans | 249 mb
MP3 CBR 320 kbps | RAR | 91 mb
Genre: indie rock

If absence truly makes the heart grow fonder, then this is the best title that could be chosen for this indie rock band originally from Australia. Absence is the 2011 album by Snowman, who moved to London to better themselves but that would lead to the group calling it a day. This was released by Dot Dash Recordings.

1. Snakes & Ladders (3:58)
2. HyenΔ (3:14)
3. White Wall (4:10)
4. SéΔnce (5:00)
5. ∆ (6:08)
6. Memory Lost (5:27)
7. Δ Vanishing Act (6:08)
8. Δbsence (6:30)

Exact Audio Copy V0.99 prebeta 5 from 4. May 2009

EAC extraction logfile from 13. October 2011, 8:48

Snowman / Absence

Used drive : HL-DT-STDVDRAM GMA-4082N Adapter: 0 ID: 0

Read mode : Secure
Utilize accurate stream : Yes
Defeat audio cache : Yes
Make use of C2 pointers : No

Read offset correction : 667
Overread into Lead-In and Lead-Out : No
Fill up missing offset samples with silence : Yes
Delete leading and trailing silent blocks : No
Null samples used in CRC calculations : Yes
Used interface : Installed external ASPI interface
Gap handling : Appended to previous track

Used output format : User Defined Encoder
Selected bitrate : 128 kBit/s
Quality : High
Add ID3 tag : No
Command line compressor : C:\Program Files\Exact Audio Copy\Flac\flac.exe
Additional command line options : -V -8 -T "artist=%a" -T "title=%t" -T "album=%g" -T "date=%y" -T "tracknumber=%n" -T "genre=%m" %s


TOC of the extracted CD

Track | Start | Length | Start sector | End sector
––––––––––––––––––––––––––––-
1 | 0:00.00 | 3:58.27 | 0 | 17876
2 | 3:58.27 | 3:14.26 | 17877 | 32452
3 | 7:12.53 | 4:10.67 | 32453 | 51269
4 | 11:23.45 | 5:00.19 | 51270 | 73788
5 | 16:23.64 | 6:08.27 | 73789 | 101415
6 | 22:32.16 | 5:27.01 | 101416 | 125941
7 | 27:59.17 | 6:08.47 | 125942 | 153588
8 | 34:07.64 | 6:30.40 | 153589 | 182878


Track 1

Filename C:\cuntfist\FLAC\Snowman - Absence (2011) [FLAC] {Dot Dash Recordings}\01 - Snakes & Ladders.wav

Pre-gap length 0:00:02.00

Peak level 94.6 %
Track quality 100.0 %
Test CRC D5E41D15
Copy CRC D5E41D15
Track not present in AccurateRip database
Copy OK

Track 2

Filename C:\cuntfist\FLAC\Snowman - Absence (2011) [FLAC] {Dot Dash Recordings}\02 - Hyena.wav

Pre-gap length 0:00:03.52

Peak level 100.0 %
Track quality 100.0 %
Test CRC 6A67683B
Copy CRC 6A67683B
Track not present in AccurateRip database
Copy OK

Track 3

Filename C:\cuntfist\FLAC\Snowman - Absence (2011) [FLAC] {Dot Dash Recordings}\03 - White Wall.wav

Pre-gap length 0:00:00.60

Peak level 94.8 %
Track quality 100.0 %
Test CRC 48C45CC8
Copy CRC 48C45CC8
Track not present in AccurateRip database
Copy OK

Track 4

Filename C:\cuntfist\FLAC\Snowman - Absence (2011) [FLAC] {Dot Dash Recordings}\04 - Seance.wav

Peak level 94.8 %
Track quality 100.0 %
Test CRC 2A89C5D4
Copy CRC 2A89C5D4
Track not present in AccurateRip database
Copy OK

Track 5

Filename C:\cuntfist\FLAC\Snowman - Absence (2011) [FLAC] {Dot Dash Recordings}\05 - A.wav

Peak level 94.7 %
Track quality 100.0 %
Test CRC 4320F5EF
Copy CRC 4320F5EF
Track not present in AccurateRip database
Copy OK

Track 6

Filename C:\cuntfist\FLAC\Snowman - Absence (2011) [FLAC] {Dot Dash Recordings}\06 - Memory Lost.wav

Pre-gap length 0:00:00.14

Peak level 94.8 %
Track quality 100.0 %
Test CRC 9D8460B0
Copy CRC 9D8460B0
Track not present in AccurateRip database
Copy OK

Track 7

Filename C:\cuntfist\FLAC\Snowman - Absence (2011) [FLAC] {Dot Dash Recordings}\07 - A Vanishing Act.wav

Pre-gap length 0:00:00.54

Peak level 94.8 %
Track quality 100.0 %
Test CRC 9D4131E7
Copy CRC 9D4131E7
Track not present in AccurateRip database
Copy OK

Track 8

Filename C:\cuntfist\FLAC\Snowman - Absence (2011) [FLAC] {Dot Dash Recordings}\08 - Absence.wav

Pre-gap length 0:00:01.06

Peak level 94.8 %
Track quality 99.9 %
Test CRC DFE9EBC8
Copy CRC DFE9EBC8
Track not present in AccurateRip database
Copy OK


None of the tracks are present in the AccurateRip database

No errors occurred

End of status report


Snowman - Absence (2011) {Dot Dash Recordings}


Thank you to the original uploader.