Subcategories

Zubin Mehta, Sir Neville Marriner, Carl Davis, Antal Dorati, Marilyn Horne - Aaron Copland: Orchestral & Vocal Works (1996) 2CD

Posted By: Designol
Zubin Mehta, Sir Neville Marriner, Carl Davis, Antal Dorati, Marilyn Horne - Aaron Copland: Orchestral & Vocal Works (1996) 2CD

Aaron Copland: Orchestral & Vocal Works (1996) 2CDs
Fanfare For The Common Man; Appalachian Spring; Lincoln Portrait; Quiet City;
Music For Movies; Ceremonial Fanfare; El Salón México; Old American Songs;
Dance Symphony; 4 Dances From 'Rodeo'
Los Angeles Philharmonic Orchestra, conducted by Zubin Mehta; Gregory Peck, speaker
Academy of St. Martin in the Fields, conducted by Sir Neville Marriner
London Sinfonietta, conducted by Elgar Howarth; Philip Jones Brass Ensemble
English Chamber Orchestra, conducted by Carl Davis; Marilyn Horne, mezzo-soprano
Detroit Symphony Orchestra, conducted by Antal Doráti

EAC | FLAC | Image (Cue&Log) ~ 554 Mb | Mp3 (CBR320) ~ 313 Mb | Scans included
Genre: Classical | Label: Decca | # 448 261-2 | Time: 02:12:18

If you want a good sampling of Copland's orchestral works, then this 2-CD compilation comes highly recommended, with excellent performances of works such as Appalachian Spring, Quiet City, El Salón México and others.

Review by James Longstaffe, Presto Classical

Mehta’s Fanfare for the Common Man is rousing and effective – and still sounds pretty spectacular 20 years on. Recorded at the same Royce Hall sessions in July 1976, Appalachian Spring is perhaps just a little too bullish and self-consciously brilliant for my tastes, though the Decca engineering is first-rate. Mehta’s red-blooded Lincoln Portrait (recorded in 1968 with Gregory Peck as speaker) sounds a little more brash. In all these three works the Los Angeles Philharmonic play very well indeed. No complaints, either, about the quality of the orchestral response in Marriner’s 1975 ASMF account of Quiet City or Elgar Howarth’s sensitive 1980 performance of Music for Movies with the London Sinfonietta (both originally released on Argo and beautifully produced by Chris Hazell).

Sumptuous, excitingly transparent sound (1976-85 vintage) in the best Decca tradition is a consistent feature on the second CD. The Philip Jones Brass Ensemble are characteristically immaculate in the arresting Ceremonial Fanfare (written in 1969 for the Metropolitan Museum’s centenary). This is followed by an immensely attractive sequence of five of the Old American Songs, delivered with fine character and (in the case of “I bought me a cat”) infectious relish by Marilyn Horne. The alert accompaniments come from the ECO under Carl Davis. Lastly, Dorati and the Detroit Symphony turn in highly proficient accounts of El salon Mexico, the Dance Symphony and the four Rodeo episodes. The colourful symphony comes off best, I feel – a lucid, finely prepared display. However, El salon Mexico could do with greater athleticism and charismatic flair of the Bernstein variety, and although the slower numbers in Rodeo work beautifully, both “Buckaroo Holiday” and “Hoe-Down” emerge in marginally literal, swagger-free fashion.

A small parting observation: the total timing of 132 minutes is somewhat less generous than on the majority of Double Deccas released so far – a small gripe about what is an otherwise recommendable anthology.'

Review by Andrew Achenbach, Gramophone

These two CDs comprise almost 134 minutes of some of Copland's most popular works, played by some very fine Orchestras/Ensembles including The Los Angeles Symphony Orchestra under Zubin Mehta; The Detroit Symphony Orcherstra, under Antal Dorati; The London Sinfonietta under Elgar Howarth; The English Chamber Orchestra, with the mezzo-soprano Marilyn Horne, under Carl Davies; The Academy of St. Martin-in-the-Fields, under Neville Marriner and The Philip Jones Brass Ensemble. It also features the voice of Gregory Peck.

If, like me, you came late to this highly-original and gifted composer, this is an excellent and fairly comprehensive collection on which to cut your teeth.

You will probably already be familiar with Fanfare for the Common Man, but the percussion in this version is the best I've heard. Appalacian Spring, with its eight sections ranging from just under two up to three-and-a-half minutes each, is a gem. The very slow introduction sucks you in to the simple American "backwoods" life and you are hooked; part seven - based on the Shaker Dance/Hymn (on which Sydney Carter based the tune for his 1963 Hymn "Lord of the Dance") is perhaps the pick. Part of the Lincoln Portrait is narrated by Gregory Peck and shows the Composer's patriotic commitment to the history of his native USA, inspite of his Lithuanian-Jewish heritage. One of the most original pieces in this collection is "The Quiet City", for cor Anglais, trumpet and strings.

The section of five songs from the Old American Song Books is, I believe the pick of the second disk. Copland sticks closely to the original melodies, yet his inventive and understated orchestration lifts these songs especially in "Simple Gifts" and "Long Time Ago" - the latter showcasing the excellent poetry of George Pope Morris.

I don't much care for the Dance Symphony, although I will concede it is highly original and brilliantly recorded, but the Four Dance Episodes in the Suite based on his ballet Rodeo are lively and vibrant with the highly original Saturday Night Waltz being particularly fine.

If you are looking to get to grips with Copland, then look no further, this high quality collection, at a very competitive price, is ideal.

Review by Christine M. Pluck, Amazon.co.uk

Zubin Mehta, Sir Neville Marriner, Carl Davis, Antal Dorati, Marilyn Horne - Aaron Copland: Orchestral & Vocal Works (1996) 2CD



Recording locations:
Royce Hall, University of California, Los Angeles, July 1976 (Appalachian Spring, Fanfare for the Common Man)
St John's, Smith Square, London, October 1975 (Quiet City)
Kingsway Hall, London, 1976 (Ceremonial Fanfare)
Rosslyn Hill, London, 1980 (Music for Movies)
United Artists Auditorium, Detroit, May 1981 (El Salón México, Dance Symphony, Four Dance Episodes From 'Rodeo')
Walthamstow Assembly Hall, London, August 1985 (Old American Songs)
Lincoln Portrait was recorded in 1968

Tracklist:

CD1

1. Fanfare for the Common Man 2:47
- Los Angeles Philharmonic members
- Zubin Mehta, conductor

Appalachian Spring (1945 Suite)
2. 1. Very slowly 2:55
3. 2. Allegro 2:49
4. 3. Moderato: The Bride and her Intended 3:30
5. 4. Fast: The Revivalist and his Flock 3:30
6. 5. Allegro: Solo Dance of the Bride 2:53
7. 6. Meno mosso 1:58
8. 7. Doppio movimento: Variations on a Shaker Hymn 2:43
9. 8. Moderato: Coda 3:06
- Los Angeles Philharmonic Orchestra
- Zubin Mehta, conductor

10. Lincoln Portrait, For Speaker And Orchestra 15:02
- Los Angeles Philharmonic Orchestra
- Zubin Mehta, conductor
- Gregory Peck, spoken vocals

11. Quiet City 8:40
- Academy of St. Martin in the Fields
- Sir Neville Marriner, conductor

Music for Movies
12. 1. New England Countryside 6:08
13. 2. Barley Wagons 2:13
14. 3. Sunday Traffic 2:27
15. 4. Grovers Corners 2:55
16. 5. Threshing Machines 3:33
- London Sinfonietta,
- Elgar Howarth, conductor

CD 2

01. Ceremonial Fanfare 3:38
- Philip Jones Brass Ensemble

Old American Songs
02. 1. Simple gifts 1:44
03. 2. Ching-a-ring-ching-chaw 1:31
04. 3. Long time ago 3:16
05. 4. I bought me a cat 2:16
06. 5. At the river 3:22
- English Chamber Orchestra
- Carl Davis, conductor
- Marilyn Horne, mezzo-soprano

07. El salón Mexicó 10:27
Dance Symphony
08. 1. Lento - molto allegro - adagio molto 7:11
09. 2. Andante moderato 4:32
10. 3. Allegro vivo 5:25
Rodeo: Four Dance Episodes
11. 1. Buckaroo Holiday 8:35
12. 2. Corral Nocturne 3:31
13. 3. Saturday Night Waltz 4:17
14. 4. Hoe-Down 3:49
- Detroit Symphony Orchestra
- Antal Doráti, conductor


Exact Audio Copy V1.0 beta 3 from 29. August 2011

EAC extraction logfile from 17. July 2014, 21:52

Zubin Mehta / Fanfare for the Common Man, Appalachian Spring etc (CD1)

Used drive : TSSTcorp CDDVDW Adapter: 0 ID: 0

Read mode : Secure
Utilize accurate stream : Yes
Defeat audio cache : Yes
Make use of C2 pointers : No

Read offset correction : 6
Overread into Lead-In and Lead-Out : No
Fill up missing offset samples with silence : Yes
Delete leading and trailing silent blocks : No
Null samples used in CRC calculations : Yes
Used interface : Installed external ASPI interface

Used output format : User Defined Encoder
Selected bitrate : 768 kBit/s
Quality : High
Add ID3 tag : No
Command line compressor : C:\Program Files (x86)\Exact Audio Copy\FLAC\FLAC.EXE
Additional command line options : -6 -V -T "ARTIST=%artist%" -T "TITLE=%title%" -T "ALBUM=%albumtitle%" -T "DATE=%year%" -T "TRACKNUMBER=%tracknr%" -T "GENRE=%genre%" -T "COMMENT=%comment%" -T "BAND=%albuminterpret%" -T "ALBUMARTIST=%albuminterpret%" -T "COMPOSER=%composer%" %haslyrics%–tag-from-file=LYRICS="%lyricsfile%"%haslyrics% -T "DISCNUMBER=%cdnumber%" -T "TOTALDISCS=%totalcds%" -T "TOTALTRACKS=%numtracks%" %hascover%–picture="%coverfile%"%hascover% %source% -o %dest%


TOC of the extracted CD

Track | Start | Length | Start sector | End sector
––––––––––––––––––––––––––––-
1 | 0:00.32 | 2:55.13 | 32 | 13169
2 | 2:55.45 | 2:54.60 | 13170 | 26279
3 | 5:50.30 | 2:49.27 | 26280 | 38981
4 | 8:39.57 | 3:29.55 | 38982 | 54711
5 | 12:09.37 | 3:30.00 | 54712 | 70461
6 | 15:39.37 | 2:53.38 | 70462 | 83474
7 | 18:33.00 | 1:57.62 | 83475 | 92311
8 | 20:30.62 | 2:43.50 | 92312 | 104586
9 | 23:14.37 | 3:13.03 | 104587 | 119064
10 | 26:27.40 | 15:09.05 | 119065 | 187244
11 | 41:36.45 | 8:47.62 | 187245 | 226831
12 | 50:24.32 | 6:10.63 | 226832 | 254644
13 | 56:35.20 | 2:16.07 | 254645 | 264851
14 | 58:51.27 | 2:29.30 | 264852 | 276056
15 | 61:20.57 | 2:58.60 | 276057 | 289466
16 | 64:19.42 | 3:32.65 | 289467 | 305431


Range status and errors

Selected range

Filename C:\RIP\Copland - Fanfare for the Common Man CD 1.wav

Peak level 100.0 %
Extraction speed 3.3 X
Range quality 100.0 %
Test CRC 490D05DA
Copy CRC 490D05DA
Copy OK

No errors occurred


AccurateRip summary

Track 1 accurately ripped (confidence 2) [6343D86A] (AR v2)
Track 2 accurately ripped (confidence 4) [794C06B0] (AR v1)
Track 3 accurately ripped (confidence 4) [53857A93] (AR v1)
Track 4 accurately ripped (confidence 4) [569A4565] (AR v1)
Track 5 accurately ripped (confidence 4) [A24437D9] (AR v1)
Track 6 accurately ripped (confidence 4) [9D957399] (AR v1)
Track 7 accurately ripped (confidence 4) [ACCC5988] (AR v1)
Track 8 accurately ripped (confidence 4) [E6EC8938] (AR v1)
Track 9 accurately ripped (confidence 4) [5EB6DC4A] (AR v1)
Track 10 accurately ripped (confidence 4) [24FFD483] (AR v1)
Track 11 accurately ripped (confidence 4) [5E83B11A] (AR v1)
Track 12 accurately ripped (confidence 4) [A7A1F9C8] (AR v1)
Track 13 accurately ripped (confidence 4) [54C9DCDA] (AR v1)
Track 14 accurately ripped (confidence 4) [B5A658FC] (AR v1)
Track 15 accurately ripped (confidence 4) [0E0BF66B] (AR v1)
Track 16 accurately ripped (confidence 4) [B32089F5] (AR v1)

All tracks accurately ripped

End of status report

==== Log checksum 38B724EC44469B5A80A398BC94A0F3C59D9FC75C18CA75346992E19C1FCDB71B ====

[CUETools log; Date: 06.02.2018 23:08:40; Version: 2.1.4]
Pregap length 00:00:32.
[CTDB TOCID: e7_mZBD6fgTVjjLvmMeJBiVJNR8-] found.
Track | CTDB Status
1 | (23/24) Accurately ripped
2 | (22/24) Accurately ripped
3 | (23/24) Accurately ripped
4 | (22/24) Accurately ripped
5 | (23/24) Accurately ripped
6 | (23/24) Accurately ripped
7 | (23/24) Accurately ripped
8 | (23/24) Accurately ripped
9 | (23/24) Accurately ripped
10 | (22/24) Accurately ripped
11 | (23/24) Accurately ripped
12 | (23/24) Accurately ripped
13 | (23/24) Accurately ripped
14 | (23/24) Accurately ripped
15 | (21/24) Accurately ripped
16 | (23/24) Accurately ripped
[AccurateRip ID: 0024bcb7-01cc7679-e10fe810] found.
Track [ CRC | V2 ] Status
01 [7950fea1|6343d86a] (04+03/31) Accurately ripped
02 [794c06b0|81a6bc1f] (04+02/29) Accurately ripped
03 [53857a93|f2353693] (04+02/30) Accurately ripped
04 [569a4565|04f73643] (04+02/30) Accurately ripped
05 [a24437d9|757d7eaa] (04+02/30) Accurately ripped
06 [9d957399|64741fb7] (04+02/30) Accurately ripped
07 [accc5988|952c1322] (04+02/30) Accurately ripped
08 [e6ec8938|b8fdba67] (04+02/30) Accurately ripped
09 [5eb6dc4a|8d23004b] (04+02/30) Accurately ripped
10 [24ffd483|4e84e5ef] (04+02/29) Accurately ripped
11 [5e83b11a|e006fa6e] (04+02/30) Accurately ripped
12 [a7a1f9c8|e819375d] (04+02/30) Accurately ripped
13 [54c9dcda|98c69b9a] (04+02/30) Accurately ripped
14 [b5a658fc|1616bf8e] (04+02/30) Accurately ripped
15 [0e0bf66b|0ac3aaf1] (04+02/29) Accurately ripped
16 [b32089f5|0c350f3b] (04+02/30) Accurately ripped
Offsetted by 664:
01 [633b2f1c] (09/31) Accurately ripped
02 [2ba2cb1e] (08/29) Accurately ripped
03 [0a1b1dbf] (09/30) Accurately ripped
04 [766e0dc7] (09/30) Accurately ripped
05 [3795dc7b] (09/30) Accurately ripped
06 [5fd78e43] (09/30) Accurately ripped
07 [3015f9a6] (09/30) Accurately ripped
08 [c5bdd02a] (09/30) Accurately ripped
09 [9ae862ae] (09/30) Accurately ripped
10 [57d02d8e] (08/29) Accurately ripped
11 [4097f7bc] (09/30) Accurately ripped
12 [bea2a476] (09/30) Accurately ripped
13 [2b3c0d11] (09/30) Accurately ripped
14 [77c8b5cb] (09/30) Accurately ripped
15 [ed380222] (09/29) Accurately ripped
16 [5cbfca0a] (09/30) Accurately ripped

Track Peak [ CRC32 ] [W/O NULL] [ LOG ]
– 100,0 [490D05DA] [E69CC646] CRC32
01 100,0 [1A283810] [C1AF0A87]
02 10,5 [C0A37925] [DC365219]
03 80,9 [D1215B1D] [DEF995BB]
04 37,7 [EBF5551E] [99F117EC]
05 78,5 [E9234966] [9ED3CB08]
06 89,1 [1DC26A6D] [237001F6]
07 17,8 [D4F696AA] [72A3D6F4]
08 79,6 [96E6A90D] [1534C148]
09 21,9 [EE818239] [01FD8EB5]
10 97,9 [2ED5BFEF] [75FD6D5A]
11 63,3 [4C05D504] [DB35456A]
12 89,2 [16A4E85C] [832FF252]
13 23,6 [5B2F9C44] [65119F3F]
14 79,4 [BC129B8E] [02808BFC]
15 19,7 [3D01BD01] [D9A500AE]
16 99,9 [60382CDC] [D3CD06C6]

foobar2000 1.2 / Dynamic Range Meter 1.1.1
log date: 2018-02-06 23:00:25

––––––––––––––––––––––––––––––––––––––––
Analyzed: Elgar Howarth / Fanfare for the Common Man, Appalachian Spring etc (CD1)
––––––––––––––––––––––––––––––––––––––––

DR Peak RMS Duration Track
––––––––––––––––––––––––––––––––––––––––
DR15 -0.98 dB -24.38 dB 6:11 12-Music for Movies - I. New England Countryside
DR12 -12.52 dB -28.80 dB 2:16 13-Music for Movies - II. Barley Wagons
DR14 -2.00 dB -23.05 dB 2:29 14-Music for Movies - III. Sunday Traffic
DR13 -14.07 dB -32.03 dB 2:59 15-Music for Movies - IV. Grovers Corners
DR14 -0.01 dB -20.18 dB 3:33 16-Music for Movies - .V. Threshing Machines
––––––––––––––––––––––––––––––––––––––––

Number of tracks: 5
Official DR value: DR14

Samplerate: 44100 Hz
Channels: 2
Bits per sample: 16
Bitrate: 564 kbps
Codec: FLAC
================================================================================

––––––––––––––––––––––––––––––––––––––––
Statistics for: 11-Quiet City
Number of samples: 23277156
Duration: 8:48
––––––––––––––––––––––––––––––––––––––––

Left Right

Peak Value: -4.28 dB –- -3.96 dB
Avg RMS: -25.11 dB –- -24.95 dB
DR channel: 14.54 dB –- 14.54 dB
––––––––––––––––––––––––––––––––––––––––

Official DR Value: DR15

Samplerate: 44100 Hz
Channels: 2
Bits per sample: 16
Bitrate: 564 kbps
Codec: FLAC
================================================================================
––––––––––––––––––––––––––––––––––––––––
Analyzed: Zubin Mehta / Fanfare for the Common Man, Appalachian Spring etc (CD1)
––––––––––––––––––––––––––––––––––––––––

DR Peak RMS Duration Track
––––––––––––––––––––––––––––––––––––––––
DR14 0.00 dB -18.07 dB 2:55 01-Fanfare for the Common Man
DR10 -19.51 dB -35.28 dB 2:55 02-Appalachian Spring (Suite) - (Very slowly)
DR13 -1.83 dB -19.92 dB 2:49 03-Appalachian Spring (Suite) - (Allegro)
DR13 -8.46 dB -29.75 dB 3:30 04-Appalachian Spring (Suite) - (Moderato: The Bride and her Intended)
DR13 -2.09 dB -20.90 dB 3:30 05-Appalachian Spring (Suite) - (Fast: The Revivalist and his Flock)
DR14 -1.00 dB -20.55 dB 2:54 06-Appalachian Spring (Suite) - (Allegro: Solo Dance of the Bride)
DR12 -14.98 dB -33.85 dB 1:58 07-Appalachian Spring (Suite) - (Meno mosso)
DR12 -1.97 dB -19.52 dB 2:44 08-Appalachian Spring (Suite) - (Doppio movimento: Variations on a Shaker hymn)
DR14 -13.19 dB -32.94 dB 3:13 09-Appalachian Spring (Suite) - 8 (Moderato: Coda)
DR12 -0.18 dB -17.78 dB 15:09 10-Lincoln Portrait (Gregory Peck, speaker)
––––––––––––––––––––––––––––––––––––––––

Number of tracks: 10
Official DR value: DR13

Samplerate: 44100 Hz
Channels: 2
Bits per sample: 16
Bitrate: 564 kbps
Codec: FLAC
================================================================================


Exact Audio Copy V1.0 beta 3 from 29. August 2011

EAC extraction logfile from 17. July 2014, 22:46

Antal Doráti / Dance Symphony, Rodeo etc

Used drive : TSSTcorp CDDVDW Adapter: 0 ID: 0

Read mode : Secure
Utilize accurate stream : Yes
Defeat audio cache : Yes
Make use of C2 pointers : No

Read offset correction : 6
Overread into Lead-In and Lead-Out : No
Fill up missing offset samples with silence : Yes
Delete leading and trailing silent blocks : No
Null samples used in CRC calculations : Yes
Used interface : Installed external ASPI interface

Used output format : User Defined Encoder
Selected bitrate : 768 kBit/s
Quality : High
Add ID3 tag : No
Command line compressor : C:\Program Files (x86)\Exact Audio Copy\FLAC\FLAC.EXE
Additional command line options : -6 -V -T "ARTIST=%artist%" -T "TITLE=%title%" -T "ALBUM=%albumtitle%" -T "DATE=%year%" -T "TRACKNUMBER=%tracknr%" -T "GENRE=%genre%" -T "COMMENT=%comment%" -T "BAND=%albuminterpret%" -T "ALBUMARTIST=%albuminterpret%" -T "COMPOSER=%composer%" %haslyrics%–tag-from-file=LYRICS="%lyricsfile%"%haslyrics% -T "DISCNUMBER=%cdnumber%" -T "TOTALDISCS=%totalcds%" -T "TOTALTRACKS=%numtracks%" %hascover%–picture="%coverfile%"%hascover% %source% -o %dest%


TOC of the extracted CD

Track | Start | Length | Start sector | End sector
––––––––––––––––––––––––––––-
1 | 0:00.33 | 3:45.00 | 33 | 16907
2 | 3:45.33 | 1:48.55 | 16908 | 25062
3 | 5:34.13 | 1:36.20 | 25063 | 32282
4 | 7:10.33 | 3:19.55 | 32283 | 47262
5 | 10:30.13 | 2:20.00 | 47263 | 57762
6 | 12:50.13 | 3:29.20 | 57763 | 73457
7 | 16:19.33 | 10:34.00 | 73458 | 121007
8 | 26:53.33 | 7:11.00 | 121008 | 153332
9 | 34:04.33 | 4:31.50 | 153333 | 173707
10 | 38:36.08 | 5:32.25 | 173708 | 198632
11 | 44:08.33 | 8:38.00 | 198633 | 237482
12 | 52:46.33 | 3:33.27 | 237483 | 253484
13 | 56:19.60 | 4:17.00 | 253485 | 272759
14 | 60:36.60 | 3:49.48 | 272760 | 289982


Range status and errors

Selected range

Filename C:\RIP\Copland - Fanfare for the Common Man CD 2.wav

Peak level 99.8 %
Extraction speed 3.1 X
Range quality 99.9 %
Test CRC 1E24C505
Copy CRC 1E24C505
Copy OK

No errors occurred


AccurateRip summary

Track 1 cannot be verified as accurate (confidence 11) [287ED4E1], AccurateRip returned [ABBEF65F] (AR v2)
Track 2 cannot be verified as accurate (confidence 11) [7CF3755C], AccurateRip returned [C1749037] (AR v2)
Track 3 cannot be verified as accurate (confidence 11) [01C54BE7], AccurateRip returned [98477D17] (AR v2)
Track 4 cannot be verified as accurate (confidence 11) [E05B9AFB], AccurateRip returned [6A92CFD8] (AR v2)
Track 5 cannot be verified as accurate (confidence 11) [0ED4CC83], AccurateRip returned [1615F99A] (AR v2)
Track 6 cannot be verified as accurate (confidence 11) [E8B4F58A], AccurateRip returned [2A4E2F49] (AR v2)
Track 7 cannot be verified as accurate (confidence 10) [CAD56D45], AccurateRip returned [7D6220D8] (AR v2)
Track 8 cannot be verified as accurate (confidence 11) [1509BA5C], AccurateRip returned [D0FBDD41] (AR v2)
Track 9 cannot be verified as accurate (confidence 11) [83A92BCD], AccurateRip returned [24E2D053] (AR v2)
Track 10 cannot be verified as accurate (confidence 11) [2179F278], AccurateRip returned [0DA59069] (AR v2)
Track 11 cannot be verified as accurate (confidence 11) [68272288], AccurateRip returned [EEC5D3E6] (AR v2)
Track 12 cannot be verified as accurate (confidence 11) [BDF449D6], AccurateRip returned [16B054ED] (AR v2)
Track 13 cannot be verified as accurate (confidence 11) [66B02A41], AccurateRip returned [759A95E7] (AR v2)
Track 14 cannot be verified as accurate (confidence 10) [C37F5650], AccurateRip returned [8C114F3B] (AR v2)

No tracks could be verified as accurate
You may have a different pressing from the one(s) in the database

End of status report

==== Log checksum A4E5CE5DDB16BFAEC018D71CF3A048BD7B61B2BB7C0F68BD38FA9AFE06A745E8 ====

[CUETools log; Date: 06.02.2018 23:09:08; Version: 2.1.4]
Pregap length 00:00:33.
[CTDB TOCID: ajHGtZUhpc2zXm8RTAejh8wO7w0-] found.
Track | CTDB Status
1 | (27/28) Accurately ripped
2 | (27/28) Accurately ripped
3 | (27/28) Accurately ripped
4 | (27/28) Accurately ripped
5 | (26/28) Accurately ripped
6 | (27/28) Accurately ripped
7 | (25/28) Accurately ripped
8 | (26/28) Accurately ripped
9 | (26/28) Accurately ripped
10 | (27/28) Accurately ripped
11 | (27/28) Accurately ripped
12 | (27/28) Accurately ripped
13 | (25/28) Accurately ripped
14 | (24/28) Accurately ripped
[AccurateRip ID: 001dcd8c-014e748b-b80f1a0e] found.
Track [ CRC | V2 ] Status
01 [b3462fef|287ed4e1] (00+00/26) No match
02 [cb2ec3c9|7cf3755c] (00+00/26) No match
03 [fec57fb9|01c54be7] (00+00/26) No match
04 [b701a338|e05b9afb] (00+00/26) No match
05 [ecbcb6f3|0ed4cc83] (00+00/26) No match
06 [6e5b1a13|e8b4f58a] (00+00/26) No match
07 [4aaa42af|cad56d45] (00+00/24) No match
08 [fac5fd2e|1509ba5c] (00+00/26) No match
09 [b4db331a|83a92bcd] (00+00/26) No match
10 [77fbbb01|2179f278] (00+00/26) No match
11 [5937327c|68272288] (00+00/26) No match
12 [7221ede9|bdf449d6] (00+00/26) No match
13 [2feb70d0|66b02a41] (00+00/26) No match
14 [8c958c3f|c37f5650] (00+00/24) No match
Offsetted by 664:
01 [abbef65f] (11/26) Accurately ripped
02 [c1749037] (11/26) Accurately ripped
03 [98477d17] (11/26) Accurately ripped
04 [6a92cfd8] (11/26) Accurately ripped
05 [1615f99a] (11/26) Accurately ripped
06 [2a4e2f49] (11/26) Accurately ripped
07 [7d6220d8] (10/24) Accurately ripped
08 [d0fbdd41] (11/26) Accurately ripped
09 [24e2d053] (11/26) Accurately ripped
10 [0da59069] (11/26) Accurately ripped
11 [eec5d3e6] (11/26) Accurately ripped
12 [16b054ed] (11/26) Accurately ripped
13 [759a95e7] (11/26) Accurately ripped
14 [8c114f3b] (10/24) Accurately ripped

Track Peak [ CRC32 ] [W/O NULL] [ LOG ]
– 99,8 [1E24C505] [7462B5E8] CRC32
01 76,1 [633EFF9A] [23A5FC1F]
02 36,1 [C3D45450] [BCB68581]
03 75,8 [D86BA305] [70150B58]
04 22,3 [B3E9B65E] [EF544F98]
05 90,7 [C5325A20] [FE094294]
06 89,9 [86E34D61] [6BBC5404]
07 91,7 [572381DE] [5823AA27]
08 73,2 [AC6F9EE2] [C26ABA5B]
09 99,3 [66D3BD37] [96F55A82]
10 99,8 [DF52A810] [77981490]
11 88,7 [2EEF9762] [95CBC9ED]
12 31,6 [631F033E] [F237ADB3]
13 53,2 [C8F45642] [07263522]
14 90,6 [AC8AB567] [9100CDE5]

foobar2000 1.2 / Dynamic Range Meter 1.1.1
log date: 2018-02-06 23:01:01

––––––––––––––––––––––––––––––––––––––––
Analyzed: Antal Dorati / Dance Symphony, Rodeo etc
––––––––––––––––––––––––––––––––––––––––

DR Peak RMS Duration Track
––––––––––––––––––––––––––––––––––––––––
DR16 -0.75 dB -22.41 dB 10:34 07-El Salon Mexico
DR16 -2.71 dB -25.64 dB 7:11 08-Dance Symphony - I. Lento. Molto allegro. Adagio molto
DR16 -0.05 dB -23.40 dB 4:32 09-Dance Symphony - II. Andante moderato
DR16 -0.01 dB -21.08 dB 5:32 10-Dance Symphony - III. Allegro vivo
DR15 -1.03 dB -21.45 dB 8:38 11-Rodeo (Four Dance Episodes) - I. Buckaroo Holiday
DR13 -9.99 dB -30.21 dB 3:33 12-Rodeo (Four Dance Episodes) - II. Corral Nocturne
DR15 -5.47 dB -28.16 dB 4:17 13-Rodeo (Four Dance Episodes) - III. Saturday Night Waltz
DR13 -0.85 dB -21.96 dB 3:50 14-Rodeo (Four Dance Episodes) - IV. Hoe-Down
––––––––––––––––––––––––––––––––––––––––

Number of tracks: 8
Official DR value: DR15

Samplerate: 44100 Hz
Channels: 2
Bits per sample: 16
Bitrate: 584 kbps
Codec: FLAC
================================================================================

––––––––––––––––––––––––––––––––––––––––
Analyzed: Carl Davis / Dance Symphony, Rodeo etc
––––––––––––––––––––––––––––––––––––––––

DR Peak RMS Duration Track
––––––––––––––––––––––––––––––––––––––––
DR13 -8.83 dB -25.39 dB 1:49 02-Five Songs from 'Old American Songs' - I. (Simple Gifts)
DR13 -2.40 dB -21.60 dB 1:36 03-Five Songs from 'Old American Songs' - II. (Ching-a-ring-Chaw)
DR12 -13.02 dB -29.85 dB 3:20 04-Five Songs from 'Old American Songs' - III. (Long Time Ago)
DR15 -0.84 dB -22.19 dB 2:20 05-Five Songs from 'Old American Songs' - IV. (I Bought Me a Cat)
DR11 -0.92 dB -20.45 dB 3:29 06-Five Songs from 'Old American Songs' - V. (At the River)
––––––––––––––––––––––––––––––––––––––––

Number of tracks: 5
Official DR value: DR13

Samplerate: 44100 Hz
Channels: 2
Bits per sample: 16
Bitrate: 584 kbps
Codec: FLAC
================================================================================

––––––––––––––––––––––––––––––––––––––––
Statistics for: 01-Ceremonial Fanfare
Number of samples: 9922500
Duration: 3:45
––––––––––––––––––––––––––––––––––––––––

Left Right

Peak Value: -4.73 dB –- -2.37 dB
Avg RMS: -19.42 dB –- -16.89 dB
DR channel: 10.23 dB –- 9.84 dB
––––––––––––––––––––––––––––––––––––––––

Official DR Value: DR10

Samplerate: 44100 Hz
Channels: 2
Bits per sample: 16
Bitrate: 584 kbps
Codec: FLAC
================================================================================

Zubin Mehta, Sir Neville Marriner, Carl Davis, Antal Dorati, Marilyn Horne - Aaron Copland: Orchestral & Vocal Works (1996) 2CD

Zubin Mehta, Sir Neville Marriner, Carl Davis, Antal Dorati, Marilyn Horne - Aaron Copland: Orchestral & Vocal Works (1996) 2CD

All thanks to original releaser - Dementio81

More interesting music in My Blog

More Aaron Copland Music