Subcategories

Adam Faith - The Best Of Adam Faith (1997)

Posted By: Designol
Adam Faith - The Best Of Adam Faith (1997)

Adam Faith - The Best Of Adam Faith (1997)
EAC | FLAC | Tracks (Cue&Log) ~ 388 Mb | Mp3 (CBR320) ~ 184 Mb | Scans included
Label: EMI Music For Pleasure | # CD MFP 6380/7243 857413 2 6 | Time: 00:56:08
British Invasion, AM Pop, Early British Pop/Rock

Adam Faith was a contemporary of early British rock & rollers like Cliff Richard and Billy Fury, but Faith's sound was less Elvis Presley-derived and more aligned with teen idol pop such as that of Bobby Vee (who covered Faith's number one U.K. hit "What Do You Want?"). John Barry had a hand in Faith's early efforts, and the instrumental arrangements are truly remarkable, from the surprising hoedown-style fiddling on "Don't That Beat All" to the musical saw on "What Now." In fact, it is the arrangements that elevate this music above standard teen idol fare. Faith rocked occasionally, as on "Made You," had moderate success adapting to the changes wrought by the Beatles, and later worked with folk-pop material. The Very Best of Adam Faith tracks his evolution by collecting 26 U.K. chart hits from 1959-1966, four of which were recorded with the Roulettes. Faith had two minor hits in the U.S. in 1965 that aren't included, but The Very Best of Adam Faith is otherwise an exemplary and essential anthology of an early British pop star.

Review by Greg Adams, Allmusic.com

Adam Faith at Allmusic
Adam Faith at Wiki

Tracklist:

01. What Do You Want? (1:39)
02. Poor Me (1:47)
03. Someone Else's Baby (2:05)
04. Johnny Comes Marching Home (1:59)
05. Made You (1:46)
06. How About That (1:55)
07. Lonely Pup (1:49)
08. This Is It (1:48)
09. Who Am I (1:57)
10. Easy Going Me (1:56)
11. Don't You Know It (2:09)
12. The Time Has Come (2:12)
13. Lonesome (2:46)
14. As You Like It (2:04)
15. Don't That Beat All (2:11)
16. Baby Take A Bow (2:00)
17. What Now (1:59)
18. Walkin' Tall (2:07)
19. The First Time (2:05)
20. We Are In Love (2:15)
21. If He Tells You (2:14)
22. I Love Being In Love With You (2:04)
23. Message To Martha (Kentucky Bluebird) (3:10)
24. Stop Feeling Sorry For Yourself (3:07)
25. Someone's Taken Maria Away (2:47)
26. Cheryl's Goin' Home (2:16)


Exact Audio Copy V1.0 beta 3 from 29. August 2011

EAC extraction logfile from 22. April 2014, 22:47

Adam Faith / The Best Of Adam Faith

Used drive : Optiarc DVD RW AD-7280S Adapter: 3 ID: 0

Read mode : Secure
Utilize accurate stream : Yes
Defeat audio cache : Yes
Make use of C2 pointers : No

Read offset correction : 48
Overread into Lead-In and Lead-Out : No
Fill up missing offset samples with silence : Yes
Delete leading and trailing silent blocks : No
Null samples used in CRC calculations : Yes
Used interface : Native Win32 interface for Win NT & 2000
Gap handling : Appended to previous track

Used output format : User Defined Encoder
Selected bitrate : 768 kBit/s
Quality : High
Add ID3 tag : No
Command line compressor : C:\Program Files\Exact Audio Copy\Flac\flac.exe
Additional command line options : -V -8 -T "Genre=%genre%" -T "Artist=%artist%" -T "Title=%title%" -T "Album=%albumtitle%" -T "Date=%year%" -T "Tracknumber=%tracknr%" -T "Comment=%comment%" %source%


TOC of the extracted CD

Track | Start | Length | Start sector | End sector
––––––––––––––––––––––––––––-
1 | 0:00.33 | 1:38.50 | 33 | 7432
2 | 1:39.08 | 1:47.17 | 7433 | 15474
3 | 3:26.25 | 2:04.53 | 15475 | 24827
4 | 5:31.03 | 1:59.07 | 24828 | 33759
5 | 7:30.10 | 1:46.03 | 33760 | 41712
6 | 9:16.13 | 1:55.00 | 41713 | 50337
7 | 11:11.13 | 1:48.70 | 50338 | 58507
8 | 13:00.08 | 1:48.02 | 58508 | 66609
9 | 14:48.10 | 1:57.10 | 66610 | 75394
10 | 16:45.20 | 1:55.60 | 75395 | 84079
11 | 18:41.05 | 2:09.15 | 84080 | 93769
12 | 20:50.20 | 2:12.08 | 93770 | 103677
13 | 23:02.28 | 2:45.57 | 103678 | 116109
14 | 25:48.10 | 2:04.00 | 116110 | 125409
15 | 27:52.10 | 2:11.08 | 125410 | 135242
16 | 30:03.18 | 2:00.35 | 135243 | 144277
17 | 32:03.53 | 1:59.27 | 144278 | 153229
18 | 34:03.05 | 2:07.05 | 153230 | 162759
19 | 36:10.10 | 2:05.08 | 162760 | 172142
20 | 38:15.18 | 2:14.70 | 172143 | 182262
21 | 40:30.13 | 2:13.67 | 182263 | 192304
22 | 42:44.05 | 2:04.08 | 192305 | 201612
23 | 44:48.13 | 3:10.05 | 201613 | 215867
24 | 47:58.18 | 3:07.12 | 215868 | 229904
25 | 51:05.30 | 2:46.50 | 229905 | 242404
26 | 53:52.05 | 2:16.25 | 242405 | 252629


Track 1

Filename D:\CD\The Very Best Of Adam Faith\01. What Do You Want.wav

Pre-gap length 0:00:02.33

Peak level 100.0 %
Extraction speed 2.0 X
Track quality 100.0 %
Test CRC 6EA333F1
Copy CRC 6EA333F1
Accurately ripped (confidence 2) [1249C935] (AR v2)
Copy OK

Track 2

Filename D:\CD\The Very Best Of Adam Faith\02. Poor Me.wav

Pre-gap length 0:00:01.70

Peak level 89.9 %
Extraction speed 1.7 X
Track quality 99.9 %
Test CRC 49318F6A
Copy CRC 49318F6A
Accurately ripped (confidence 2) [A8C81C47] (AR v2)
Copy OK

Track 3

Filename D:\CD\The Very Best Of Adam Faith\03. Someone Else's Baby.wav

Pre-gap length 0:00:01.37

Peak level 99.8 %
Extraction speed 2.3 X
Track quality 100.0 %
Test CRC 85B7C0B1
Copy CRC 85B7C0B1
Accurately ripped (confidence 2) [23015553] (AR v2)
Copy OK

Track 4

Filename D:\CD\The Very Best Of Adam Faith\04. Johnny Comes Marching Home.wav

Pre-gap length 0:00:01.53

Peak level 89.8 %
Extraction speed 2.4 X
Track quality 100.0 %
Test CRC 004AC324
Copy CRC 004AC324
Accurately ripped (confidence 2) [2571FA58] (AR v2)
Copy OK

Track 5

Filename D:\CD\The Very Best Of Adam Faith\05. Made You.wav

Pre-gap length 0:00:01.52

Peak level 96.2 %
Extraction speed 2.4 X
Track quality 100.0 %
Test CRC 9C57D81E
Copy CRC 9C57D81E
Accurately ripped (confidence 2) [84F0C294] (AR v2)
Copy OK

Track 6

Filename D:\CD\The Very Best Of Adam Faith\06. How About That.wav

Pre-gap length 0:00:02.15

Peak level 91.5 %
Extraction speed 2.6 X
Track quality 100.0 %
Test CRC 60FAE754
Copy CRC 60FAE754
Accurately ripped (confidence 2) [47F91C76] (AR v2)
Copy OK

Track 7

Filename D:\CD\The Very Best Of Adam Faith\07. Lonely Pup.wav

Pre-gap length 0:00:02.20

Peak level 100.0 %
Extraction speed 2.6 X
Track quality 100.0 %
Test CRC 5C104EA1
Copy CRC 5C104EA1
Accurately ripped (confidence 2) [E6B16E2C] (AR v2)
Copy OK

Track 8

Filename D:\CD\The Very Best Of Adam Faith\08. This Is It.wav

Pre-gap length 0:00:02.00

Peak level 84.8 %
Extraction speed 2.7 X
Track quality 100.0 %
Test CRC A2864EC0
Copy CRC A2864EC0
Accurately ripped (confidence 2) [BFB59A64] (AR v2)
Copy OK

Track 9

Filename D:\CD\The Very Best Of Adam Faith\09. Who Am I.wav

Pre-gap length 0:00:01.70

Peak level 97.5 %
Extraction speed 2.8 X
Track quality 100.0 %
Test CRC 2D1512D6
Copy CRC 2D1512D6
Accurately ripped (confidence 2) [8D850038] (AR v2)
Copy OK

Track 10

Filename D:\CD\The Very Best Of Adam Faith\10. Easy Going Me.wav

Pre-gap length 0:00:01.47

Peak level 99.6 %
Extraction speed 2.9 X
Track quality 100.0 %
Test CRC F652E4DB
Copy CRC F652E4DB
Accurately ripped (confidence 2) [CB064093] (AR v2)
Copy OK

Track 11

Filename D:\CD\The Very Best Of Adam Faith\11. Don't You Know It.wav

Pre-gap length 0:00:01.55

Peak level 99.9 %
Extraction speed 3.1 X
Track quality 100.0 %
Test CRC 8B106242
Copy CRC 8B106242
Accurately ripped (confidence 2) [5A9B3637] (AR v2)
Copy OK

Track 12

Filename D:\CD\The Very Best Of Adam Faith\12. The Time Has Come.wav

Pre-gap length 0:00:02.32

Peak level 99.3 %
Extraction speed 2.7 X
Track quality 99.9 %
Test CRC 0803D9C5
Copy CRC 0803D9C5
Accurately ripped (confidence 2) [66E3669E] (AR v2)
Copy OK

Track 13

Filename D:\CD\The Very Best Of Adam Faith\13. Lonesome.wav

Pre-gap length 0:00:01.53

Peak level 83.8 %
Extraction speed 3.5 X
Track quality 100.0 %
Test CRC 4DFD0DE7
Copy CRC 4DFD0DE7
Accurately ripped (confidence 2) [B3A3E016] (AR v2)
Copy OK

Track 14

Filename D:\CD\The Very Best Of Adam Faith\14. As You Like It.wav

Pre-gap length 0:00:02.15

Peak level 100.0 %
Extraction speed 3.4 X
Track quality 100.0 %
Test CRC 36387633
Copy CRC 36387633
Accurately ripped (confidence 2) [442B9449] (AR v2)
Copy OK

Track 15

Filename D:\CD\The Very Best Of Adam Faith\15. Don't That Beat All.wav

Pre-gap length 0:00:02.02

Peak level 95.5 %
Extraction speed 2.9 X
Track quality 99.9 %
Test CRC BCFE0D46
Copy CRC BCFE0D46
Accurately ripped (confidence 2) [F1ED5F7B] (AR v2)
Copy OK

Track 16

Filename D:\CD\The Very Best Of Adam Faith\16. Baby Take A Bow.wav

Pre-gap length 0:00:01.58

Peak level 99.5 %
Extraction speed 2.9 X
Track quality 99.9 %
Test CRC 417FC25E
Copy CRC 417FC25E
Accurately ripped (confidence 2) [DE534A13] (AR v2)
Copy OK

Track 17

Filename D:\CD\The Very Best Of Adam Faith\17. What Now.wav

Pre-gap length 0:00:01.70

Peak level 100.0 %
Extraction speed 3.6 X
Track quality 100.0 %
Test CRC D3D91BB6
Copy CRC D3D91BB6
Accurately ripped (confidence 2) [A886D891] (AR v2)
Copy OK

Track 18

Filename D:\CD\The Very Best Of Adam Faith\18. Walkin' Tall.wav

Pre-gap length 0:00:02.17

Peak level 79.8 %
Extraction speed 3.7 X
Track quality 100.0 %
Test CRC 009CEF8E
Copy CRC 009CEF8E
Accurately ripped (confidence 2) [3A0EDDE8] (AR v2)
Copy OK

Track 19

Filename D:\CD\The Very Best Of Adam Faith\19. The First Time.wav

Pre-gap length 0:00:01.60

Peak level 95.8 %
Extraction speed 3.8 X
Track quality 100.0 %
Test CRC FA13BBC4
Copy CRC FA13BBC4
Accurately ripped (confidence 2) [7930B657] (AR v2)
Copy OK

Track 20

Filename D:\CD\The Very Best Of Adam Faith\20. We Are In Love.wav

Pre-gap length 0:00:01.55

Peak level 99.8 %
Extraction speed 3.9 X
Track quality 100.0 %
Test CRC F7C7A83C
Copy CRC F7C7A83C
Accurately ripped (confidence 2) [C90D7D98] (AR v2)
Copy OK

Track 21

Filename D:\CD\The Very Best Of Adam Faith\21. If He Tells You.wav

Pre-gap length 0:00:02.30

Peak level 92.9 %
Extraction speed 4.0 X
Track quality 100.0 %
Test CRC 6E6468B3
Copy CRC 6E6468B3
Accurately ripped (confidence 4) [4D0205DB] (AR v1)
Copy OK

Track 22

Filename D:\CD\The Very Best Of Adam Faith\22. I Love Being In Love With You.wav

Pre-gap length 0:00:02.07

Peak level 92.5 %
Extraction speed 4.0 X
Track quality 100.0 %
Test CRC ABB15C26
Copy CRC ABB15C26
Accurately ripped (confidence 4) [A1FA231F] (AR v1)
Copy OK

Track 23

Filename D:\CD\The Very Best Of Adam Faith\23. Message To Martha (Kentucky Bluebird).wav

Pre-gap length 0:00:01.70

Peak level 77.2 %
Extraction speed 4.4 X
Track quality 100.0 %
Test CRC 1F8463DE
Copy CRC 1F8463DE
Accurately ripped (confidence 4) [37F725E3] (AR v1)
Copy OK

Track 24

Filename D:\CD\The Very Best Of Adam Faith\24. Stop Feeling Sorry For Yourself.wav

Pre-gap length 0:00:02.43

Peak level 98.9 %
Extraction speed 4.5 X
Track quality 100.0 %
Test CRC 6D4564FE
Copy CRC 6D4564FE
Accurately ripped (confidence 2) [69A40BD4] (AR v2)
Copy OK

Track 25

Filename D:\CD\The Very Best Of Adam Faith\25. Someone's Taken Maria Away.wav

Pre-gap length 0:00:01.52

Peak level 100.0 %
Extraction speed 3.8 X
Track quality 99.9 %
Test CRC 483C76C6
Copy CRC 483C76C6
Accurately ripped (confidence 2) [FCF6AEE8] (AR v2)
Copy OK

Track 26

Filename D:\CD\The Very Best Of Adam Faith\26. Cheryl's Goin' Home.wav

Pre-gap length 0:00:02.15

Peak level 97.3 %
Extraction speed 4.4 X
Track quality 100.0 %
Test CRC 74951090
Copy CRC 74951090
Accurately ripped (confidence 2) [4DA8FD58] (AR v2)
Copy OK


All tracks accurately ripped

No errors occurred

End of status report

==== Log checksum 5F7BF3EC6F4336DDEEF3E9B21B171D1DA9D4946758618CF08971B77570D85E92 ====

[CUETools log; Date: 13.07.2018 2:23:10; Version: 2.1.4]
Pregap length 00:00:33.
[CTDB TOCID: HkXOBRD9rv9jkqLzxWlFNlF3wNE-] found.
Track | CTDB Status
1 | (8/8) Accurately ripped
2 | (8/8) Accurately ripped
3 | (5/8) Accurately ripped, or (3/8) differs in 1 samples @00:54:22
4 | (8/8) Accurately ripped
5 | (8/8) Accurately ripped
6 | (8/8) Accurately ripped
7 | (8/8) Accurately ripped
8 | (8/8) Accurately ripped
9 | (8/8) Accurately ripped
10 | (8/8) Accurately ripped
11 | (8/8) Accurately ripped
12 | (8/8) Accurately ripped
13 | (8/8) Accurately ripped
14 | (8/8) Accurately ripped
15 | (8/8) Accurately ripped
16 | (8/8) Accurately ripped
17 | (8/8) Accurately ripped
18 | (8/8) Accurately ripped
19 | (8/8) Accurately ripped
20 | (8/8) Accurately ripped
21 | (8/8) Accurately ripped
22 | (8/8) Accurately ripped
23 | (8/8) Accurately ripped
24 | (7/8) Accurately ripped
25 | (8/8) Accurately ripped
26 | (8/8) Accurately ripped
[AccurateRip ID: 00308cd8-039857c7-540d281a] found.
Track [ CRC | V2 ] Status
01 [6f1d0dcc|1249c935] (04+05/13) Accurately ripped
02 [ecdfcdc5|a8c81c47] (04+05/13) Accurately ripped
03 [2cca9500|23015553] (04+05/13) Accurately ripped
04 [132f5aaa|2571fa58] (04+05/13) Accurately ripped
05 [da4f2263|84f0c294] (04+05/13) Accurately ripped
06 [ccf4acb6|47f91c76] (04+05/13) Accurately ripped
07 [b942d5ac|e6b16e2c] (04+05/13) Accurately ripped
08 [1b85ff3c|bfb59a64] (04+05/13) Accurately ripped
09 [5e893c4f|8d850038] (04+05/13) Accurately ripped
10 [b3c3ae1d|cb064093] (04+05/13) Accurately ripped
11 [22929935|5a9b3637] (04+05/13) Accurately ripped
12 [8d673ddf|66e3669e] (04+05/13) Accurately ripped
13 [fcaf8ac4|b3a3e016] (04+05/13) Accurately ripped
14 [bc06a721|442b9449] (04+05/13) Accurately ripped
15 [fab56786|f1ed5f7b] (04+05/13) Accurately ripped
16 [5c6c0efd|de534a13] (04+05/13) Accurately ripped
17 [4cf31fdd|a886d891] (04+05/13) Accurately ripped
18 [6c321b5a|3a0edde8] (04+05/13) Accurately ripped
19 [66fb72d4|7930b657] (04+05/13) Accurately ripped
20 [8c3a03b7|c90d7d98] (04+05/13) Accurately ripped
21 [4d0205db|817b06ab] (04+04/12) Accurately ripped
22 [a1fa231f|f4957a24] (04+04/12) Accurately ripped
23 [37f725e3|89130d2b] (04+04/12) Accurately ripped
24 [b7a3cd64|69a40bd4] (04+05/13) Accurately ripped
25 [edfbf29f|fcf6aee8] (04+05/13) Accurately ripped
26 [a223ef2c|4da8fd58] (04+05/13) Accurately ripped
Offsetted by 659:
01 [0039e9c9] (00/13) No match (V2 was not tested)
02 [fcccc785] (00/13) No match (V2 was not tested)
03 [01c7a4b5] (00/13) No match (V2 was not tested)
04 [e1f44861] (00/13) No match (V2 was not tested)
05 [79f6c9b7] (00/13) No match (V2 was not tested)
06 [e5f5e2f0] (00/13) No match (V2 was not tested)
07 [44c80927] (00/13) No match (V2 was not tested)
08 [22accaf2] (00/13) No match (V2 was not tested)
09 [9394eba1] (00/13) No match (V2 was not tested)
10 [4f6d66af] (00/13) No match (V2 was not tested)
11 [8a4e590b] (00/13) No match (V2 was not tested)
12 [2f2ccc78] (00/13) No match (V2 was not tested)
13 [6492ab81] (00/13) No match (V2 was not tested)
14 [9292a069] (00/13) No match (V2 was not tested)
15 [6cc9c9e9] (00/13) No match (V2 was not tested)
16 [52534460] (00/13) No match (V2 was not tested)
17 [5b90121f] (00/13) No match (V2 was not tested)
18 [73a07a8c] (00/13) No match (V2 was not tested)
19 [af6392ec] (00/13) No match (V2 was not tested)
20 [58f22c97] (00/13) No match (V2 was not tested)
21 [805d95c5] (00/12) No match (V2 was not tested)
22 [044c5aae] (00/12) No match (V2 was not tested)
23 [57a26126] (00/12) No match (V2 was not tested)
24 [0ea62b9c] (00/13) No match (V2 was not tested)
25 [e252a503] (00/13) No match (V2 was not tested)
26 [db5b5de1] (00/13) No match (V2 was not tested)

Track Peak [ CRC32 ] [W/O NULL] [ LOG ]
– 100,0 [8514265D] [39F52A96]
01 100,0 [6EA333F1] [9159AECC] CRC32
02 89,9 [49318F6A] [02A26B38] CRC32
03 99,8 [85B7C0B1] [F4FE7BEC] CRC32
04 89,8 [004AC324] [3101C4D1] CRC32
05 96,2 [9C57D81E] [38FA84D3] CRC32
06 91,5 [60FAE754] [950CEA89] CRC32
07 100,0 [5C104EA1] [6C6F9FD4] CRC32
08 84,8 [A2864EC0] [7E954361] CRC32
09 97,5 [2D1512D6] [5BE86EE1] CRC32
10 99,6 [F652E4DB] [AF533C7A] CRC32
11 99,9 [8B106242] [588BC136] CRC32
12 99,3 [0803D9C5] [C88AF063] CRC32
13 83,8 [4DFD0DE7] [59DB9AEC] CRC32
14 100,0 [36387633] [443A39F4] CRC32
15 95,5 [BCFE0D46] [D84EB84B] CRC32
16 99,5 [417FC25E] [E5789C6D] CRC32
17 100,0 [D3D91BB6] [EB176E16] CRC32
18 79,8 [009CEF8E] [725DFB7C] CRC32
19 95,8 [FA13BBC4] [5F5D2503] CRC32
20 99,8 [F7C7A83C] [4E772D0F] CRC32
21 92,9 [6E6468B3] [BF1479D1] CRC32
22 92,5 [ABB15C26] [0BACD2A5] CRC32
23 77,2 [1F8463DE] [1E00CA17] CRC32
24 98,9 [6D4564FE] [32258AAC] CRC32
25 100,0 [483C76C6] [8D63E4B8] CRC32
26 97,3 [74951090] [0D1EFB14] CRC32

foobar2000 1.2 / Dynamic Range Meter 1.1.1
log date: 2018-07-13 02:39:39

––––––––––––––––––––––––––––––––––––––––
Analyzed: Adam Faith / The Best Of Adam Faith
––––––––––––––––––––––––––––––––––––––––

DR Peak RMS Duration Track
––––––––––––––––––––––––––––––––––––––––
DR12 0.00 dB -14.67 dB 1:39 01-What Do You Want?
DR11 -0.92 dB -14.02 dB 1:47 02-Poor Me
DR13 -0.01 dB -16.02 dB 2:05 03-Someone Else's Baby
DR12 -0.93 dB -15.02 dB 1:59 04-Johnny Comes Marching Home
DR11 -0.33 dB -12.98 dB 1:46 05-Made You
DR12 -0.76 dB -15.75 dB 1:55 06-How About That
DR12 0.00 dB -15.28 dB 1:49 07-Lonely Pup
DR13 -1.42 dB -16.66 dB 1:48 08-This Is It
DR13 -0.22 dB -16.52 dB 1:57 09-Who Am I
DR11 -0.03 dB -14.03 dB 1:56 10-Easy Going Me
DR12 -0.01 dB -15.71 dB 2:09 11-Don't You Know It
DR12 -0.05 dB -13.92 dB 2:12 12-The Time Has Come
DR14 -1.53 dB -17.72 dB 2:46 13-Lonesome
DR11 0.00 dB -12.69 dB 2:04 14-As You Like It
DR11 -0.39 dB -12.06 dB 2:11 15-Don't That Beat All
DR10 -0.04 dB -11.44 dB 2:00 16-Baby Take A Bow
DR10 0.00 dB -11.33 dB 1:59 17-What Now
DR8 -1.95 dB -12.16 dB 2:07 18-Walkin' Tall
DR10 -0.37 dB -11.41 dB 2:05 19-The First Time
DR8 -0.01 dB -9.56 dB 2:15 20-We Are In Love
DR9 -0.64 dB -11.40 dB 2:14 21-If He Tells You
DR9 -0.67 dB -10.47 dB 2:04 22-I Love Being In Love With You
DR9 -2.24 dB -13.48 dB 3:10 23-Message To Martha (Kentucky Bluebird)
DR8 -0.09 dB -9.26 dB 3:07 24-Stop Feeling Sorry For Yourself
DR10 0.00 dB -12.67 dB 2:47 25-Someone's Taken Maria Away
DR9 -0.23 dB -10.95 dB 2:16 26-Cheryl's Goin' Home
––––––––––––––––––––––––––––––––––––––––

Number of tracks: 26
Official DR value: DR11

Samplerate: 44100 Hz
Channels: 2
Bits per sample: 16
Bitrate: 938 kbps
Codec: FLAC
================================================================================

Adam Faith - The Best Of Adam Faith (1997)

Adam Faith - The Best Of Adam Faith (1997)

All thanks to original releaser - bachelor-62

More interesting music in My Blog