Subcategories

Adrian Belew - Twang Bar King (1983) [2002, Universal International, UICY-9238]

Posted By: v3122
Adrian Belew - Twang Bar King (1983) [2002, Universal International, UICY-9238]

Adrian Belew - Twang Bar King (1983)
EAC | Flac(Image) + Cue + Log & MP3 CBR 320Kbps
Universal International, UICY-9238 | ~ 326 or 123 Mb | Scans
Experimental / Prog Rock / Classic Rock

Diversified and relentlessly creative – giving space to new artistic and emotional expression – this second solo album from guitarist Adrian Belew expands upon his already remarkable solo debut, though more than a few will be confused and put off by the opener, the Beatles' classic "I'm Down." Belew's inventiveness, both as a guitarist and as a songwriter, keep this album fresh and exciting at nearly every turn. One remarkable track, "She Is Not Dead" – with lyrics sung over a backward version of "Hot Sun" from Lone Rhino – has lyrics that fondly remember a departed loved one, astonishing in their beauty and depth of emotion. "The Rail Song" laments the disappearance of trains, referring to the rail system with the endearing pronoun "she." Psychotic, manic-paced instrumental "Paint the Road," utilizing Belew's signature MIDI guitar sounds, moves with a fury that will leave the listener gasping for breath. Musically still drawing from his experience with Talking Heads and Bowie, Belew is finding his own voice here and moving toward (though not completely capturing) a sound that is uniquely his.

by Mark Allender, AMG
Adrian Belew - Twang Bar King (1983):

Adrian Belew - Twang Bar King (1983) [2002, Universal International, UICY-9238]

Tracklist:

01. I'm Down 2:56
02. I Wonder 4:40
03. Life Without A Cage 3:20
04. Sexy Rhino 0:37
05. Twang Bar King 1:26
06. Another Time 3:05
07. The Rail Song 5:41
08. Paint The Road 3:20
09. She Is Not Dead 4:42
10. Fish Head 4:31
11. The Ideal Woman 4:12
12. Ballet For A Blue Whale 4:44

Musicians:

Adrian Belew – guitars, percussion, lead vocals
Christy Bley – acoustic piano, vocals
William Janssen – saxophones, bass clarinet, vocals
Larrie Londin – drums
J. Clifton Mayhugh – bass, vocals


Exact Audio Copy V1.0 beta 3 from 29. August 2011

EAC extraction logfile from 5. September 2014, 14:47

Adrian Belew / Twang Bar King (UICY-9238)

Used drive : HL-DT-STDVDRAM GE20NU11 Adapter: 0 ID: 1

Read mode : Secure
Utilize accurate stream : Yes
Defeat audio cache : Yes
Make use of C2 pointers : No

Read offset correction : 667
Overread into Lead-In and Lead-Out : No
Fill up missing offset samples with silence : Yes
Delete leading and trailing silent blocks : No
Null samples used in CRC calculations : Yes
Used interface : Native Win32 interface for Win NT & 2000

Used output format : User Defined Encoder
Selected bitrate : 896 kBit/s
Quality : High
Add ID3 tag : No
Command line compressor : C:\Program Files\EAC 3\Exact Audio Copy\Flac\flac.exe
Additional command line options : -V -8 %source%


TOC of the extracted CD

Track | Start | Length | Start sector | End sector
––––––––––––––––––––––––––––-
1 | 0:00.00 | 2:56.15 | 0 | 13214
2 | 2:56.15 | 4:40.00 | 13215 | 34214
3 | 7:36.15 | 3:20.65 | 34215 | 49279
4 | 10:57.05 | 0:37.40 | 49280 | 52094
5 | 11:34.45 | 1:26.50 | 52095 | 58594
6 | 13:01.20 | 3:05.20 | 58595 | 72489
7 | 16:06.40 | 5:41.30 | 72490 | 98094
8 | 21:47.70 | 3:20.62 | 98095 | 113156
9 | 25:08.57 | 4:42.13 | 113157 | 134319
10 | 29:50.70 | 4:31.05 | 134320 | 154649
11 | 34:22.00 | 4:12.00 | 154650 | 173549
12 | 38:34.00 | 4:44.52 | 173550 | 194901


Range status and errors

Selected range

Filename C:\OdW\ADRIAN BELEW Discography\(1983) Twang Bar King (UICY-9238)\Adrian Belew - Twang Bar King (UICY-9238).wav

Peak level 98.7 %
Extraction speed 1.6 X
Range quality 100.0 %
Test CRC 327A5FC6
Copy CRC 327A5FC6
Copy OK

No errors occurred


AccurateRip summary

Track 1 accurately ripped (confidence 3) [B6475B6A] (AR v2)
Track 2 accurately ripped (confidence 3) [15D269CB] (AR v2)
Track 3 accurately ripped (confidence 3) [5262F917] (AR v2)
Track 4 accurately ripped (confidence 3) [BDEB75FC] (AR v2)
Track 5 accurately ripped (confidence 3) [84B4104C] (AR v2)
Track 6 accurately ripped (confidence 3) [9B39FB58] (AR v2)
Track 7 accurately ripped (confidence 3) [BD9BB7B6] (AR v2)
Track 8 accurately ripped (confidence 3) [63B42BBB] (AR v2)
Track 9 accurately ripped (confidence 3) [08C4321B] (AR v2)
Track 10 accurately ripped (confidence 3) [7CB92CC9] (AR v2)
Track 11 accurately ripped (confidence 3) [D70F7BD5] (AR v2)
Track 12 accurately ripped (confidence 3) [7BCEBB8A] (AR v2)

All tracks accurately ripped

End of status report

foobar2000 1.2.9 / Dynamic Range Meter 1.1.1
log date: 2014-11-01 14:15:10

––––––––––––––––––––––––––––––––––––––––
Analyzed: Adrian Belew / Twang Bar King (UICY-9238)
––––––––––––––––––––––––––––––––––––––––

DR Peak RMS Duration Track
––––––––––––––––––––––––––––––––––––––––
DR8 -0.11 dB -10.05 dB 2:56 01-I'm Down
DR9 -0.11 dB -10.41 dB 4:40 02-I Wonder
DR8 -0.11 dB -10.50 dB 3:21 03-Life Without A Cage
DR14 -0.11 dB -17.17 dB 0:38 04-Sexy Rhino
DR8 -0.11 dB -8.97 dB 1:27 05-Twang Bar King
DR8 -0.11 dB -10.28 dB 3:05 06-Another Time
DR9 -0.11 dB -12.29 dB 5:41 07-The Rail Song
DR8 -0.11 dB -8.47 dB 3:21 08-Paint The Road
DR7 -0.11 dB -9.72 dB 4:42 09-She Is Not Dead
DR8 -0.11 dB -9.56 dB 4:31 10-Fish Head
DR8 -0.11 dB -10.37 dB 4:12 11-The Ideal Woman
DR8 -0.11 dB -11.92 dB 4:45 12-Ballet For A Blue Whale
––––––––––––––––––––––––––––––––––––––––

Number of tracks: 12
Official DR value: DR8

Samplerate: 44100 Hz
Channels: 2
Bits per sample: 16
Bitrate: 946 kbps
Codec: FLAC

[CUETools log; Date: 01.11.2014 14:23:58; Version: 2.1.4]
[CTDB TOCID: fPpO1bXjx43HoYMP1_1z6BVQFXg-] found.
Track | CTDB Status
1 | (3/3) Accurately ripped
2 | (3/3) Accurately ripped
3 | (3/3) Accurately ripped
4 | (3/3) Accurately ripped
5 | (3/3) Accurately ripped
6 | (3/3) Accurately ripped
7 | (3/3) Accurately ripped
8 | (3/3) Accurately ripped
9 | (3/3) Accurately ripped
10 | (3/3) Accurately ripped
11 | (3/3) Accurately ripped
12 | (3/3) Accurately ripped
[AccurateRip ID: 00118694-00a67750-b40a260c] found.
Track [ CRC | V2 ] Status
01 [53970008|b6475b6a] (2+3/7) Accurately ripped
02 [cf117dee|15d269cb] (2+3/7) Accurately ripped
03 [fde453c2|5262f917] (2+3/7) Accurately ripped
04 [cca445e0|bdeb75fc] (2+3/7) Accurately ripped
05 [4986f153|84b4104c] (2+3/7) Accurately ripped
06 [52f576c7|9b39fb58] (2+3/7) Accurately ripped
07 [292b367f|bd9bb7b6] (2+3/7) Accurately ripped
08 [19c1c1fb|63b42bbb] (2+3/7) Accurately ripped
09 [95144620|08c4321b] (2+3/7) Accurately ripped
10 [d2edcf7a|7cb92cc9] (2+3/7) Accurately ripped
11 [9b3ef610|d70f7bd5] (2+3/7) Accurately ripped
12 [bed96f21|7bcebb8a] (2+3/7) Accurately ripped
Offsetted by 80:
01 [ce165d98] (0/7) No match (V2 was not tested)
02 [6aedff6e] (0/7) No match (V2 was not tested)
03 [fdcb75b2] (0/7) No match (V2 was not tested)
04 [7030d5ca] (0/7) No match (V2 was not tested)
05 [6be131a9] (0/7) No match (V2 was not tested)
06 [5057ad17] (0/7) No match (V2 was not tested)
07 [c251160f] (0/7) No match (V2 was not tested)
08 [adae54cb] (0/7) No match (V2 was not tested)
09 [6ba911a0] (0/7) No match (V2 was not tested)
10 [d909ae9a] (0/7) No match (V2 was not tested)
11 [2f15aa10] (0/7) No match (V2 was not tested)
12 [41c5e6d1] (0/7) No match (V2 was not tested)

Track Peak [ CRC32 ] [W/O NULL] [ LOG ]
– 98,7 [327A5FC6] [DB267A57] CRC32
01 98,7 [AEB4DEB6] [46962EDA]
02 98,7 [B156F877] [AF6301CE]
03 98,7 [0A1EE149] [3930F156]
04 98,7 [38AFA55C] [E9FC0518]
05 98,7 [B468994B] [4F4F4EC4]
06 98,7 [65B63871] [40A54D4A]
07 98,7 [8198B3F8] [4DA0D4D0]
08 98,7 [DB9848AA] [0D5B2D89]
09 98,7 [F5123CC5] [0BED608A]
10 98,7 [80EDB2AD] [6D788488]
11 98,7 [FFC80A5E] [B5493B6B]
12 98,7 [579B19F2] [3E694E16]

Adrian Belew - Twang Bar King (1983) [2002, Universal International, UICY-9238]

All thanks go to Olaf der Weisse