Tags
Language
Tags

Alban Berg Quartett - Mozart: String Quartets Nos. 18 & 19 (1989) [2010, Japan HQCD, TOCE-91034]

Posted By: v3122
Alban Berg Quartett - Mozart: String Quartets Nos. 18 & 19 (1989) [2010, Japan HQCD, TOCE-91034]

Alban Berg Quartett - Mozart: String Quartets Nos. 18 & 19 (1989)
Classical | EAC Rip | Flac(Image) + Cue + Log | MP3 CBR 320Kbps | 8 Tracks
EMI Music Japan | TOCE-91034 | HQCD | ~275 + 162 Mb
Scans(jpg 300dpi) Included | Scans(png, 600dpi) -> 446 Mb

Alban Berg Quartett - Mozart: String Quartets Nos. 18 & 19 (1989) [2010, Japan HQCD, TOCE-91034]

Alban Berg Quartett:

Period: Classical (1750-1819)
Founded: 1971

The Alban Berg Quartet was founded in 1971 and within a decade was established as one of the finest string quartets in the world. It is known for its large recorded sets of the complete quartets of many masters of the genre.

Its founding members were all part of a Viennese chamber orchestra, who, while getting together to play chamber music, discovered the musical rapport essential to founding a great quartet. Deciding to honor a Viennese composer in their choice of names, they selected Alban Berg, one of the members of the group of atonal composers known as the Second Viennese School. According to violist Thomas Kakuska, the choice reflects Berg's position as a member of this revolutionary group of composers, but also his status as the most traditional-minded of them. Kakuska said, "We have chosen our name to show that we want to make a balance between the Romantic repertoire and also to play contemporary music."

The Quartet achieves its interpretations by consensus, not by the domination of any individual member. In addition to the given qualities of excellent ensemble (clean intonation and a sense of unanimity of purpose, the qualities most often mentioned by reviewers) is the remarkable uniformity of tone among its four members. Its sound is a warm one, although it can be rhythmically incisive when called for.

Its highly acclaimed recordings include complete sets of the quartets of Beethoven, Brahms, and Bartók and the string quartet works of Berg and Anton Webern. The group has also recorded substantial amounts of the quartet repertory of Mozart, Haydn, Dvorák, both Janácek quartets, and works by Ravel, Schumann, Debussy, Stravinsky, and Berio. Its repertoire of more recent music has acclaimed recordings of quartets by von Einem, Haubenstock-Ramati, Rihm, Schnittke, and Urbanner, many of them composed for and dedicated to the Quartet. In 1977, they paid tribute to Franz Schubert by playing only his music during his 200th anniversary year.

The members of the quartet (which include violinists Günter Pichler, Gerhard Schulz, Kakuska, and cellist Valentin Erben, of whom Schulz and Erben are founding members) are all faculty members of the Wiener Hochschule für Musik and also teach master classes on German chamber music regularly at the Musikhochschule in Cologne. They have won 30 major international recording awards, representing virtually every top prize of note.

~ Joseph Stevenson, Rovi

Alban Berg Quartett - Mozart: String Quartets Nos. 18 & 19 (1989)

Alban Berg Quartett - Mozart: String Quartets Nos. 18 & 19 (1989) [2010, Japan HQCD, TOCE-91034]

Tracklist:

01. String Quartet No.18 in A, K.464: I. Allegro [06:47]
02. String Quartet No.18 in A, K.464: II. Menuetto & Trio [05:59]
03. String Quartet No.18 in A, K.464: III. Andante [09:06]
04. String Quartet No.18 in A, K.464: IV. Allegro [06:25]
05. String Quartet No.19 in C, K.465 'Dissonance': I. Adagio · Allegro [10:39]
06. String Quartet No.19 in C, K.465 'Dissonance': II. Andante cantabile [07:36]
07. String Quartet No.19 in C, K.465 'Dissonance': III. Menuetto & Trio: Allegro [05:02]
08. String Quartet No.19 in C, K.465 'Dissonance': IV. Allegro [06:07]

Exact Audio Copy V1.0 beta 4 from 7. December 2014

EAC extraction logfile from 18. January 2015, 17:21

Mozart, Wolfgang Amadeus / Streichquartette Nr. 18 & 19 'Dissonanzen' (Alban Berg Quartett)

Used drive : PIONEER DVD-RW DVR-220L Adapter: 1 ID: 0

Read mode : Secure
Utilize accurate stream : Yes
Defeat audio cache : Yes
Make use of C2 pointers : No

Read offset correction : 6
Overread into Lead-In and Lead-Out : No
Fill up missing offset samples with silence : Yes
Delete leading and trailing silent blocks : No
Null samples used in CRC calculations : Yes
Used interface : Native Win32 interface for Win NT & 2000

Used output format : User Defined Encoder
Selected bitrate : 768 kBit/s
Quality : High
Add ID3 tag : No
Command line compressor : D:\Exact Audio Copy\Flac\flac.exe
Additional command line options : -V -8 -T "Date=%year%" -T "Genre=%genre%" %source%


TOC of the extracted CD

Track | Start | Length | Start sector | End sector
––––––––––––––––––––––––––––-
1 | 0:00.00 | 6:49.35 | 0 | 30709
2 | 6:49.35 | 5:59.53 | 30710 | 57687
3 | 12:49.13 | 9:04.02 | 57688 | 98489
4 | 21:53.15 | 6:32.23 | 98490 | 127912
5 | 28:25.38 | 10:34.35 | 127913 | 175497
6 | 38:59.73 | 7:35.32 | 175498 | 209654
7 | 46:35.30 | 5:00.18 | 209655 | 232172
8 | 51:35.48 | 6:05.39 | 232173 | 259586


Range status and errors

Selected range

Filename D:\New Rips\Mozart, Wolfgang Amadeus - Streichquartette Nr. 18 & 19 'Dissonanzen' (Alban Berg Quartett)\Mozart, Wolfgang Amadeus - Streichquartette Nr. 18 & 19 'Dissonanzen' (Alban Berg Quartett).wav

Peak level 99.8 %
Extraction speed 7.3 X
Range quality 100.0 %
Test CRC 0B801BF1
Copy CRC 0B801BF1
Copy OK

No errors occurred


AccurateRip summary

Track 1 accurately ripped (confidence 1) [8D655696] (AR v1)
Track 2 accurately ripped (confidence 1) [47425B88] (AR v1)
Track 3 accurately ripped (confidence 1) [B45766AE] (AR v1)
Track 4 accurately ripped (confidence 1) [B3AEE3EC] (AR v1)
Track 5 accurately ripped (confidence 1) [28A08CA0] (AR v1)
Track 6 accurately ripped (confidence 1) [9DB001E9] (AR v1)
Track 7 accurately ripped (confidence 1) [4FFE631F] (AR v1)
Track 8 accurately ripped (confidence 1) [26F1A140] (AR v1)

All tracks accurately ripped

End of status report

–– CUETools DB Plugin V2.1.4

[CTDB TOCID: zrJaB.sFbtMiNachYTeCVreDkTE-] found
Submit result: zrJaB.sFbtMiNachYTeCVreDkTE- has been confirmed
Track | CTDB Status
1 | (2/2) Accurately ripped
2 | (2/2) Accurately ripped
3 | (2/2) Accurately ripped
4 | (2/2) Accurately ripped
5 | (2/2) Accurately ripped
6 | (2/2) Accurately ripped
7 | (2/2) Accurately ripped
8 | (2/2) Accurately ripped


==== Log checksum DFA0D99C05729823B899E5FA8C98B9CEDED37918108F4CCCA478F5789A7EC832 ====

foobar2000 1.2.9 / Dynamic Range Meter 1.1.1
log date: 2015-01-19 23:00:46

––––––––––––––––––––––––––––––––––––––––
Analyzed: Mozart, Wolfgang Amadeus / Streichquartette Nr. 18 & 19 'Dissonanzen' (Alban Berg Quartett)
––––––––––––––––––––––––––––––––––––––––

DR Peak RMS Duration Track
––––––––––––––––––––––––––––––––––––––––
DR13 -0.05 dB -20.49 dB 6:49 01-Streichquartett Nr. 18 A-Dur K.464 - 1. Allegro
DR16 -0.01 dB -20.60 dB 6:00 02-Streichquartett Nr. 18 A-Dur K.464 - 2. Menuetto & Trio
DR15 -2.47 dB -22.95 dB 9:04 03-Streichquartett Nr. 18 A-Dur K.464 - 3. Andante
DR15 -0.70 dB -20.73 dB 6:32 04-Streichquartett Nr. 18 A-Dur K.464 - 4. Allegro
DR15 -0.01 dB -19.82 dB 10:34 05-Streichquartett Nr. 19 C-Dur K.465 'Dissonanzen' - 1. Adagio - Allegro
DR14 -1.12 dB -23.43 dB 7:35 06-Streichquartett Nr. 19 C-Dur K.465 'Dissonanzen' - 2. Andante cantabile
DR15 -0.01 dB -19.40 dB 5:00 07-Streichquartett Nr. 19 C-Dur K.465 'Dissonanzen' - 3. Menuetto. Allegro - Trio
DR14 -0.02 dB -19.76 dB 6:06 08-Streichquartett Nr. 19 C-Dur K.465 'Dissonanzen' - 4. Allegro
––––––––––––––––––––––––––––––––––––––––

Number of tracks: 8
Official DR value: DR15

Samplerate: 44100 Hz
Channels: 2
Bits per sample: 16
Bitrate: 592 kbps
Codec: FLAC

[CUETools log; Date: 20.01.2015 15:20:25; Version: 2.1.4]
[CTDB TOCID: zrJaB.sFbtMiNachYTeCVreDkTE-] found.
Track | CTDB Status
1 | (3/3) Accurately ripped
2 | (3/3) Accurately ripped
3 | (3/3) Accurately ripped
4 | (3/3) Accurately ripped
5 | (3/3) Accurately ripped
6 | (3/3) Accurately ripped
7 | (3/3) Accurately ripped
8 | (3/3) Accurately ripped
[AccurateRip ID: 00122f22-0079ccaa-660d8508] found.
Track [ CRC | V2 ] Status
01 [8d655696|2e0b68b6] (1+0/1) Accurately ripped
02 [47425b88|66764835] (1+0/1) Accurately ripped
03 [b45766ae|4fb4ece1] (1+0/1) Accurately ripped
04 [b3aee3ec|60e5e710] (1+0/1) Accurately ripped
05 [28a08ca0|cd2c64e6] (1+0/1) Accurately ripped
06 [9db001e9|b2bd4d70] (1+0/1) Accurately ripped
07 [4ffe631f|aeb65cb7] (1+0/1) Accurately ripped
08 [26f1a140|b5a74c20] (1+0/1) Accurately ripped

Track Peak [ CRC32 ] [W/O NULL] [ LOG ]
– 99,8 [0B801BF1] [34D12060] CRC32
01 99,4 [7CFCBEE0] [C232EAD2]
02 99,8 [CC836E74] [B5FB805C]
03 75,2 [6BCB2225] [20D74B99]
04 92,2 [1A545298] [48453C5E]
05 99,8 [8AC98E75] [D1171E97]
06 87,9 [0D99D1D1] [5D9C12E5]
07 99,8 [826325BA] [3EF91081]
08 99,7 [A197F285] [E4FF7AF6]

Alban Berg Quartett - Mozart: String Quartets Nos. 18 & 19 (1989) [2010, Japan HQCD, TOCE-91034]

Download Alban Berg Quartett - Mozart: String Quartets Nos. 18 & 19 (1989):