Albert King - Crosscut Saw: Albert King In San Francisco (1983) Reissue 1992 [Re-Up]

Posted By: Designol
Albert King - Crosscut Saw: Albert King In San Francisco (1983) Reissue 1992 [Re-Up]

Albert King - Crosscut Saw: Albert King In San Francisco (1983) Reissue 1992
EAC | FLAC | Image (Cue&Log) ~ 321 Mb | Mp3 (CBR320) ~ 139 Mb | Scans included
Modern Electric Blues, Soul-Blues | Label: Ace | # CDSXE 076 | Time: 00:47:12

Crosscut Saw reissues Albert King's 1983 album San Francisco '83 (a studio album, not a live one), adding two previously unreleased cuts. His first new release in five years, it wasn't one of King's better records – but it did represent a return to a basic five-piece sound, an improvement upon his over-produced outings of the late '70s.

Review by Richie Unterberger, Allmusic.com

Albert King at Allmusic
Albert King at Wiki

Tracklist:

01. Honey Bee (03:47)
02. Ask Me No Questions (04:30)
03. I'm Gonna Move To The Outskirts of Town (07:34)
04. They Made The Queen Welcome (02:56)
05. Floodin' In California (05:56)
06. I Found Love In The Food Stamp Line (06:07)
07. Match Box Blues (07:11)
08. Crosscut Saw (04:37)
09. Why You So Mean To Me (04:15)


Exact Audio Copy V1.0 beta 3 from 29. August 2011

EAC extraction logfile from 21. February 2013, 2:36

Albert King / Crosscut Saw

Used drive : PLEXTOR DVDR PX-891SA Adapter: 0 ID: 2

Read mode : Secure
Utilize accurate stream : Yes
Defeat audio cache : Yes
Make use of C2 pointers : No

Read offset correction : 6
Overread into Lead-In and Lead-Out : No
Fill up missing offset samples with silence : Yes
Delete leading and trailing silent blocks : No
Null samples used in CRC calculations : Yes
Used interface : Installed external ASPI interface

Used output format : User Defined Encoder
Selected bitrate : 320 kBit/s
Quality : High
Add ID3 tag : No
Command line compressor : C:\Program Files\Exact Audio Copy 1.0\Flac\flac.exe
Additional command line options : -V -8 -T "Genre=%genre%" -T "Artist=%artist%" -T "Title=%title%" -T "Album=%albumtitle%" -T "Date=%year%" -T "Tracknumber=%tracknr%" -T "Comment=%comment%" %source%


TOC of the extracted CD

Track | Start | Length | Start sector | End sector
––––––––––––––––––––––––––––-
1 | 0:00.38 | 3:49.57 | 38 | 17269
2 | 3:50.20 | 4:30.58 | 17270 | 37577
3 | 8:21.03 | 7:35.30 | 37578 | 71732
4 | 15:56.33 | 2:58.27 | 71733 | 85109
5 | 18:54.60 | 5:58.53 | 85110 | 112012
6 | 24:53.38 | 6:10.67 | 112013 | 139829
7 | 31:04.30 | 7:13.08 | 139830 | 172312
8 | 38:17.38 | 4:39.32 | 172313 | 193269
9 | 42:56.70 | 4:15.08 | 193270 | 212402


Range status and errors

Selected range

Filename K:\Lossless Temp\Albert King\Albert King - Crosscut Saw (Albert King In San Francisco) - 1983 (1992 Ace Records, CDSXE 076)\Albert King - Crosscut Saw.wav

Peak level 100.0 %
Extraction speed 6.1 X
Range quality 100.0 %
Test CRC CE418B87
Copy CRC CE418B87
Copy OK

No errors occurred


AccurateRip summary

Track 1 not present in database
Track 2 not present in database
Track 3 not present in database
Track 4 not present in database
Track 5 not present in database
Track 6 not present in database
Track 7 not present in database
Track 8 not present in database
Track 9 not present in database

None of the tracks are present in the AccurateRip database

End of status report

==== Log checksum 9DFE1BF0C3BCAF87BE70C99635DA34D1C96BA5BFFCC6902BE0BE4CFA4B697DFD ====

foobar2000 1.2 / Dynamic Range Meter 1.1.1
log date: 2013-03-04 19:41:53

––––––––––––––––––––––––––––––––––––––––
Analyzed: Albert King / Crosscut Saw
––––––––––––––––––––––––––––––––––––––––

DR Peak RMS Duration Track
––––––––––––––––––––––––––––––––––––––––
DR14 0.00 dB -15.71 dB 3:50 01-Honey Bee
DR13 0.00 dB -14.71 dB 4:31 02-Ask Me No Questions
DR14 0.00 dB -16.50 dB 7:35 03-I'm Gonna Move To The Outskirts of Town
DR13 -0.02 dB -14.95 dB 2:58 04-They Made The Queen Welcome
DR13 0.00 dB -15.77 dB 5:59 05-Floodin' In California
DR14 0.00 dB -15.70 dB 6:11 06-I Found Love In The Food Stamp Line
DR15 0.00 dB -16.62 dB 7:13 07-Match Box Blues
DR14 0.00 dB -15.10 dB 4:39 08-Crosscut Saw
DR14 -0.11 dB -15.48 dB 4:15 09-Why You So Mean To Me
––––––––––––––––––––––––––––––––––––––––

Number of tracks: 9
Official DR value: DR14

Samplerate: 44100 Hz
Channels: 2
Bits per sample: 16
Bitrate: 859 kbps
Codec: FLAC
================================================================================

Albert King - Crosscut Saw: Albert King In San Francisco (1983) 			  		 	 	  		 	    	 			   		   	  			  	  			     	 			   		   	  		      			     	 			   		   	  			  				 Reissue 1992 [Re-Up]

Albert King - Crosscut Saw: Albert King In San Francisco (1983) Reissue 1992 [Re-Up]