Tags
Language
Tags

Albert King / Otis Rush - Door To Door (1969) [Chess Legendary Masters Series, Remastered Reissue 1998] Re-Up

Posted By: Designol
Albert King / Otis Rush - Door To Door (1969) [Chess Legendary Masters Series, Remastered Reissue 1998] Re-Up

Albert King / Otis Rush - Door To Door (1969)
Chess Legendary Masters Series, Remastered Reissue 1998
EAC | FLAC | Image (Cue&Log) ~ 181 Mb | Mp3 (CBR320) ~ 103 Mb | Scans included | 00:39:26
Electric Blues, Chicago Blues, Soul-Blues | Label: Chess/Universal | # MCD 09322, 329 322-2

Although Albert King is pictured on the front cover and has the lion's share of tracks on this excellent compilation, six of the fourteen tracks come from Rush's shortlived tenure with the label and are some of his very best. Chronologically, these are his next recordings after the Cobra sides and they carry a lot of the emotional wallop of those tracks, albeit with much loftier production values with much of it recorded in early stereo. Oddly enough, some of the material ("All Your Love," "I'm Satisfied [Keep on Loving Me Baby]") were remakes – albeit great ones – of tunes that Cobra had already released as singles! But Rush's performance of "So Many Roads" (featuring one of the greatest slow blues guitar solos of all time) should not be missed at any cost.

Review by Cub Koda, Allmusic.com

Albert King / Otis Rush - Door To Door (1969) [Chess Legendary Masters Series, Remastered Reissue 1998] Re-Up



Albert King / Otis Rush - Door To Door (1969) [Chess Legendary Masters Series, Remastered Reissue 1998] Re-Up



Tracklist:

01. Searchin' For A Woman (Albert King) (3:04)
02. Bad Luck (Albert King) (3:01)
03. So Close (Otis Rush) (2:45)
04. Howlin' For My Darling (Albert King) (3:04)
05. I Can't Stop (Otis Rush) (2:14)
06. Won't Be Hangin' Around (Albert King) (2:55)
07. I'm Satisfied (Otis Rush) (2:24)
08. All Your Love (Otis Rush) (2:54)
09. You Know My Love (Otis Rush) (2:41)
10. Merry Way (Albert King) (2:52)
11. Wild Women (Albert King) (2:39)
12. Murder (Albert King) (2:55)
13. So Many Roads (Otis Rush) (3:12)
14. California (Albert King) (2:47)


Exact Audio Copy V0.99 prebeta 4 from 23. January 2008

EAC extraction logfile from 16. September 2008, 0:05

Albert King & Otis Rush / Door To Door

Used drive : LITE-ON CD-RW SOHR-5238S Adapter: 1 ID: 1

Read mode : Secure
Utilize accurate stream : Yes
Defeat audio cache : Yes
Make use of C2 pointers : No

Read offset correction : 6
Overread into Lead-In and Lead-Out : No
Fill up missing offset samples with silence : Yes
Delete leading and trailing silent blocks : No
Null samples used in CRC calculations : Yes
Used interface : Installed external ASPI interface

Used output format : Internal WAV Routines
Sample format : 44.100 Hz; 16 Bit; Stereo


TOC of the extracted CD

Track | Start | Length | Start sector | End sector
––––––––––––––––––––––––––––-
1 | 0:00.00 | 3:03.40 | 0 | 13764
2 | 3:03.40 | 3:00.47 | 13765 | 27311
3 | 6:04.12 | 2:44.45 | 27312 | 39656
4 | 8:48.57 | 3:03.53 | 39657 | 53434
5 | 11:52.35 | 2:14.37 | 53435 | 63521
6 | 14:06.72 | 2:55.05 | 63522 | 76651
7 | 17:02.02 | 2:24.18 | 76652 | 87469
8 | 19:26.20 | 2:53.72 | 87470 | 100516
9 | 22:20.17 | 2:41.10 | 100517 | 112601
10 | 25:01.27 | 2:51.65 | 112602 | 125491
11 | 27:53.17 | 2:38.43 | 125492 | 137384
12 | 30:31.60 | 2:55.12 | 137385 | 150521
13 | 33:26.72 | 3:12.15 | 150522 | 164936
14 | 36:39.12 | 2:46.55 | 164937 | 177441


Range status and errors

Selected range

Filename I:\EAC\AK & OR\Albert King & Otis Rush - Door To Door.wav

Peak level 87.6 %
Range quality 100.0 %
Test CRC 595CFB2A
Copy CRC 595CFB2A
Copy OK

No errors occurred

End of status report

[CUETools log; Date: 15.11.2017 19:18:06; Version: 2.1.4]
[CTDB TOCID: 1cxe9a4D6CTl4jrN2c2.hA3gK3o-] found.
Track | CTDB Status
1 | (35/35) Accurately ripped
2 | (35/35) Accurately ripped
3 | (35/35) Accurately ripped
4 | (35/35) Accurately ripped
5 | (35/35) Accurately ripped
6 | (34/35) Accurately ripped
7 | (35/35) Accurately ripped
8 | (35/35) Accurately ripped
9 | (35/35) Accurately ripped
10 | (35/35) Accurately ripped
11 | (35/35) Accurately ripped
12 | (34/35) Accurately ripped
13 | (35/35) Accurately ripped
14 | (35/35) Accurately ripped
[AccurateRip ID: 00144e16-00d7c23d-a2093d0e] found.
Track [ CRC | V2 ] Status
01 [88af9754|0cc9b7ae] (07+13/45) Accurately ripped
02 [98322cbb|ee238b2e] (08+13/46) Accurately ripped
03 [e492f9d1|1df7af70] (08+13/46) Accurately ripped
04 [35b8042c|3e70cd89] (08+13/46) Accurately ripped
05 [f11c7a89|743fb79a] (08+13/46) Accurately ripped
06 [7cc0a2ca|bdda44d3] (08+13/46) Accurately ripped
07 [2161638d|0e5262fd] (08+13/46) Accurately ripped
08 [eab38b94|bace1208] (08+13/46) Accurately ripped
09 [59556eac|7daca69b] (08+13/46) Accurately ripped
10 [e9c3f797|d69ead97] (07+13/45) Accurately ripped
11 [d977abca|ed32b6c2] (08+13/46) Accurately ripped
12 [ce885e3d|2c491bd5] (08+13/46) Accurately ripped
13 [6fc4f8b1|735acf42] (08+13/46) Accurately ripped
14 [2755557c|81e6b879] (08+13/46) Accurately ripped
Offsetted by 667:
01 [13089378] (08/45) Accurately ripped
02 [af6a0d66] (08/46) Accurately ripped
03 [bf56447e] (08/46) Accurately ripped
04 [d9e3337d] (08/46) Accurately ripped
05 [226ea108] (08/46) Accurately ripped
06 [545c709a] (08/46) Accurately ripped
07 [329a4022] (08/46) Accurately ripped
08 [afe1adc2] (08/46) Accurately ripped
09 [0756862b] (08/46) Accurately ripped
10 [d898be36] (08/45) Accurately ripped
11 [beee5c4d] (08/46) Accurately ripped
12 [cb9bd07a] (08/46) Accurately ripped
13 [53af1556] (08/46) Accurately ripped
14 [9da7178d] (08/46) Accurately ripped
Offsetted by 3:
01 [f151f558] (00/45) No match (V2 was not tested)
02 [f031464e] (00/46) No match (V2 was not tested)
03 [0ea022d6] (00/46) No match (V2 was not tested)
04 [d55a8fb5] (00/46) No match (V2 was not tested)
05 [f58e1250] (00/46) No match (V2 was not tested)
06 [e8097e1a] (00/46) No match (V2 was not tested)
07 [27fb8d3a] (00/46) No match (V2 was not tested)
08 [a36eaad2] (00/46) No match (V2 was not tested)
09 [efcd2f73] (00/46) No match (V2 was not tested)
10 [3e82867e] (00/45) No match (V2 was not tested)
11 [7a29e875] (00/46) No match (V2 was not tested)
12 [f548be52] (00/46) No match (V2 was not tested)
13 [f34a0dee] (00/46) No match (V2 was not tested)
14 [57d76dc5] (00/46) No match (V2 was not tested)
Offsetted by 679:
01 [b5920b88] (00/45) No match (V2 was not tested)
02 [0f6673b2] (00/46) No match (V2 was not tested)
03 [678ae892] (00/46) No match (V2 was not tested)
04 [586d61a1] (00/46) No match (V2 was not tested)
05 [34350024] (00/46) No match (V2 was not tested)
06 [017fddda] (00/46) No match (V2 was not tested)
07 [4d02e6d6] (00/46) No match (V2 was not tested)
08 [92ce2aba] (00/46) No match (V2 was not tested)
09 [61358947] (00/46) No match (V2 was not tested)
10 [2b92f9d2] (00/45) No match (V2 was not tested)
11 [41b74ef9] (00/46) No match (V2 was not tested)
12 [669d50ce] (00/46) No match (V2 was not tested)
13 [61c36a4a] (00/46) No match (V2 was not tested)
14 [5faf78b1] (00/46) No match (V2 was not tested)

Track Peak [ CRC32 ] [W/O NULL] [ LOG ]
– 87,6 [595CFB2A] [76994553] CRC32
01 82,0 [9BB75FEA] [19780A6E]
02 75,8 [2A774755] [F2A391B1]
03 86,5 [FAD811BB] [1F1E70B6]
04 86,9 [DAAC2807] [0CBBC1FE]
05 82,0 [6E96D3DE] [AFCE59D3]
06 81,1 [3AB484A7] [5F9E7E66]
07 83,0 [1B5FB10E] [5F624F14]
08 84,6 [A1F6282A] [4FBC1F07]
09 87,6 [DA07DEDE] [D32D0E57]
10 76,2 [BF4D589A] [D775457E]
11 78,4 [5EB1A11F] [3762C338]
12 69,1 [2B065BF8] [EFAC84DF]
13 81,5 [8425EB69] [DF7EE455]
14 76,8 [F6ACFDC8] [607F110E]

foobar2000 1.2 / Dynamic Range Meter 1.1.1
log date: 2017-11-15 19:28:11

––––––––––––––––––––––––––––––––––––––––
Analyzed: Albert King & Otis Rush / Door To Door
––––––––––––––––––––––––––––––––––––––––

DR Peak RMS Duration Track
––––––––––––––––––––––––––––––––––––––––
DR13 -1.72 dB -16.33 dB 3:04 01-Searchin' For A Woman (Albert King)
DR14 -2.40 dB -18.89 dB 3:01 02-Bad Luck (Albert King)
DR12 -1.25 dB -17.26 dB 2:45 03-So Close (Otis Rush)
DR13 -1.22 dB -15.71 dB 3:04 04-Howlin' For My Darling (Albert King)
DR12 -1.72 dB -15.69 dB 2:14 05-I Can't Stop (Otis Rush)
DR13 -1.82 dB -16.28 dB 2:55 06-Won't Be Hangin' Around (Albert King)
DR12 -1.61 dB -16.89 dB 2:24 07-I'm Satisfied (Otis Rush)
DR12 -1.45 dB -17.30 dB 2:54 08-All Your Love (Otis Rush)
DR13 -1.15 dB -16.93 dB 2:41 09-You Know My Love (Otis Rush)
DR13 -2.36 dB -17.99 dB 2:52 10-Merry Way (Albert King)
DR12 -2.11 dB -16.25 dB 2:39 11-Wild Women (Albert King)
DR12 -3.21 dB -18.43 dB 2:55 12-Murder (Albert King)
DR12 -1.77 dB -16.61 dB 3:12 13-So Many Roads (Otis Rush)
DR12 -2.29 dB -16.95 dB 2:47 14-California (Albert King)
––––––––––––––––––––––––––––––––––––––––

Number of tracks: 14
Official DR value: DR13

Samplerate: 44100 Hz
Channels: 2
Bits per sample: 16
Bitrate: 596 kbps
Codec: FLAC
================================================================================

Albert King / Otis Rush - Door To Door (1969) [Chess Legendary Masters Series, Remastered Reissue 1998] Re-Up

Albert King / Otis Rush - Door To Door (1969) [Chess Legendary Masters Series, Remastered Reissue 1998] Re-Up

All thanks to original releaser

More interesting music in My Blog