Subcategories

Alberto Iglesias - Todo Sobre Mi Madre: Banda Sonora Original (1999) (All About My Mother: Original Soundtrack)

Posted By: Designol
Alberto Iglesias - Todo Sobre Mi Madre: Banda Sonora Original (1999) (All About My Mother: Original Soundtrack)

Alberto Iglesias - Todo Sobre Mi Madre: Banda Sonora Original (1999)
(All About My Mother: Original Motion Picture Soundtrack)

EAC | FLAC | Image (Cue&Log) ~ 226 Mb | Mp3 (CBR320) ~ 120 Mb | Scans included
Soundtrack, Score, Modern Classical | Label: Universal Spain | # 676 208-2 | 00:46:01

The score to this beautiful movie (released as All About My Mother in the U.S.) was composed by Alberto Iglesias and recorded with the City of Prague Philharmonic under the production of Lucio Godoy. The haunting music leads the perfect mood to the film, which received critical acclaim at the Cannes Film festival and elsewhere.

Review by Stacia Proefrock, Allmusic.com

Alberto Iglesias - Todo Sobre Mi Madre: Banda Sonora Original (1999) (All About My Mother: Original Soundtrack)



Alberto Iglesias - Todo Sobre Mi Madre: Banda Sonora Original (1999) (All About My Mother: Original Soundtrack)



Tracklist:

01. Soy Manuela (02:35)
02. Tras el Corazón de mi Hijo (02:33)
03. All About Eve (02:33)
04. No me Gusta que Escribas sobre Mi (01:44)
05. Otra vez Huyendo y sin Despedirme (01:41)
06. Gorrión (03:16) - Dino Saluzzi
07. Todo Sobre Mi Madre (04:10)
08. La Mecánica del Transplante (02:06)
09. Esteban, mi Hijo (01:36)
10. ¿Qué Edad Tiene Usted? (01:30)
11. Coral Para Mi Pequeño y Lejano Pueblo (08:23) - Dino Saluzzi
12. Igualita que Eva Harrington (02:19)
13. Le Faltaba la Mitad (02:11)
14. ¿Tu no Tienes Padres? (00:53)
15. Pavana para Agrado (01:58)
16. Ensayo en un Teatro Desocupado (00:55)
17. Dedicatoria (01:29)
18. Tajabone (04:01) - Ismaël Lô


Exact Audio Copy V1.0 beta 3 from 29. August 2011

Отчёт EAC об извлечении, выполненном 13. декабря 2012, 21:41

Various Artists / Todo Sobre Mi Madre

Дисковод: TSSTcorpCDDVDW TS-L633J Adapter: 0 ID: 1

Режим чтения : Достоверность
Использование точного потока : Да
Отключение кэша аудио : Да
Использование указателей C2 : Нет

Коррекция смещения при чтении : 6
Способность читать области Lead-in и Lead-out : Нет
Заполнение пропущенных сэмплов тишиной : Да
Удаление блоков с тишиной в начале и конце : Нет
При вычислениях CRC использовались нулевые сэмплы : Да
Интерфейс : Установленный внешний ASPI-интерфейс

Выходной формат : Пользовательский кодировщик
Выбранный битрейт : 128 kBit/s
Качество : Высокий
Добавление ID3-тега : Нет
Утилита сжатия : C:\Program Files\Exact Audio Copy\FLAC\FLAC.EXE
Дополнительные параметры : -6 -V -T "ARTIST=%artist%" -T "TITLE=%title%" -T "ALBUM=%albumtitle%" -T "DATE=%year%" -T "TRACKNUMBER=%tracknr%" -T "GENRE=%genre%" -T "COMMENT=%comment%" -T "BAND=%albuminterpret%" -T "ALBUMARTIST=%albuminterpret%" -T "COMPOSER=%composer%" %haslyrics%–tag-from-file=LYRICS="%lyricsfile%"%haslyrics% -T "DISCNUMBER=%cdnumber%" -T "TOTALDISCS=%totalcds%" -T "TOTALTRACKS=%numtracks%" %hascover%–picture="%coverfile%"%hascover% %source% -o %dest%


TOC извлечённого CD

Трек | Старт | Длительность | Начальный сектор | Конечный сектор
––––––––––––––––––––––––––––––––––-
1 | 0:00.15 | 2:36.02 | 15 | 11716
2 | 2:36.17 | 2:33.56 | 11717 | 23247
3 | 5:09.73 | 2:33.45 | 23248 | 34767
4 | 7:43.43 | 1:44.52 | 34768 | 42619
5 | 9:28.20 | 1:42.03 | 42620 | 50272
6 | 11:10.23 | 3:16.35 | 50273 | 65007
7 | 14:26.58 | 4:10.27 | 65008 | 83784
8 | 18:37.10 | 2:06.40 | 83785 | 93274
9 | 20:43.50 | 1:36.66 | 93275 | 100540
10 | 22:20.41 | 1:30.31 | 100541 | 107321
11 | 23:50.72 | 8:23.59 | 107322 | 145105
12 | 32:14.56 | 2:20.05 | 145106 | 155610
13 | 34:34.61 | 2:12.18 | 155611 | 165528
14 | 36:47.04 | 0:53.37 | 165529 | 169540
15 | 37:40.41 | 1:58.65 | 169541 | 178455
16 | 39:39.31 | 0:55.39 | 178456 | 182619
17 | 40:34.70 | 1:39.03 | 182620 | 190047
18 | 42:13.73 | 4:01.05 | 190048 | 208127


Характеристики диапазона извлечения и сообщения об ошибках

Выбранный диапазон

Имя файла D:\РИПЫ\Alberto Iglesias\Various Artists - Todo Sobre Mi Madre.wav

Пиковый уровень 94.7 %
Скорость извлечения 2.8 X
Качество диапазона 100.0 %
CRC теста A7BF7DBB
CRC копии A7BF7DBB
Копирование… OK

Ошибок не произошло


AccurateRip: сводка

Трек 1 отсутствует в базе данных
Трек 2 отсутствует в базе данных
Трек 3 отсутствует в базе данных
Трек 4 отсутствует в базе данных
Трек 5 отсутствует в базе данных
Трек 6 отсутствует в базе данных
Трек 7 отсутствует в базе данных
Трек 8 отсутствует в базе данных
Трек 9 отсутствует в базе данных
Трек 10 отсутствует в базе данных
Трек 11 отсутствует в базе данных
Трек 12 отсутствует в базе данных
Трек 13 отсутствует в базе данных
Трек 14 отсутствует в базе данных
Трек 15 отсутствует в базе данных
Трек 16 отсутствует в базе данных
Трек 17 отсутствует в базе данных
Трек 18 отсутствует в базе данных

Ни одного трека нет в базе AccurateRip

Конец отчёта

–– CUETools DB Plugin V2.1.3

[CTDB TOCID: QKMT8k7yF12CzOsj3elw6CJyIAo-] disk not present in database, Submit result: discs with pregaps not supported in this protocol version


==== Контрольная сумма отчёта 26A8962DEF7014AA8AC0791BB8D83EE0E2C40E0E259438CACD8274E0C1CBD530 ====


foobar2000 1.2 / Dynamic Range Meter 1.1.1
log date: 2013-03-18 02:17:43

––––––––––––––––––––––––––––––––––––––––
Analyzed: Alberto Iglesias / Todo Sobre Mi Madre
––––––––––––––––––––––––––––––––––––––––

DR Peak RMS Duration Track
––––––––––––––––––––––––––––––––––––––––
DR13 -2.29 dB -21.90 dB 2:36 01-Soy Manuela
DR11 -1.72 dB -15.95 dB 2:34 02-Tras el Corazon de mi Hijo
DR13 -1.97 dB -19.52 dB 2:34 03-All About Eve
DR12 -3.04 dB -18.25 dB 1:45 04-No me Gusta que Escribas sobre Mi
DR11 -7.37 dB -24.17 dB 1:42 05-Otra vez Huyendo y sin Despedirme
DR12 -0.65 dB -15.93 dB 4:10 07-Todo Sobre Mi Madre
DR11 -2.66 dB -17.86 dB 2:07 08-La Mecanica del Transplante
DR11 -4.83 dB -21.16 dB 1:37 09-Esteban, mi Hijo
DR10 -8.47 dB -24.24 dB 1:30 10-.Que Edad Tiene Usted?
DR10 -2.14 dB -17.07 dB 2:20 12-Igualita que Eva Harrington
DR12 -0.83 dB -17.96 dB 2:12 13-Le Faltaba la Mitad
DR11 -1.40 dB -17.14 dB 0:53 14-.Tu no Tienes Padres?
DR13 -7.88 dB -24.04 dB 1:59 15-Pavana para Agrado
DR9 -2.13 dB -19.42 dB 0:56 16-Ensayo en un Teatro Desocupado
DR12 -4.56 dB -20.87 dB 1:39 17-Dedicatoria
––––––––––––––––––––––––––––––––––––––––

Number of tracks: 15
Official DR value: DR11

Samplerate: 44100 Hz
Channels: 2
Bits per sample: 16
Bitrate: 640 kbps
Codec: FLAC
================================================================================

––––––––––––––––––––––––––––––––––––––––
Analyzed: Dino Saluzzi / Todo Sobre Mi Madre (1-2)
Ismael Lo / Todo Sobre Mi Madre (3)
––––––––––––––––––––––––––––––––––––––––

DR Peak RMS Duration Track
––––––––––––––––––––––––––––––––––––––––
DR16 -1.05 dB -24.07 dB 3:16 06-Gorrion
DR11 -0.47 dB -15.73 dB 8:24 11-Coral Para Mi Pequeno y Lejano Pueblo
DR11 -4.67 dB -18.19 dB 4:01 18-Tajabone
––––––––––––––––––––––––––––––––––––––––

Number of tracks: 3
Official DR value: DR13

Samplerate: 44100 Hz
Channels: 2
Bits per sample: 16
Bitrate: 640 kbps
Codec: FLAC
================================================================================

Alberto Iglesias - Todo Sobre Mi Madre: Banda Sonora Original (1999) (All About My Mother: Original Soundtrack)

Alberto Iglesias - Todo Sobre Mi Madre: Banda Sonora Original (1999) (All About My Mother: Original Soundtrack)

All thanks to original releaser - reverse77777

More interesting music in My Blog