Tags
Language
Tags

The Allman Brothers Band - An Evening with The Allman Brothers Band: 2nd Set (1995) [Re-Up]

Posted By: Designol
The Allman Brothers Band - An Evening with The Allman Brothers Band: 2nd Set (1995) [Re-Up]

The Allman Brothers Band - An Evening with The Allman Brothers Band: 2nd Set (1995)
EAC | FLAC | Tracks (Cue&Log) ~ 518 Mb | Mp3 (CBR320) ~ 177 Mb | Scans included | 01:11:55
Southern Rock, Blues Rock, Hard Rock, Boogie Rock | Label: Epic | # EK 66795

The Allman Brothers Band's fifth live release in 25 years, cut during 1994 in Raleigh, NC, and at the Garden State Arts Center in New Jersey, is a high-water mark in their Epic Records catalog. If anything, they're even better here than they were on the earlier Evening with the Allman Brothers Band, the old material getting fresh new approaches – the band was on for both nights, and presented sets, including an acoustic version of "In Memory of Elizabeth Reed" and "Jessica" (which won a Grammy Award), that soared and flowed, especially Dickey Betts and Warren Haynes' guitars. What's more, the clarity of the recording and the volume at which it was recorded make this a most rewarding 70 minutes of live music on a purely technical level – you can practically hear the action on the guitars during the acoustic set. It won't replace Live at Fillmore East or the live portions of Eat a Peach, but it deserves a place on the shelf not very far from them.

Review by Bruce Eder, Allmusic.com

The Allman Brothers Band - An Evening with The Allman Brothers Band: 2nd Set (1995) [Re-Up]



Tracklist:

01. Sailin' 'Cross The Devil's Sea (4:49)
02. You Don't Love Me (6:36)
03. Soulshine (6:42)
04. Back Where It All Begins (12:33)
05. In Memory Of Elizabeth Reed (10:15)
06. The Same Thing (8:22)
07. No One To Run With (6:30)
08. Jessica (16:07)


EAC extraction logfile from 22. March 2007, 23:15 for CD
Allman Brothers Band / An Evening With The Allman Brothers Band (2nd Set)

Used drive : _NEC DVD_RW ND-3500AG Adapter: 1 ID: 0
Read mode : Secure with NO C2, accurate stream, disable cache
Read offset correction : 48
Overread into Lead-In and Lead-Out : No

Used output format : C:\Program Files\FLAC\flac.exe (User Defined Encoder)
192 kBit/s
Additional command line options : -V -8 -T "artist=%a" -T "title=%t" -T "album=%g" -T "date=%y" -T "tracknumber=%n" -T "genre=%m" %s

Other options :
Fill up missing offset samples with silence : Yes
Delete leading and trailing silent blocks : No
Installed external ASPI interface


Track 1
Filename C:\EAC rips\01 - Sailin' 'Cross The Devil's Sea.wav

Pre-gap length 0:00:02.00

Peak level 97.7 %
Track quality 100.0 %
Test CRC 5055247F
Copy CRC 5055247F
Copy OK

Track 2
Filename C:\EAC rips\02 - You Don't Love Me.wav

Peak level 97.7 %
Track quality 100.0 %
Test CRC 4651D938
Copy CRC 4651D938
Copy OK

Track 3
Filename C:\EAC rips\03 - Soulshine.wav

Peak level 97.7 %
Track quality 100.0 %
Test CRC CE25B806
Copy CRC CE25B806
Copy OK

Track 4
Filename C:\EAC rips\04 - Back Where It All Begins.wav

Peak level 97.7 %
Track quality 100.0 %
Test CRC B0CB96F2
Copy CRC B0CB96F2
Copy OK

Track 5
Filename C:\EAC rips\05 - In Memory Of Elizabeth Reed.wav

Pre-gap length 0:00:01.09

Peak level 97.7 %
Track quality 100.0 %
Test CRC 96C0C527
Copy CRC 96C0C527
Copy OK

Track 6
Filename C:\EAC rips\06 - The Same Thing.wav

Peak level 97.7 %
Track quality 100.0 %
Test CRC E79FD561
Copy CRC E79FD561
Copy OK

Track 7
Filename C:\EAC rips\07 - No One To Run With.wav

Peak level 97.7 %
Track quality 100.0 %
Test CRC 86590BFA
Copy CRC 86590BFA
Copy OK

Track 8
Filename C:\EAC rips\08 - Jessica.wav

Peak level 100.0 %
Track quality 100.0 %
Test CRC 7A7234CF
Copy CRC 7A7234CF
Copy OK

No errors occured

[CUETools log; Date: 29.05.2017 15:59:23; Version: 2.1.4]
[CTDB TOCID: qP2Y9VnclvmWDVrPD3WpgbjI33Y-] found.
Track | CTDB Status
1 | (119/122) Accurately ripped
2 | (118/122) Accurately ripped
3 | (119/122) Accurately ripped
4 | (119/122) Accurately ripped
5 | (119/122) Accurately ripped
6 | (116/122) Accurately ripped
7 | (115/122) Accurately ripped
8 | (111/122) Accurately ripped
[AccurateRip ID: 00136df8-00862aa0-8210da08] found.
Track [ CRC | V2 ] Status
01 [eadf6b09|32e47109] (025+017/197) Accurately ripped
02 [b3a864cc|b5e5ebf2] (024+017/196) Accurately ripped
03 [c25bd509|406ce2a3] (024+017/197) Accurately ripped
04 [003143ef|72abc014] (025+017/194) Accurately ripped
05 [21abe677|44de8983] (025+017/197) Accurately ripped
06 [c87d4fdc|b338812b] (025+017/193) Accurately ripped
07 [222f7fa4|df07ce9b] (024+017/196) Accurately ripped
08 [07647820|aea765d3] (023+015/177) Accurately ripped
Offsetted by -218:
01 [15fc738f] (013/197) Accurately ripped
02 [18cae250] (012/196) Accurately ripped
03 [65fcaadf] (013/197) Accurately ripped
04 [d30dc457] (012/194) Accurately ripped
05 [77ea0439] (014/197) Accurately ripped
06 [e522837c] (011/193) Accurately ripped
07 [e32b6a7b] (012/196) Accurately ripped
08 [c2bb171d] (011/177) Accurately ripped
Offsetted by -78:
01 [9a014adb] (007/197) Accurately ripped
02 [1741a6d8] (008/196) Accurately ripped
03 [643e7acb] (008/197) Accurately ripped
04 [6a2b9c27] (007/194) Accurately ripped
05 [d224c47d] (007/197) Accurately ripped
06 [30af06bc] (006/193) Accurately ripped
07 [9f5a3d1b] (008/196) Accurately ripped
08 [f015e38d] (006/177) Accurately ripped
Offsetted by 2:
01 [2e96582b] (010/197) Accurately ripped
02 [3af33bb8] (011/196) Accurately ripped
03 [1a1af19b] (011/197) Accurately ripped
04 [52cef2e7] (011/194) Accurately ripped
05 [2a4656ed] (011/197) Accurately ripped
06 [a4ff51bc] (011/193) Accurately ripped
07 [b6d83d32] (011/196) Accurately ripped
08 [28c8c41a] (011/177) Accurately ripped
Offsetted by 9:
01 [9b969622] (025/197) Accurately ripped
02 [14792bf2] (026/196) Accurately ripped
03 [4d37d59a] (026/197) Accurately ripped
04 [73f6d74b] (025/194) Accurately ripped
05 [4862e08a] (025/197) Accurately ripped
06 [28c6584c] (026/193) Accurately ripped
07 [1ca1159d] (026/196) Accurately ripped
08 [1da4ce03] (021/177) Accurately ripped
Offsetted by 203:
01 [c028f2ff] (006/197) Accurately ripped
02 [582b9b07] (006/196) Accurately ripped
03 [8ca1a8ec] (006/197) Accurately ripped
04 [c1b62343] (006/194) Accurately ripped
05 [8ae77d40] (005/197) Accurately ripped
06 [b6090e2c] (005/193) Accurately ripped
07 [d46a56b4] (006/196) Accurately ripped
08 [bc9090b8] (005/177) Accurately ripped
Offsetted by 206:
01 [a5b856b5] (004/197) Accurately ripped
02 [231edd66] (004/196) Accurately ripped
03 [104053c7] (004/197) Accurately ripped
04 [3da2a9b7] (004/194) Accurately ripped
05 [97cf25f1] (004/197) Accurately ripped
06 [80cc10fc] (004/193) Accurately ripped
07 [b3a9733c] (004/196) Accurately ripped
08 [6e65027c] (003/177) Accurately ripped
Offsetted by 952:
01 [4199e9f4] (014/197) Accurately ripped
02 [487dfd1d] (013/196) Accurately ripped
03 [e9b4f481] (013/197) Accurately ripped
04 [9d62990f] (013/194) Accurately ripped
05 [20d501df] (014/197) Accurately ripped
06 [ca38cc5c] (013/193) Accurately ripped
07 [0d8c56b1] (014/196) Accurately ripped
08 [95c00a63] (013/177) Accurately ripped
Offsetted by -216:
01 [59b360b1] (000/197) No match (V2 was not tested)
02 [a015b93c] (000/196) No match (V2 was not tested)
03 [bdbbc771] (000/197) No match (V2 was not tested)
04 [25ab734f] (000/194) No match (V2 was not tested)
05 [808474af] (000/197) No match (V2 was not tested)
06 [c1a4855c] (000/193) No match (V2 was not tested)
07 [779427eb] (000/196) No match (V2 was not tested)
08 [e45f6335] (000/177) No match (V2 was not tested)
Offsetted by -77:
01 [3bdcc16c] (000/197) No match (V2 was not tested)
02 [5ae7124e] (000/196) No match (V2 was not tested)
03 [901e0914] (000/197) No match (V2 was not tested)
04 [937a73a3] (000/194) No match (V2 was not tested)
05 [d671fcb8] (000/197) No match (V2 was not tested)
06 [1ef007ac] (000/193) No match (V2 was not tested)
07 [8a1f9bdb] (000/196) No match (V2 was not tested)
08 [80d30991] (000/177) No match
Offsetted by 201:
01 [7c7405db] (000/197) No match (V2 was not tested)
02 [d0dec41d] (000/196) No match (V2 was not tested)
03 [34e28c5a] (000/197) No match (V2 was not tested)
04 [6f18744b] (000/194) No match (V2 was not tested)
05 [824d0cca] (000/197) No match (V2 was not tested)
06 [d9870c4c] (000/193) No match (V2 was not tested)
07 [3f959904] (000/196) No match (V2 was not tested)
08 [9b5844e0] (000/177) No match (V2 was not tested)

Track Peak [ CRC32 ] [W/O NULL] [ LOG ]
– 100,0 [2D37B15E] [684A0CF7]
01 97,7 [5055247F] [B6C41912] CRC32
02 97,7 [4651D938] [E6205648] CRC32
03 97,7 [CE25B806] [7232C322] CRC32
04 97,7 [B0CB96F2] [ECDA8F7F] CRC32
05 97,7 [96C0C527] [5C10143E] CRC32
06 97,7 [E79FD561] [054F9CEE] CRC32
07 97,7 [86590BFA] [CB6FC447] CRC32
08 100,0 [7A7234CF] [B6EC190F] CRC32

foobar2000 1.2 / Dynamic Range Meter 1.1.1
log date: 2017-05-29 16:11:56

––––––––––––––––––––––––––––––––––––––––
Analyzed: Allman Brothers Band / An Evening With The Allman Brothers Band (2nd Set)
––––––––––––––––––––––––––––––––––––––––

DR Peak RMS Duration Track
––––––––––––––––––––––––––––––––––––––––
DR9 -0.20 dB -10.83 dB 4:49 01-Sailin' 'Cross The Devil's Sea
DR10 -0.20 dB -11.59 dB 6:36 02-You Don't Love Me
DR9 -0.20 dB -10.81 dB 6:42 03-Soulshine
DR9 -0.20 dB -10.79 dB 12:33 04-Back Where It All Begins
DR11 -0.20 dB -12.97 dB 10:15 05-In Memory Of Elizabeth Reed
DR9 -0.20 dB -10.29 dB 8:22 06-The Same Thing
DR9 -0.20 dB -10.93 dB 6:30 07-No One To Run With
DR10 0.00 dB -11.08 dB 16:07 08-Jessica
––––––––––––––––––––––––––––––––––––––––

Number of tracks: 8
Official DR value: DR10

Samplerate: 44100 Hz
Channels: 2
Bits per sample: 16
Bitrate: 1006 kbps
Codec: FLAC
================================================================================

The Allman Brothers Band - An Evening with The Allman Brothers Band: 2nd Set (1995) [Re-Up]

The Allman Brothers Band - An Evening with The Allman Brothers Band: 2nd Set (1995) [Re-Up]

All thanks to original releaser

More interesting music in My Blog