Subcategories

Ana Popovic - Hush! (2001)

Posted By: Designol
Ana Popovic - Hush! (2001)

Ana Popović - Hush! (2001)
EAC | FLAC | Tracks (Cue&Log) ~ 400 Mb | Mp3 (CBR320) ~ 157 Mb | Scans included
Modern Electric Blues, Blues-Rock | Label: Ruf | # ruf 1063 | Time: 00:53:56

While the U.S., Britain, and to a lesser extent Canada don't have a stranglehold on the blues, these countries account for the majority of music being produced in that genre. Therefore, when someone from a different nationality releases a strong album in the States, it usually makes news, at least in the rarefied blues universe. Born and raised in Yugoslavia, Ana Popovic would seem to have been brought up in an unusual area to soak in the deep soul, robust swamp rock, and husky R&B she reveals on her first album. But music is a universal language, and Popovic, along with noted blues-rock producer Jim Gaines, has delivered a rugged, confident, and eclectic debut that showcases the artist's many strengths (especially on slide guitar) in songs that shift from jazz ("I Won't Let You Down," "Minute 'Til Dawn") to deep funk (an innovative cover of Tom Waits' "Downtown") and soulful pop ("How Lonely Can a Woman Get?"). With a husky, sensuous voice similar to the Pretenders' Chrissie Hynde, she digs into these tunes with authority, even if English isn't her first language. A duet (guitar and vocal) with Bernard Allison on Johnny Copeland's "Bring Your Fine Self Home" is both sexy and gritty, as the two trade verses and riffs with obvious excitement and mutual respect. A raging version of Buddy Guy's "A Man of Many Words" (here titled "Girl of Many Words") rescues that song from obscurity as Popovic whips out a slimy version with rollicking horns that updates the tune while making it her own. Her originals don't push the limits of the genre, yet they are compressed slices of blues-rock that are excellent showcases for Popovic's tough vocals, wiry, Hendrix-styled leads, and robust stance. The self-penned "Hometown," a greasy, slinky trip down to New Orleans with hypnotic tribal drums, is but one of the album's gripping centerpieces. Recorded in Memphis and sounding like it, Popovic has captured the city's evocative, unvarnished R&B charm on this polished but far-from-slick album. A welcome shot of sex and showmanship in the blues world, Ana Popovic's American debut is a tour de force for this newcomer brimming with sass, brains, and talent.

Review by Hal Horowitz, Allmusic.com

Ana Popovic - Hush! (2001)



Tracklist:

01. Love Fever (4:29)
02. Mended (4:24)
03. Hometown (7:10)
04. I Won't Let You Down (4:23)
05. The Hustle Is On (2:43)
06. Downtown (4:25)
07. How Lonely Can A Woman Get (4:00)
08. Walk Away (3:22)
09. Girl Of Many Words (3:55)
10. Minute 'Till Dawn (5:14)
11. Bring Your Fine Self Home (5:12)
12. How The Mighty Have Fallen (4:39)


Exact Audio Copy V1.0 beta 3 from 29. August 2011

EAC extraction logfile from 19. November 2016, 6:50

Ana Popovic / Hush!

Used drive : HL-DT-STDVDRAM GH24NS90 Adapter: 1 ID: 0

Read mode : Secure
Utilize accurate stream : Yes
Defeat audio cache : Yes
Make use of C2 pointers : No

Read offset correction : 6
Overread into Lead-In and Lead-Out : No
Fill up missing offset samples with silence : Yes
Delete leading and trailing silent blocks : No
Null samples used in CRC calculations : Yes
Used interface : Native Win32 interface for Win NT & 2000
Gap handling : Appended to previous track

Used output format : User Defined Encoder
Selected bitrate : 1024 kBit/s
Quality : High
Add ID3 tag : No
Command line compressor : C:\Program Files (x86)\FLAC\metaflac.exe
Additional command line options : -8


TOC of the extracted CD

Track | Start | Length | Start sector | End sector
––––––––––––––––––––––––––––-
1 | 0:00.00 | 4:29.37 | 0 | 20211
2 | 4:29.37 | 4:23.53 | 20212 | 39989
3 | 8:53.15 | 7:09.52 | 39990 | 72216
4 | 16:02.67 | 4:22.45 | 72217 | 91911
5 | 20:25.37 | 2:43.30 | 91912 | 104166
6 | 23:08.67 | 4:24.68 | 104167 | 124034
7 | 27:33.60 | 3:59.45 | 124035 | 142004
8 | 31:33.30 | 3:22.00 | 142005 | 157154
9 | 34:55.30 | 3:54.45 | 157155 | 174749
10 | 38:50.00 | 5:14.37 | 174750 | 198336
11 | 44:04.37 | 5:12.08 | 198337 | 221744
12 | 49:16.45 | 4:39.27 | 221745 | 242696


Track 1

Filename C:\Exact Audio Copy\Ana Popovic\Hush!\01. Love Fever.wav

Pre-gap length 0:00:02.00

Peak level 99.9 %
Extraction speed 1.1 X
Track quality 100.0 %
Test CRC 8AE44469
Copy CRC 8AE44469
Accurately ripped (confidence 7) [787A72A0] (AR v2)
Copy OK

Track 2

Filename C:\Exact Audio Copy\Ana Popovic\Hush!\02. Mended.wav

Peak level 99.9 %
Extraction speed 1.2 X
Track quality 100.0 %
Test CRC EA5C90B6
Copy CRC EA5C90B6
Accurately ripped (confidence 7) [C490B55E] (AR v2)
Copy OK

Track 3

Filename C:\Exact Audio Copy\Ana Popovic\Hush!\03. Hometown.wav

Peak level 99.9 %
Extraction speed 1.4 X
Track quality 100.0 %
Test CRC DE13ECAF
Copy CRC DE13ECAF
Accurately ripped (confidence 7) [5522D34B] (AR v2)
Copy OK

Track 4

Filename C:\Exact Audio Copy\Ana Popovic\Hush!\04. I Won't Let You Down.wav

Peak level 99.9 %
Extraction speed 1.3 X
Track quality 99.9 %
Test CRC 88645B5E
Copy CRC 88645B5E
Accurately ripped (confidence 7) [855FA013] (AR v2)
Copy OK

Track 5

Filename C:\Exact Audio Copy\Ana Popovic\Hush!\05. The Hustle Is On.wav

Peak level 99.9 %
Extraction speed 1.5 X
Track quality 100.0 %
Test CRC 728F01CC
Copy CRC 728F01CC
Accurately ripped (confidence 7) [E292D5CB] (AR v2)
Copy OK

Track 6

Filename C:\Exact Audio Copy\Ana Popovic\Hush!\06. Downtown.wav

Peak level 99.9 %
Extraction speed 1.5 X
Track quality 99.9 %
Test CRC B42F665A
Copy CRC B42F665A
Accurately ripped (confidence 7) [9F8E091F] (AR v2)
Copy OK

Track 7

Filename C:\Exact Audio Copy\Ana Popovic\Hush!\07. How Lonely Can A Woman Get.wav

Peak level 99.9 %
Extraction speed 1.7 X
Track quality 100.0 %
Test CRC 41F6CAE7
Copy CRC 41F6CAE7
Accurately ripped (confidence 7) [F9DE6BF7] (AR v2)
Copy OK

Track 8

Filename C:\Exact Audio Copy\Ana Popovic\Hush!\08. Walk Away.wav

Peak level 99.9 %
Extraction speed 1.7 X
Track quality 100.0 %
Test CRC 945D2B2D
Copy CRC 945D2B2D
Accurately ripped (confidence 7) [0C88FA85] (AR v2)
Copy OK

Track 9

Filename C:\Exact Audio Copy\Ana Popovic\Hush!\09. Girl Of Many Words.wav

Peak level 99.9 %
Extraction speed 1.8 X
Track quality 100.0 %
Test CRC E516CBF0
Copy CRC E516CBF0
Accurately ripped (confidence 7) [B3D2E9BF] (AR v2)
Copy OK

Track 10

Filename C:\Exact Audio Copy\Ana Popovic\Hush!\10. Minute 'Till Dawn.wav

Peak level 99.9 %
Extraction speed 2.0 X
Track quality 100.0 %
Test CRC 41A86D29
Copy CRC 41A86D29
Accurately ripped (confidence 7) [70FB1ABB] (AR v2)
Copy OK

Track 11

Filename C:\Exact Audio Copy\Ana Popovic\Hush!\11. Bring Your Fine Self Home.wav

Peak level 99.9 %
Extraction speed 2.1 X
Track quality 100.0 %
Test CRC 2D3DACCF
Copy CRC 2D3DACCF
Accurately ripped (confidence 7) [9E462FDD] (AR v2)
Copy OK

Track 12

Filename C:\Exact Audio Copy\Ana Popovic\Hush!\12. How The Mighty Have Fallen.wav

Peak level 99.9 %
Extraction speed 2.1 X
Track quality 100.0 %
Test CRC 4F831B94
Copy CRC 4F831B94
Accurately ripped (confidence 7) [80AE08B6] (AR v2)
Copy OK


All tracks accurately ripped

No errors occurred

End of status report

–– CUETools DB Plugin V2.1.6

[CTDB TOCID: jLhwvdvhIV_Lz6HeihRTV1jhP7s-] found
Submit result: jLhwvdvhIV_Lz6HeihRTV1jhP7s- has been confirmed, jLhwvdvhIV_Lz6HeihRTV1jhP7s- has been confirmed
Track | CTDB Status
1 | (53/53) Accurately ripped
2 | (52/53) Accurately ripped
3 | (52/53) Accurately ripped
4 | (52/53) Accurately ripped
5 | (52/53) Accurately ripped
6 | (52/53) Accurately ripped
7 | (52/53) Accurately ripped
8 | (52/53) Accurately ripped
9 | (52/53) Accurately ripped
10 | (52/53) Accurately ripped
11 | (52/53) Accurately ripped
12 | (52/53) Accurately ripped


==== Log checksum FA11008FE3992330FCA952CD7A78F81948BB68CF40CF67CD58F1137C79528EE7 ====

[CUETools log; Date: 07.11.2018 20:36:10; Version: 2.1.4]
[CTDB TOCID: jLhwvdvhIV_Lz6HeihRTV1jhP7s-] found.
Track | CTDB Status
1 | (100/100) Accurately ripped
2 | ( 99/100) Accurately ripped
3 | ( 99/100) Accurately ripped
4 | ( 99/100) Accurately ripped
5 | ( 99/100) Accurately ripped
6 | ( 99/100) Accurately ripped
7 | ( 99/100) Accurately ripped
8 | ( 99/100) Accurately ripped
9 | ( 99/100) Accurately ripped
10 | ( 99/100) Accurately ripped
11 | ( 99/100) Accurately ripped
12 | ( 98/100) Accurately ripped
[AccurateRip ID: 00183fe6-00e044f1-b30ca30c] found.
Track [ CRC | V2 ] Status
01 [14487cd8|787a72a0] (03+08/82) Accurately ripped
02 [b743b6c7|c490b55e] (03+08/82) Accurately ripped
03 [80f30754|5522d34b] (03+08/82) Accurately ripped
04 [f278ad5e|855fa013] (03+08/82) Accurately ripped
05 [6afbbf5f|e292d5cb] (03+08/82) Accurately ripped
06 [150def67|9f8e091f] (03+08/82) Accurately ripped
07 [61cc87b0|f9de6bf7] (03+08/82) Accurately ripped
08 [f0ae958e|0c88fa85] (03+08/82) Accurately ripped
09 [39b84d65|b3d2e9bf] (03+08/81) Accurately ripped
10 [0760850a|70fb1abb] (03+08/82) Accurately ripped
11 [3800b5a3|9e462fdd] (03+08/82) Accurately ripped
12 [4961048e|80ae08b6] (03+08/80) Accurately ripped
Offsetted by 30:
01 [2beb3722] (06/82) Accurately ripped
02 [45e25b8b] (06/82) Accurately ripped
03 [41420c0e] (06/82) Accurately ripped
04 [bd1e8e72] (06/82) Accurately ripped
05 [64645897] (06/82) Accurately ripped
06 [51e56be3] (06/82) Accurately ripped
07 [a8c378f0] (06/82) Accurately ripped
08 [7779514c] (06/82) Accurately ripped
09 [3b912723] (05/81) Accurately ripped
10 [08e49dda] (06/82) Accurately ripped
11 [7918e5eb] (06/82) Accurately ripped
12 [4a2526ac] (06/80) Accurately ripped
Offsetted by 572:
01 [4be60267] (02/82) Accurately ripped
02 [7e43ef94] (02/82) Accurately ripped
03 [17e6b6c8] (02/82) Accurately ripped
04 [3d7e1b86] (02/82) Accurately ripped
05 [86e839cf] (02/82) Accurately ripped
06 [bf3cac5f] (02/82) Accurately ripped
07 [44752a30] (02/82) Accurately ripped
08 [722e6f0a] (02/82) Accurately ripped
09 [c35662e1] (02/81) Accurately ripped
10 [cef2e6aa] (02/82) Accurately ripped
11 [22344e33] (02/82) Accurately ripped
12 [02a74aca] (02/80) Accurately ripped
Offsetted by 658:
01 [5ae82483] (15/82) Accurately ripped
02 [e3fd440e] (15/82) Accurately ripped
03 [b6a719aa] (15/82) Accurately ripped
04 [1c044b6a] (15/82) Accurately ripped
05 [40cfcee7] (15/82) Accurately ripped
06 [2962224b] (15/82) Accurately ripped
07 [dcb08870] (15/82) Accurately ripped
08 [05a6cd80] (15/82) Accurately ripped
09 [fbd51757] (15/81) Accurately ripped
10 [7df61cba] (15/82) Accurately ripped
11 [baacd89b] (15/82) Accurately ripped
12 [af843520] (15/80) Accurately ripped

Track Peak [ CRC32 ] [W/O NULL] [ LOG ]
– 99,9 [BD818229] [7C4B7E72]
01 99,9 [8AE44469] [D3531603] CRC32
02 99,9 [EA5C90B6] [DD9D6453] CRC32
03 99,9 [DE13ECAF] [881C1234] CRC32
04 99,9 [88645B5E] [D5430A50] CRC32
05 99,9 [728F01CC] [40D0A568] CRC32
06 99,9 [B42F665A] [0BDA2DE6] CRC32
07 99,9 [41F6CAE7] [32FBFE01] CRC32
08 99,9 [945D2B2D] [AFDBC571] CRC32
09 99,9 [E516CBF0] [9E12C920] CRC32
10 99,9 [41A86D29] [4C747709] CRC32
11 99,9 [2D3DACCF] [285BF766] CRC32
12 99,9 [4F831B94] [1719758F] CRC32

foobar2000 1.2 / Dynamic Range Meter 1.1.1
log date: 2018-11-07 21:00:53

––––––––––––––––––––––––––––––––––––––––
Analyzed: Ana Popovic / Hush!
––––––––––––––––––––––––––––––––––––––––

DR Peak RMS Duration Track
––––––––––––––––––––––––––––––––––––––––
DR7 0.00 dB -8.53 dB 4:29 01-Love Fever
DR7 0.00 dB -8.54 dB 4:24 02-Mended
DR6 0.00 dB -7.72 dB 7:10 03-Hometown
DR8 0.00 dB -10.32 dB 4:23 04-I Won't Let You Down
DR7 0.00 dB -7.32 dB 2:43 05-The Hustle Is On
DR6 0.00 dB -8.25 dB 4:25 06-Downtown
DR7 0.00 dB -7.80 dB 4:00 07-How Lonely Can A Woman Get
DR7 0.00 dB -7.85 dB 3:22 08-Walk Away
DR7 0.00 dB -8.06 dB 3:55 09-Girl Of Many Words
DR8 0.00 dB -9.55 dB 5:14 10-Minute 'Till Dawn
DR7 0.00 dB -8.18 dB 5:12 11-Bring Your Fine Self Home
DR8 0.00 dB -8.84 dB 4:39 12-How The Mighty Have Fallen
––––––––––––––––––––––––––––––––––––––––

Number of tracks: 12
Official DR value: DR7

Samplerate: 44100 Hz
Channels: 2
Bits per sample: 16
Bitrate: 902 kbps
Codec: FLAC
================================================================================

Ana Popovic - Hush! (2001)

Ana Popovic - Hush! (2001)

All thanks to original releaser - saintsmon

More interesting music in My Blog