Tags
Language
Tags
June 2024
Su Mo Tu We Th Fr Sa
26 27 28 29 30 31 1
2 3 4 5 6 7 8
9 10 11 12 13 14 15
16 17 18 19 20 21 22
23 24 25 26 27 28 29
30 1 2 3 4 5 6

VA - Andrew Lloyd Webber - Unmasked The Platinum Collection (Deluxe) (2018)

Posted By: Rtax
VA - Andrew Lloyd Webber - Unmasked The Platinum Collection (Deluxe) (2018)

VA - Andrew Lloyd Webber - Unmasked The Platinum Collection (Deluxe) (2018)
EAC Rip | FLAC (tracks, cue, log, scans) - 1.7 GB | MP3 CBR 320 kbps - 663 MB
4:46:14 | Stage & Screen, Musical | Label: Polydor

Unmasked: The Platinum Collection is the all-time greatest hits from the works of Sir Andrew Lloyd Webber, one of the most successful composers of our era. The 4CD set featuring 8 new recordings including tracks by Lana Del Rey, Gregory Porter, Nicole Scherzinger and an exclusive performance by Beyonce. Plus a 40 page booklet including track-by-track, an introduction by Andrew Lloyd Webber and new testimonies from artists including Barbra Streisand, Glenn Close, Michael Crawford and Tim Rice.

Tracklist
Disc: 1
01. Superstar – Murray Head & Trinidad Singers
02. The Phantom Of The Opera – Michael Crawford, Sarah Brightman
03. Oh What A Circus – Antonio Banderas, Madonna
04. Love Changes Everything – Michael Ball
05. Stick It To The Man – Alex Brightman, The Original Broadway Cast Of School Of Rock
06. Memory – Nicole Scherzinger
07. No Matter What – Boyzone
08. With One Look – Barbra Streisand
09. Buenos Aires – Glee Cast
10. Don’t Cry For Me Argentina – Julie Covington
11. Take That Look Off Your Face – Marti Webb
12. I’m Hopeless When It Comes To You – Joanna Riding
13. Light At The End Of The Tunnel – Gregory Porter
14. The Music Of The Night – Michael Crawford
15. Gethsemane (I Only Want To Say) – Ian Gillan
16. Any Dream Will Do – Donny Osmond
17. Amigos Para Siempre – José Carreras, Sarah Brightman
18. I Don’t Know How To Love Him – Yvonne Elliman

Disc: 2
01. As If We Never Said Goodbye – Glenn Close
02. Theme And Variations 1 – 4 (From Paganini’s Caprice in A Minor, No. 24)
03. Unexpected Song – Sarah Brightman
04. You Must Love Me – Lana Del Rey
05. Everything’s Alright – Yvonne Elliman, Ian Gillan
06. The Vaults Of Heaven – Tom Jones, Sounds Of Blackness
07. Another Suitcase In Another Hall – Madonna
08. You’re In The Band – The Original Broadway Cast Of School Of Rock
09. It’s Easy For You – Elvis Presley
10. Cold – The Everly Brothers
11. Come Back With The Same Look In Your Eyes – Denise Van Outen
12. Am The Starlight – Mica Paris, George Ure
13. Mr. Mistoffelees – Paul Nicholas
14. Tell Me On A Sunday – Michael Crawford
15. Think Of Me – Emmy Rossum, Patrick Wilson
16. Rainbow High – Elaine Paige, Original London Cast Of Evita
17. All I Ask Of You – Sarah Brightman, Cliff Richard
18. Wishing You Were Somehow Here Again – Sierra Boggess (Live At The Royal Albert Hall).
19. Learn To Be Lonely – (Live At The Oscars)

Disc: 3
01. Jacob & Sons/Coat Of Many Colours – Andrew Lloyd Webber
02. Close Every Door – Donny Osmond, “Joseph And The Amazing Technicolor Dreamcoat” 1992 Canadian Cast
03. Heaven On Their Minds – Tim Minchin
04. King Herod’s Song – Alice Cooper
05. Skimbleshanks The Railway Cat – “Cats” 1981 Original London Cast
06. Macavity: The Mystery Cat – Wendy Edmead, Donna King, “Cats” 1983 Broadway Cast
07. You’ve Never Had It So Good – Stephen Ward Original London Cast
08. I’d Be Surprisingly Good For You – Elena Roger, Philip Quast, Original Evita Cast
09. Evermore Without You – The Original London Cast Of ‘The Woman In White’, Martin Crewes
10. I Believe My Heart – Duncan James, Keedie
11. If Only You Would Listen – The Original Broadway Cast Of School Of Rock
12. Sing – Military Wives
13. Hosanna – “Jesus Christ Superstar” 1996 London Cast, Peter Gallagher, Steve Balsamo
14. Hosanna – Plácido Domingo, Sarah Brightman, Choir Of Winchester Cathedral, English Chamber Orchestra, Lorin Maazel
15. Pie Jesu – Paul Miles
16. By Jeeves – By Jeeves 1996 Original London Cast
17. Where Did The Rock Go? – Florence Andrews

Disc: 4
01. Phantom Phantasy – “The Phantom Of The Opera” Original London Cast
02. Masquerade – Cast Of “The Phantom Of The Opera” Motion Picture
03. ‘Til I Hear You Sing – Ramin Karimloo
04. Love Never Dies Orchestral Suite – “Love Never Dies” Original London Cast
05. Love Never Dies – Sierra Boggess
06. The Beauty Underneath – Ben Lewis, Casey Lyons
07. Variations On Variations
08. Overture – Orchestra Of Jesus Christ Superstar
09. Overture And The Beautiful Game – “The Beautiful Game” Original 2000 London Cast
10. If This Is What We’re Fighting For – Josie Walker
11. The Overture – Original Cast Of Cats
12. Jellicle Ball – Original Cast Of Cats
13. Sunset Suite – Sunset Boulevard Original 1994 Broadway Orchestra
14. Sunset Boulevard – Kevin Anderson
15. Aspects Of Aspects – Orchester Der Vereinigten Buehnen Wien
16. Seeing Is Believing – Michael Ball, Sarah Brightman
17. Anything But Lonely – Sarah Brightman
Exact Audio Copy V1.6 from 23. October 2020

EAC extraction logfile from 24. August 2022, 18:30

Andrew Lloyd Webber / Unmasked: The Platinum Collection

Used drive : ASUS DRW-24D5MT Adapter: 1 ID: 0

Read mode : Secure
Utilize accurate stream : Yes
Defeat audio cache : Yes
Make use of C2 pointers : No

Read offset correction : 6
Overread into Lead-In and Lead-Out : No
Fill up missing offset samples with silence : Yes
Delete leading and trailing silent blocks : No
Null samples used in CRC calculations : Yes
Used interface : Native Win32 interface for Win NT & 2000
Gap handling : Appended to previous track

Used output format : User Defined Encoder
Selected bitrate : 1024 kBit/s
Quality : High
Add ID3 tag : No
Command line compressor : C:\Program Files (x86)\Exact Audio Copy\FLAC\FLAC.EXE
Additional command line options : -8 -V -T "ARTIST=%artist%" -T "TITLE=%title%" -T "ALBUM=%albumtitle%" -T "DATE=%year%" -T "TRACKNUMBER=%tracknr%" -T "GENRE=%genre%" -T "PERFORMER=%albuminterpret%" -T "COMPOSER=%composer%" %haslyrics%–tag-from-file=LYRICS="%lyricsfile%"%haslyrics% -T "ALBUMARTIST=%albumartist%" -T "DISCNUMBER=%cdnumber%" -T "TOTALDISCS=%totalcds%" -T "TOTALTRACKS=%numtracks%" -T "COMMENT=%comment%" %source% -o %dest%


TOC of the extracted CD

Track | Start | Length | Start sector | End sector
––––––––––––––––––––––––––––-
1 | 0:00.00 | 4:15.68 | 0 | 19192
2 | 4:15.68 | 4:17.48 | 19193 | 38515
3 | 8:33.41 | 5:44.65 | 38516 | 64380
4 | 14:18.31 | 3:26.71 | 64381 | 79901
5 | 17:45.27 | 3:12.36 | 79902 | 94337
6 | 20:57.63 | 4:29.57 | 94338 | 114569
7 | 25:27.45 | 4:35.30 | 114570 | 135224
8 | 30:03.00 | 3:31.51 | 135225 | 151100
9 | 33:34.51 | 3:10.07 | 151101 | 165357
10 | 36:44.58 | 5:24.54 | 165358 | 189711
11 | 42:09.37 | 2:58.38 | 189712 | 203099
12 | 45:08.00 | 3:45.09 | 203100 | 219983
13 | 48:53.09 | 3:31.37 | 219984 | 235845
14 | 52:24.46 | 5:12.20 | 235846 | 259265
15 | 57:36.66 | 5:35.43 | 259266 | 284433
16 | 63:12.34 | 3:52.08 | 284434 | 301841
17 | 67:04.42 | 4:33.71 | 301842 | 322387
18 | 71:38.38 | 3:40.57 | 322388 | 338944


Track 1

Filename W:\Andrew Lloyd Webber - Unmasked The Platinum Collection (2018)\CD1\01 - Superstar (From ''Jesus Christ Superstar'').wav

Pre-gap length 0:00:02.00

Peak level 94.4 %
Extraction speed 1.2 X
Track quality 100.0 %
Test CRC 761FDABE
Copy CRC 761FDABE
Accurately ripped (confidence 12) [F97FBCDE] (AR v2)
Copy OK

Track 2

Filename W:\Andrew Lloyd Webber - Unmasked The Platinum Collection (2018)\CD1\02 - The Phantom Of The Opera (From ''The Phantom Of The Opera'').wav

Peak level 94.4 %
Extraction speed 1.2 X
Track quality 99.9 %
Test CRC AE32BB63
Copy CRC AE32BB63
Accurately ripped (confidence 12) [DD10FC13] (AR v2)
Copy OK

Track 3

Filename W:\Andrew Lloyd Webber - Unmasked The Platinum Collection (2018)\CD1\03 - Oh What A Circus (From ''Evita'' Original Motion Picture Soundtrack).wav

Peak level 94.4 %
Extraction speed 1.5 X
Track quality 100.0 %
Test CRC 7069A258
Copy CRC 7069A258
Accurately ripped (confidence 12) [FFDE2B76] (AR v2)
Copy OK

Track 4

Filename W:\Andrew Lloyd Webber - Unmasked The Platinum Collection (2018)\CD1\04 - Love Changes Everything (From ''Aspects Of Love'').wav

Peak level 94.4 %
Extraction speed 1.5 X
Track quality 100.0 %
Test CRC A302E2E0
Copy CRC A302E2E0
Accurately ripped (confidence 12) [0D871F9D] (AR v2)
Copy OK

Track 5

Filename W:\Andrew Lloyd Webber - Unmasked The Platinum Collection (2018)\CD1\05 - Stick It To The Man (From ''School Of Rock'').wav

Peak level 95.5 %
Extraction speed 1.6 X
Track quality 100.0 %
Test CRC 02334D89
Copy CRC 02334D89
Accurately ripped (confidence 12) [045D71DB] (AR v2)
Copy OK

Track 6

Filename W:\Andrew Lloyd Webber - Unmasked The Platinum Collection (2018)\CD1\06 - Memory (From ''Cats'').wav

Peak level 94.2 %
Extraction speed 1.7 X
Track quality 100.0 %
Test CRC 36CDF36D
Copy CRC 36CDF36D
Accurately ripped (confidence 12) [72E26420] (AR v2)
Copy OK

Track 7

Filename W:\Andrew Lloyd Webber - Unmasked The Platinum Collection (2018)\CD1\07 - No Matter What (From ''Whistle Down The Wind'').wav

Peak level 97.7 %
Extraction speed 1.8 X
Track quality 100.0 %
Test CRC 24E95174
Copy CRC 24E95174
Accurately ripped (confidence 12) [310323AB] (AR v2)
Copy OK

Track 8

Filename W:\Andrew Lloyd Webber - Unmasked The Platinum Collection (2018)\CD1\08 - With One Look (From ''Sunset Boulevard'').wav

Peak level 94.2 %
Extraction speed 1.8 X
Track quality 100.0 %
Test CRC 2914A7CB
Copy CRC 2914A7CB
Accurately ripped (confidence 12) [5D196011] (AR v2)
Copy OK

Track 9

Filename W:\Andrew Lloyd Webber - Unmasked The Platinum Collection (2018)\CD1\09 - Buenos Aires (From ''Evita'').wav

Peak level 90.1 %
Extraction speed 1.8 X
Track quality 100.0 %
Test CRC 0F0F556F
Copy CRC 0F0F556F
Accurately ripped (confidence 12) [62AE96F7] (AR v2)
Copy OK

Track 10

Filename W:\Andrew Lloyd Webber - Unmasked The Platinum Collection (2018)\CD1\10 - Don't Cry For Me Argentina (From ''Evita'').wav

Peak level 94.3 %
Extraction speed 1.9 X
Track quality 99.9 %
Test CRC 6556A863
Copy CRC 6556A863
Accurately ripped (confidence 12) [0575C133] (AR v2)
Copy OK

Track 11

Filename W:\Andrew Lloyd Webber - Unmasked The Platinum Collection (2018)\CD1\11 - Take That Look Off Your Face (From ''Tell Me On A Sunday'').wav

Peak level 94.4 %
Extraction speed 2.0 X
Track quality 100.0 %
Test CRC D2CC2FA6
Copy CRC D2CC2FA6
Accurately ripped (confidence 12) [3F22C6EC] (AR v2)
Copy OK

Track 12

Filename W:\Andrew Lloyd Webber - Unmasked The Platinum Collection (2018)\CD1\12 - I'm Hopeless When It Comes To You (From ''Stephen Ward'').wav

Peak level 94.5 %
Extraction speed 1.8 X
Track quality 99.9 %
Test CRC C17B26BC
Copy CRC C17B26BC
Accurately ripped (confidence 12) [6CAF1BAF] (AR v2)
Copy OK

Track 13

Filename W:\Andrew Lloyd Webber - Unmasked The Platinum Collection (2018)\CD1\13 - Light At The End Of The Tunnel (From ''Starlight Express'').wav

Peak level 94.4 %
Extraction speed 1.9 X
Track quality 99.9 %
Test CRC EC4C69F3
Copy CRC EC4C69F3
Accurately ripped (confidence 12) [12FD0A08] (AR v2)
Copy OK

Track 14

Filename W:\Andrew Lloyd Webber - Unmasked The Platinum Collection (2018)\CD1\14 - The Music Of The Night (From ''The Phantom Of The Opera'').wav

Peak level 94.4 %
Extraction speed 2.3 X
Track quality 100.0 %
Test CRC 3614EB98
Copy CRC 3614EB98
Accurately ripped (confidence 12) [E00E35B2] (AR v2)
Copy OK

Track 15

Filename W:\Andrew Lloyd Webber - Unmasked The Platinum Collection (2018)\CD1\15 - Gethsemane (I Only Want To Say) (From ''Jesus Christ Superstar'').wav

Peak level 94.4 %
Extraction speed 2.4 X
Track quality 100.0 %
Test CRC DFD6C0F6
Copy CRC DFD6C0F6
Accurately ripped (confidence 12) [31EA8E84] (AR v2)
Copy OK

Track 16

Filename W:\Andrew Lloyd Webber - Unmasked The Platinum Collection (2018)\CD1\16 - Any Dream Will Do (From ''Joseph And The Amazing Technicolor Dreamcoat'').wav

Peak level 94.4 %
Extraction speed 2.3 X
Track quality 100.0 %
Test CRC 6F316C6E
Copy CRC 6F316C6E
Accurately ripped (confidence 11) [3226361A] (AR v2)
Copy OK

Track 17

Filename W:\Andrew Lloyd Webber - Unmasked The Platinum Collection (2018)\CD1\17 - Amigos Para Siempre.wav

Peak level 94.4 %
Extraction speed 2.5 X
Track quality 100.0 %
Test CRC C09E3F43
Copy CRC C09E3F43
Accurately ripped (confidence 11) [7DCA2948] (AR v2)
Copy OK

Track 18

Filename W:\Andrew Lloyd Webber - Unmasked The Platinum Collection (2018)\CD1\18 - I Don't Know How To Love Him (From ''Jesus Christ Superstar'').wav

Peak level 94.4 %
Extraction speed 2.1 X
Track quality 99.9 %
Test CRC 6344B17D
Copy CRC 6344B17D
Accurately ripped (confidence 10) [F99F5133] (AR v2)
Copy OK


All tracks accurately ripped

No errors occurred

End of status report

–– CUETools DB Plugin V2.1.6

[CTDB TOCID: _6fFqJJI371qqAKMDQHCQcp2jlk-] found
Submit result: _6fFqJJI371qqAKMDQHCQcp2jlk- has been confirmed
Track | CTDB Status
1 | (66/66) Accurately ripped
2 | (66/66) Accurately ripped
3 | (66/66) Accurately ripped
4 | (66/66) Accurately ripped
5 | (66/66) Accurately ripped
6 | (66/66) Accurately ripped
7 | (66/66) Accurately ripped
8 | (66/66) Accurately ripped
9 | (66/66) Accurately ripped
10 | (66/66) Accurately ripped
11 | (66/66) Accurately ripped
12 | (66/66) Accurately ripped
13 | (65/66) Accurately ripped
14 | (65/66) Accurately ripped
15 | (66/66) Accurately ripped
16 | (66/66) Accurately ripped
17 | (66/66) Accurately ripped
18 | (63/66) Accurately ripped


==== Log checksum D6AC5DD90E62313BAF87BE83E724BC16470863D47C3D29F06043F262072CFAD7 ====


Exact Audio Copy V1.6 from 23. October 2020

EAC extraction logfile from 24. August 2022, 19:53

Andrew Lloyd Webber / Unmasked: The Platinum Collection

Used drive : ASUS DRW-24D5MT Adapter: 1 ID: 0

Read mode : Secure
Utilize accurate stream : Yes
Defeat audio cache : Yes
Make use of C2 pointers : No

Read offset correction : 6
Overread into Lead-In and Lead-Out : No
Fill up missing offset samples with silence : Yes
Delete leading and trailing silent blocks : No
Null samples used in CRC calculations : Yes
Used interface : Native Win32 interface for Win NT & 2000
Gap handling : Appended to previous track

Used output format : User Defined Encoder
Selected bitrate : 1024 kBit/s
Quality : High
Add ID3 tag : No
Command line compressor : C:\Program Files (x86)\Exact Audio Copy\FLAC\FLAC.EXE
Additional command line options : -8 -V -T "ARTIST=%artist%" -T "TITLE=%title%" -T "ALBUM=%albumtitle%" -T "DATE=%year%" -T "TRACKNUMBER=%tracknr%" -T "GENRE=%genre%" -T "PERFORMER=%albuminterpret%" -T "COMPOSER=%composer%" %haslyrics%–tag-from-file=LYRICS="%lyricsfile%"%haslyrics% -T "ALBUMARTIST=%albumartist%" -T "DISCNUMBER=%cdnumber%" -T "TOTALDISCS=%totalcds%" -T "TOTALTRACKS=%numtracks%" -T "COMMENT=%comment%" %source% -o %dest%


TOC of the extracted CD

Track | Start | Length | Start sector | End sector
––––––––––––––––––––––––––––-
1 | 0:00.00 | 4:37.07 | 0 | 20781
2 | 4:37.07 | 2:58.12 | 20782 | 34143
3 | 7:35.19 | 2:54.45 | 34144 | 47238
4 | 10:29.64 | 2:42.71 | 47239 | 59459
5 | 13:12.60 | 5:11.02 | 59460 | 82786
6 | 18:23.62 | 3:40.20 | 82787 | 99306
7 | 22:04.07 | 3:32.47 | 99307 | 115253
8 | 25:36.54 | 4:30.57 | 115254 | 135560
9 | 30:07.36 | 3:46.61 | 135561 | 152571
10 | 33:54.22 | 3:30.50 | 152572 | 168371
11 | 37:24.72 | 3:28.28 | 168372 | 183999
12 | 40:53.25 | 5:06.18 | 184000 | 206967
13 | 45:59.43 | 3:37.69 | 206968 | 223311
14 | 49:37.37 | 3:40.64 | 223312 | 239875
15 | 53:18.26 | 3:39.36 | 239876 | 256336
16 | 56:57.62 | 2:36.14 | 256337 | 268050
17 | 59:34.01 | 4:08.37 | 268051 | 286687
18 | 63:42.38 | 3:32.17 | 286688 | 302604
19 | 67:14.55 | 3:23.03 | 302605 | 317832


Track 1

Filename W:\Andrew Lloyd Webber - Unmasked The Platinum Collection (2018)\CD2\01 - As If We Never Said Goodbye (From ''Sunset Boulevard'').wav

Pre-gap length 0:00:02.00

Peak level 94.2 %
Extraction speed 1.2 X
Track quality 100.0 %
Test CRC E017907C
Copy CRC E017907C
Accurately ripped (confidence 12) [9277D255] (AR v2)
Copy OK

Track 2

Filename W:\Andrew Lloyd Webber - Unmasked The Platinum Collection (2018)\CD2\02 - Theme And Variations 1-4 (From Paganini's Caprice in A Minor, No. 24) (Single Version).wav

Peak level 94.4 %
Extraction speed 1.2 X
Track quality 100.0 %
Test CRC 5C5601A9
Copy CRC 5C5601A9
Accurately ripped (confidence 12) [AEF1F4A7] (AR v2)
Copy OK

Track 3

Filename W:\Andrew Lloyd Webber - Unmasked The Platinum Collection (2018)\CD2\03 - Unexpected Song (From ''Song & Dance'').wav

Peak level 94.3 %
Extraction speed 1.1 X
Track quality 99.9 %
Test CRC 663586C3
Copy CRC 663586C3
Accurately ripped (confidence 12) [6C7C719A] (AR v2)
Copy OK

Track 4

Filename W:\Andrew Lloyd Webber - Unmasked The Platinum Collection (2018)\CD2\04 - You Must Love Me (From ''Evita'').wav

Peak level 90.5 %
Extraction speed 1.3 X
Track quality 100.0 %
Test CRC 97D11052
Copy CRC 97D11052
Accurately ripped (confidence 12) [010AC6A3] (AR v2)
Copy OK

Track 5

Filename W:\Andrew Lloyd Webber - Unmasked The Platinum Collection (2018)\CD2\05 - Everything's Alright (From ''Jesus Christ Superstar'').wav

Peak level 94.4 %
Extraction speed 1.2 X
Track quality 99.9 %
Test CRC 5CB10DAE
Copy CRC 5CB10DAE
Accurately ripped (confidence 12) [3F459D93] (AR v2)
Copy OK

Track 6

Filename W:\Andrew Lloyd Webber - Unmasked The Platinum Collection (2018)\CD2\06 - The Vaults Of Heaven (From ''Whistle Down The Wind'').wav

Peak level 94.4 %
Extraction speed 1.6 X
Track quality 100.0 %
Test CRC 64CEBB60
Copy CRC 64CEBB60
Accurately ripped (confidence 12) [25EA442E] (AR v2)
Copy OK

Track 7

Filename W:\Andrew Lloyd Webber - Unmasked The Platinum Collection (2018)\CD2\07 - Another Suitcase In Another Hall (From ''Evita'' Original Motion Picture Soundtrack).wav

Peak level 94.4 %
Extraction speed 1.7 X
Track quality 100.0 %
Test CRC 049A25AA
Copy CRC 049A25AA
Accurately ripped (confidence 12) [28D927D9] (AR v2)
Copy OK

Track 8

Filename W:\Andrew Lloyd Webber - Unmasked The Platinum Collection (2018)\CD2\08 - You're In The Band (From ''School Of Rock'').wav

Peak level 97.7 %
Extraction speed 1.8 X
Track quality 100.0 %
Test CRC F4BB8C92
Copy CRC F4BB8C92
Accurately ripped (confidence 12) [9209E9CD] (AR v2)
Copy OK

Track 9

Filename W:\Andrew Lloyd Webber - Unmasked The Platinum Collection (2018)\CD2\09 - It's Easy For You.wav

Peak level 94.3 %
Extraction speed 1.8 X
Track quality 100.0 %
Test CRC 4ADE1249
Copy CRC 4ADE1249
Accurately ripped (confidence 12) [5D2EE4F4] (AR v2)
Copy OK

Track 10

Filename W:\Andrew Lloyd Webber - Unmasked The Platinum Collection (2018)\CD2\10 - Cold (From ''Whistle Down The Wind'').wav

Peak level 97.7 %
Extraction speed 1.9 X
Track quality 100.0 %
Test CRC 26921F66
Copy CRC 26921F66
Accurately ripped (confidence 12) [ABF67915] (AR v2)
Copy OK

Track 11

Filename W:\Andrew Lloyd Webber - Unmasked The Platinum Collection (2018)\CD2\11 - Come Back With The Same Look In Your Eyes (From ''Tell Me On A Sunday'').wav

Peak level 94.4 %
Extraction speed 1.9 X
Track quality 100.0 %
Test CRC 8D68032E
Copy CRC 8D68032E
Accurately ripped (confidence 12) [C36B3761] (AR v2)
Copy OK

Track 12

Filename W:\Andrew Lloyd Webber - Unmasked The Platinum Collection (2018)\CD2\12 - I Am The Starlight (From ''Starlight Express'').wav

Peak level 94.4 %
Extraction speed 2.1 X
Track quality 100.0 %
Test CRC DF01D0C5
Copy CRC DF01D0C5
Accurately ripped (confidence 12) [96135E1F] (AR v2)
Copy OK

Track 13

Filename W:\Andrew Lloyd Webber - Unmasked The Platinum Collection (2018)\CD2\13 - Mr. Mistoffelees (From ''Cats'').wav

Peak level 94.4 %
Extraction speed 2.1 X
Track quality 100.0 %
Test CRC 565B7A22
Copy CRC 565B7A22
Accurately ripped (confidence 12) [74362907] (AR v2)
Copy OK

Track 14

Filename W:\Andrew Lloyd Webber - Unmasked The Platinum Collection (2018)\CD2\14 - Tell Me On A Sunday (From ''Tell Me On A Sunday'').wav

Peak level 94.4 %
Extraction speed 2.2 X
Track quality 100.0 %
Test CRC 128E4116
Copy CRC 128E4116
Accurately ripped (confidence 12) [1CFE59F8] (AR v2)
Copy OK

Track 15

Filename W:\Andrew Lloyd Webber - Unmasked The Platinum Collection (2018)\CD2\15 - Think Of Me (From ''The Phantom Of The Opera'' Motion Picture).wav

Peak level 94.3 %
Extraction speed 2.0 X
Track quality 99.9 %
Test CRC 464AE2BA
Copy CRC 464AE2BA
Accurately ripped (confidence 12) [120CF8DD] (AR v2)
Copy OK

Track 16

Filename W:\Andrew Lloyd Webber - Unmasked The Platinum Collection (2018)\CD2\16 - Rainbow High (From ''Evita'').wav

Peak level 94.4 %
Extraction speed 2.1 X
Track quality 100.0 %
Test CRC 91637EDF
Copy CRC 91637EDF
Accurately ripped (confidence 12) [E70FE0FC] (AR v2)
Copy OK

Track 17

Filename W:\Andrew Lloyd Webber - Unmasked The Platinum Collection (2018)\CD2\17 - All I Ask Of You (From ''The Phantom Of The Opera'').wav

Peak level 94.2 %
Extraction speed 2.4 X
Track quality 100.0 %
Test CRC 5D612EDB
Copy CRC 5D612EDB
Accurately ripped (confidence 12) [032AC1EA] (AR v2)
Copy OK

Track 18

Filename W:\Andrew Lloyd Webber - Unmasked The Platinum Collection (2018)\CD2\18 - Wishing You Were Somehow Here Again (From ''The Phantom Of The Opera'' - Live At The Royal Albert Hall).wav

Peak level 94.4 %
Extraction speed 2.4 X
Track quality 100.0 %
Test CRC 635DD6D7
Copy CRC 635DD6D7
Accurately ripped (confidence 12) [9FFB965C] (AR v2)
Copy OK

Track 19

Filename W:\Andrew Lloyd Webber - Unmasked The Platinum Collection (2018)\CD2\19 - Learn To Be Lonely (From ''The Phantom Of The Opera'' - Live At The Oscars).wav

Peak level 94.2 %
Extraction speed 2.0 X
Track quality 100.0 %
Test CRC F26EF356
Copy CRC F26EF356
Accurately ripped (confidence 12) [F89A0CBD] (AR v2)
Copy OK


All tracks accurately ripped

No errors occurred

End of status report

–– CUETools DB Plugin V2.1.6

[CTDB TOCID: wzhGGvsoI_E9U1L9U3PhlvQT4NQ-] found
Submit result: wzhGGvsoI_E9U1L9U3PhlvQT4NQ- has been confirmed
Track | CTDB Status
1 | (71/71) Accurately ripped
2 | (71/71) Accurately ripped
3 | (71/71) Accurately ripped
4 | (71/71) Accurately ripped
5 | (71/71) Accurately ripped
6 | (71/71) Accurately ripped
7 | (71/71) Accurately ripped
8 | (71/71) Accurately ripped
9 | (71/71) Accurately ripped
10 | (71/71) Accurately ripped
11 | (71/71) Accurately ripped
12 | (71/71) Accurately ripped
13 | (71/71) Accurately ripped
14 | (71/71) Accurately ripped
15 | (71/71) Accurately ripped
16 | (71/71) Accurately ripped
17 | (71/71) Accurately ripped
18 | (71/71) Accurately ripped
19 | (70/71) Accurately ripped


==== Log checksum 4F2829D4CB5A93E75A31D65DF79922ECAF8866D5B1E4579D99519F5C5877A9EF ====


Exact Audio Copy V1.6 from 23. October 2020

EAC extraction logfile from 24. August 2022, 23:15

Andrew Lloyd Webber / Unmasked: The Platinum Collection

Used drive : ASUS DRW-24D5MT Adapter: 1 ID: 0

Read mode : Secure
Utilize accurate stream : Yes
Defeat audio cache : Yes
Make use of C2 pointers : No

Read offset correction : 6
Overread into Lead-In and Lead-Out : No
Fill up missing offset samples with silence : Yes
Delete leading and trailing silent blocks : No
Null samples used in CRC calculations : Yes
Used interface : Native Win32 interface for Win NT & 2000
Gap handling : Appended to previous track

Used output format : User Defined Encoder
Selected bitrate : 1024 kBit/s
Quality : High
Add ID3 tag : No
Command line compressor : C:\Program Files (x86)\Exact Audio Copy\FLAC\FLAC.EXE
Additional command line options : -8 -V -T "ARTIST=%artist%" -T "TITLE=%title%" -T "ALBUM=%albumtitle%" -T "DATE=%year%" -T "TRACKNUMBER=%tracknr%" -T "GENRE=%genre%" -T "PERFORMER=%albuminterpret%" -T "COMPOSER=%composer%" %haslyrics%–tag-from-file=LYRICS="%lyricsfile%"%haslyrics% -T "ALBUMARTIST=%albumartist%" -T "DISCNUMBER=%cdnumber%" -T "TOTALDISCS=%totalcds%" -T "TOTALTRACKS=%numtracks%" -T "COMMENT=%comment%" %source% -o %dest%


TOC of the extracted CD

Track | Start | Length | Start sector | End sector
––––––––––––––––––––––––––––-
1 | 0:00.00 | 4:54.24 | 0 | 22073
2 | 4:54.24 | 4:50.11 | 22074 | 43834
3 | 9:44.35 | 4:19.32 | 43835 | 63291
4 | 14:03.67 | 6:23.56 | 63292 | 92072
5 | 20:27.48 | 6:09.33 | 92073 | 119780
6 | 26:37.06 | 4:53.70 | 119781 | 141825
7 | 31:31.01 | 4:50.00 | 141826 | 163575
8 | 36:21.01 | 3:57.01 | 163576 | 181351
9 | 40:18.02 | 6:12.68 | 181352 | 209319
10 | 46:30.70 | 2:54.55 | 209320 | 222424
11 | 49:25.50 | 2:26.35 | 222425 | 233409
12 | 51:52.10 | 4:26.22 | 233410 | 253381
13 | 56:18.32 | 4:16.59 | 253382 | 272640
14 | 60:35.16 | 3:02.12 | 272641 | 286302
15 | 63:37.28 | 3:32.04 | 286303 | 302206
16 | 67:09.32 | 4:30.34 | 302207 | 322490
17 | 71:39.66 | 2:57.62 | 322491 | 335827


Track 1

Filename W:\Andrew Lloyd Webber - Unmasked The Platinum Collection (2018)\CD4\01 - Phantom Phantasy.wav

Pre-gap length 0:00:02.00

Peak level 94.3 %
Extraction speed 1.2 X
Track quality 100.0 %
Test CRC 69191ED1
Copy CRC 69191ED1
Accurately ripped (confidence 12) [208E3D14] (AR v2)
Copy OK

Track 2

Filename W:\Andrew Lloyd Webber - Unmasked The Platinum Collection (2018)\CD4\02 - Masquerade.wav

Peak level 94.4 %
Extraction speed 1.2 X
Track quality 99.9 %
Test CRC BEB52F55
Copy CRC BEB52F55
Accurately ripped (confidence 12) [B4ECB096] (AR v2)
Copy OK

Track 3

Filename W:\Andrew Lloyd Webber - Unmasked The Platinum Collection (2018)\CD4\03 - `Til I Hear You Sing.wav

Peak level 94.3 %
Extraction speed 1.4 X
Track quality 100.0 %
Test CRC 0E045FB6
Copy CRC 0E045FB6
Accurately ripped (confidence 12) [CF5BC48D] (AR v2)
Copy OK

Track 4

Filename W:\Andrew Lloyd Webber - Unmasked The Platinum Collection (2018)\CD4\04 - Love Never Dies Orchestral Suite.wav

Peak level 94.3 %
Extraction speed 1.6 X
Track quality 100.0 %
Test CRC F5CCA8CB
Copy CRC F5CCA8CB
Accurately ripped (confidence 11) [57BCB3CD] (AR v2)
Copy OK

Track 5

Filename W:\Andrew Lloyd Webber - Unmasked The Platinum Collection (2018)\CD4\05 - Love Never Dies.wav

Peak level 94.2 %
Extraction speed 1.4 X
Track quality 99.9 %
Test CRC FD3BBD4A
Copy CRC FD3BBD4A
Accurately ripped (confidence 12) [63F9625B] (AR v2)
Copy OK

Track 6

Filename W:\Andrew Lloyd Webber - Unmasked The Platinum Collection (2018)\CD4\06 - The Beauty Underneath.wav

Peak level 94.4 %
Extraction speed 1.8 X
Track quality 100.0 %
Test CRC 7CB9E303
Copy CRC 7CB9E303
Accurately ripped (confidence 12) [262C23FB] (AR v2)
Copy OK

Track 7

Filename W:\Andrew Lloyd Webber - Unmasked The Platinum Collection (2018)\CD4\07 - Variations On Variations.wav

Peak level 77.6 %
Extraction speed 1.9 X
Track quality 100.0 %
Test CRC D2EF1A11
Copy CRC D2EF1A11
Accurately ripped (confidence 12) [E91BFD03] (AR v2)
Copy OK

Track 8

Filename W:\Andrew Lloyd Webber - Unmasked The Platinum Collection (2018)\CD4\08 - Overture.wav

Peak level 94.3 %
Extraction speed 1.7 X
Track quality 99.9 %
Test CRC 232835A3
Copy CRC 232835A3
Accurately ripped (confidence 12) [D5B3E14B] (AR v2)
Copy OK

Track 9

Filename W:\Andrew Lloyd Webber - Unmasked The Platinum Collection (2018)\CD4\09 - Overture And The Beautiful Game.wav

Peak level 94.4 %
Extraction speed 2.2 X
Track quality 100.0 %
Test CRC AFA8FF71
Copy CRC AFA8FF71
Accurately ripped (confidence 12) [43B38D5B] (AR v2)
Copy OK

Track 10

Filename W:\Andrew Lloyd Webber - Unmasked The Platinum Collection (2018)\CD4\10 - If This Is What We're Fighting For.wav

Peak level 94.4 %
Extraction speed 2.0 X
Track quality 100.0 %
Test CRC 5C7587CC
Copy CRC 5C7587CC
Accurately ripped (confidence 12) [6CE964ED] (AR v2)
Copy OK

Track 11

Filename W:\Andrew Lloyd Webber - Unmasked The Platinum Collection (2018)\CD4\11 - The Overture.wav

Peak level 94.4 %
Extraction speed 2.0 X
Track quality 100.0 %
Test CRC 370A6C95
Copy CRC 370A6C95
Accurately ripped (confidence 12) [E8EC6982] (AR v2)
Copy OK

Track 12

Filename W:\Andrew Lloyd Webber - Unmasked The Platinum Collection (2018)\CD4\12 - Jellicle Ball.wav

Peak level 94.4 %
Extraction speed 2.2 X
Track quality 100.0 %
Test CRC 133D4113
Copy CRC 133D4113
Accurately ripped (confidence 12) [21A84334] (AR v2)
Copy OK

Track 13

Filename W:\Andrew Lloyd Webber - Unmasked The Platinum Collection (2018)\CD4\13 - Sunset Suite.wav

Peak level 94.4 %
Extraction speed 2.3 X
Track quality 100.0 %
Test CRC 20EB8409
Copy CRC 20EB8409
Accurately ripped (confidence 12) [69340FDF] (AR v2)
Copy OK

Track 14

Filename W:\Andrew Lloyd Webber - Unmasked The Platinum Collection (2018)\CD4\14 - Sunset Boulevard.wav

Peak level 94.4 %
Extraction speed 2.3 X
Track quality 100.0 %
Test CRC 4DFF1A2F
Copy CRC 4DFF1A2F
Accurately ripped (confidence 12) [E31E70C9] (AR v2)
Copy OK

Track 15

Filename W:\Andrew Lloyd Webber - Unmasked The Platinum Collection (2018)\CD4\15 - Aspects Of Aspects.wav

Peak level 94.4 %
Extraction speed 2.4 X
Track quality 100.0 %
Test CRC 98D4E007
Copy CRC 98D4E007
Accurately ripped (confidence 12) [9E7C73D3] (AR v2)
Copy OK

Track 16

Filename W:\Andrew Lloyd Webber - Unmasked The Platinum Collection (2018)\CD4\16 - Seeing Is Believing.wav

Peak level 94.4 %
Extraction speed 2.5 X
Track quality 100.0 %
Test CRC 428C6222
Copy CRC 428C6222
Accurately ripped (confidence 12) [258FE2B3] (AR v2)
Copy OK

Track 17

Filename W:\Andrew Lloyd Webber - Unmasked The Platinum Collection (2018)\CD4\17 - Anything But Lonely.wav

Peak level 94.4 %
Extraction speed 2.4 X
Track quality 100.0 %
Test CRC F9299C2C
Copy CRC F9299C2C
Accurately ripped (confidence 12) [7C85D550] (AR v2)
Copy OK


All tracks accurately ripped

No errors occurred

End of status report

–– CUETools DB Plugin V2.1.6

[CTDB TOCID: k2tE0VH0NDsxaBUBH2ygtsURKxw-] found
Submit result: k2tE0VH0NDsxaBUBH2ygtsURKxw- has been confirmed
Track | CTDB Status
1 | (67/67) Accurately ripped
2 | (67/67) Accurately ripped
3 | (66/67) Accurately ripped
4 | (65/67) Accurately ripped
5 | (67/67) Accurately ripped
6 | (67/67) Accurately ripped
7 | (67/67) Accurately ripped
8 | (67/67) Accurately ripped
9 | (67/67) Accurately ripped
10 | (67/67) Accurately ripped
11 | (67/67) Accurately ripped
12 | (67/67) Accurately ripped
13 | (67/67) Accurately ripped
14 | (67/67) Accurately ripped
15 | (67/67) Accurately ripped
16 | (65/67) Accurately ripped
17 | (66/67) Accurately ripped


==== Log checksum C7F35B37848639731FAE0185E9F030500EC3305F1E106CDC4C1082F12B75937F ====