Subcategories

Andrew W.K. - I Get Wet (2001) [Re-Up]

Posted By: Designol
Andrew W.K. - I Get Wet (2001) [Re-Up]

Andrew W.K. - I Get Wet (2001)
XLD | FLAC | Image (Cue&Log) ~ 301 Mb | Mp3 (CBR320) ~ 96 Mb | Scans included
Hard Rock, Punk Rock, Heavy Metal | Label: Island | # 586 588-2 | Time: 00:35:36

Obliterating the concept of guilty musical pleasures, I Get Wet turns hair metal hedonism, punk energy, and pop melodies into an instant, insistent blast of fun with all the power of a beer commercial. From the opening anthem, "It's Time to Party," to the excellently named finale, "Don't Stop Living in the Red," the album is all climax – the blasting guitars, blaring keyboards, and Andrew W.K. himself are all turned up to 11 throughout. W.K. is a one-man manifesto, dedicated to spreading the way of the party with songs like "Party Hard" ("We do what we like and we like what we do!" could be "Dirty deeds done dirt cheap" several generations down the road), "Party Til You Puke," and "I Get Wet," and the fact that he looks like the stoner bully from high school only adds to his cred. Guessing whether or not Andrew W.K. is a big joke or not is almost beside the point; he comes on so strong that he either really means it, maaan, or he's got his tongue stuck firmly in his bloodied cheek. Either way, there's not much fence-sitting with his music – you'll think the big, dumb, cartoonish "Girls Own Love" and "Ready to Die" are the stupidest songs you've ever heard, or you'll love them because they're the stupidest songs you've ever heard. Even I Get Wet's sensitive "She Is Beautiful," which is about being too shy to talk to a pretty girl, is about as subtle as a high schooler's after-shave – and just as awkwardly charming. While the album has a certain sameness due to the frenetic beat that drives nearly every track, it's the perfect complement to W.K.'s party-centric vision. Refreshingly simple and cleverly stupid, I Get Wet is a great big bear hug of an album, and resistance to its hard-partying charms is futile.

Review by Heather Phares, Allmusic.com

It's simple enough once you accept it for what it is, which is as hard as the music is simple (and hard). It's a Ramones album for an era when "Blitzkrieg Bop" is on the Shea p.a. and professional wrestling is on drugs. It's a Gary Glitter/Kiss/Quiet Riot album with no lyrical lapses, tempo shifts, self-expression, or other concessions to human fallibility. The songs don't all sound the same because if they did the thing would be perfect. And it isn't. A-

Review by Robert Christgau

Andrew W.K. at Allmusic
Andrew W.K. Website
Andrew W.K. at Wiki

Tracklist:

01. It's Time To Party (01:30)
02. Party Hard (03:04)
03. Girls Own Love (03:13)
04. Ready To Die (02:54)
05. Take It Off (03:10)
06. I Love NYC (03:11)
07. She Is Beautiful (03:33)
08. Party Til You Puke (02:34)
09. Fun Night (03:23)
10. Got To Do It (03:55)
11. I Get Wet (03:23)
12. Don't Stop Living In The Red (01:40)


X Lossless Decoder version 20080926 (93.3)

XLD extraction logfile from 2008-10-11 17:15:39 +0400

Andrew W. K. / I Get Wet

Used drive : MATSHITA DVD-R UJ-875 (revision DB09)

Use cdparanoia mode : YES (CDParanoia III 10.2 engine)
Disable audio cache : OK for the drive with cache less than 2750KB
Make use of C2 pointers : NO
Read offset correction : 102
Max retry count : 3

TOC of the extracted CD
Track | Start | Length | Start sector | End sector
––––––––––––––––––––––––––––-
1 | 00:00:00 | 01:30:32 | 0 | 6781
2 | 01:30:32 | 03:04:68 | 6782 | 20649
3 | 04:35:25 | 03:13:37 | 20650 | 35161
4 | 07:48:62 | 02:54:73 | 35162 | 48284
5 | 10:43:60 | 03:10:32 | 48285 | 62566
6 | 13:54:17 | 03:11:15 | 62567 | 76906
7 | 17:05:32 | 03:33:63 | 76907 | 92944
8 | 20:39:20 | 02:34:30 | 92945 | 104524
9 | 23:13:50 | 03:23:00 | 104525 | 119749
10 | 26:36:50 | 03:55:00 | 119750 | 137374
11 | 30:31:50 | 03:23:32 | 137375 | 152631
12 | 33:55:07 | 01:40:53 | 152632 | 160184

List of alternate offset correction values
# | Absolute | Relative | Confidence
–––––––––––––––––––––
1 | 766 | 664 | 3

All Tracks
Filename : /Volumes/SEAGATE/Torrents/!Music/Andrew W.K. I get wet [flac]/Andrew W. K. I Get Wet.flac
CRC32 hash : CF2DB907
CRC32 hash (skip zero) : 68D556C4
Statistics
Read error : 0
Skipped (treated as error) : 0
Edge jitter error (maybe fixed) : 0
Atom jitter error (maybe fixed) : 0
Drift error (maybe fixed) : 0
Dropped bytes error (maybe fixed) : 0
Duplicated bytes error (maybe fixed) : 0
Inconsistency in error sectors : 0

Track 01
CRC32 hash : 439D68D9
CRC32 hash (skip zero) : C05D8A4B
AccurateRip signature : 8941611E
->Accurately ripped! (confidence 4)
Statistics
Read error : 0
Skipped (treated as error) : 0
Edge jitter error (maybe fixed) : 0
Atom jitter error (maybe fixed) : 0
Drift error (maybe fixed) : 0
Dropped bytes error (maybe fixed) : 0
Duplicated bytes error (maybe fixed) : 0
Inconsistency in error sectors : 0

Track 02
CRC32 hash : C78C2EF5
CRC32 hash (skip zero) : 9DCC5FCA
AccurateRip signature : 66CEE87B
->Accurately ripped! (confidence 3)
Statistics
Read error : 0
Skipped (treated as error) : 0
Edge jitter error (maybe fixed) : 0
Atom jitter error (maybe fixed) : 0
Drift error (maybe fixed) : 0
Dropped bytes error (maybe fixed) : 0
Duplicated bytes error (maybe fixed) : 0
Inconsistency in error sectors : 0

Track 03
CRC32 hash : 77E5FDF1
CRC32 hash (skip zero) : 0A19DB28
AccurateRip signature : 0475A242
->Accurately ripped! (confidence 4)
Statistics
Read error : 0
Skipped (treated as error) : 0
Edge jitter error (maybe fixed) : 0
Atom jitter error (maybe fixed) : 0
Drift error (maybe fixed) : 0
Dropped bytes error (maybe fixed) : 0
Duplicated bytes error (maybe fixed) : 0
Inconsistency in error sectors : 0

Track 04
CRC32 hash : 0F6A445C
CRC32 hash (skip zero) : 6ED5F221
AccurateRip signature : 372726F8
->Accurately ripped! (confidence 3)
Statistics
Read error : 0
Skipped (treated as error) : 0
Edge jitter error (maybe fixed) : 0
Atom jitter error (maybe fixed) : 0
Drift error (maybe fixed) : 0
Dropped bytes error (maybe fixed) : 0
Duplicated bytes error (maybe fixed) : 0
Inconsistency in error sectors : 0

Track 05
CRC32 hash : D6A7242A
CRC32 hash (skip zero) : 359C70C9
AccurateRip signature : 903B72AC
->Accurately ripped! (confidence 3)
Statistics
Read error : 0
Skipped (treated as error) : 0
Edge jitter error (maybe fixed) : 0
Atom jitter error (maybe fixed) : 0
Drift error (maybe fixed) : 0
Dropped bytes error (maybe fixed) : 0
Duplicated bytes error (maybe fixed) : 0
Inconsistency in error sectors : 0

Track 06
CRC32 hash : F5FA0544
CRC32 hash (skip zero) : D8D2325B
AccurateRip signature : 7DBCAB46
->Accurately ripped! (confidence 3)
Statistics
Read error : 0
Skipped (treated as error) : 0
Edge jitter error (maybe fixed) : 0
Atom jitter error (maybe fixed) : 0
Drift error (maybe fixed) : 0
Dropped bytes error (maybe fixed) : 0
Duplicated bytes error (maybe fixed) : 0
Inconsistency in error sectors : 0

Track 07
CRC32 hash : F145F939
CRC32 hash (skip zero) : 8B912E8E
AccurateRip signature : 3CD11713
->Accurately ripped! (confidence 3)
Statistics
Read error : 0
Skipped (treated as error) : 0
Edge jitter error (maybe fixed) : 0
Atom jitter error (maybe fixed) : 0
Drift error (maybe fixed) : 0
Dropped bytes error (maybe fixed) : 0
Duplicated bytes error (maybe fixed) : 0
Inconsistency in error sectors : 0

Track 08
CRC32 hash : 3CB1151E
CRC32 hash (skip zero) : D55FE778
AccurateRip signature : 2BA8536F
->Accurately ripped! (confidence 3)
Statistics
Read error : 0
Skipped (treated as error) : 0
Edge jitter error (maybe fixed) : 0
Atom jitter error (maybe fixed) : 0
Drift error (maybe fixed) : 0
Dropped bytes error (maybe fixed) : 0
Duplicated bytes error (maybe fixed) : 0
Inconsistency in error sectors : 0

Track 09
CRC32 hash : A730ACF5
CRC32 hash (skip zero) : EDC5824C
AccurateRip signature : 84C0675E
->Accurately ripped! (confidence 3)
Statistics
Read error : 0
Skipped (treated as error) : 0
Edge jitter error (maybe fixed) : 0
Atom jitter error (maybe fixed) : 0
Drift error (maybe fixed) : 0
Dropped bytes error (maybe fixed) : 0
Duplicated bytes error (maybe fixed) : 0
Inconsistency in error sectors : 0

Track 10
CRC32 hash : 56D9C819
CRC32 hash (skip zero) : F17C1FC0
AccurateRip signature : 1540EF0F
->Accurately ripped! (confidence 3)
Statistics
Read error : 0
Skipped (treated as error) : 0
Edge jitter error (maybe fixed) : 0
Atom jitter error (maybe fixed) : 0
Drift error (maybe fixed) : 0
Dropped bytes error (maybe fixed) : 0
Duplicated bytes error (maybe fixed) : 0
Inconsistency in error sectors : 0

Track 11
CRC32 hash : E0D1FBC3
CRC32 hash (skip zero) : 5569F70C
AccurateRip signature : A6EDC539
->Accurately ripped! (confidence 3)
Statistics
Read error : 0
Skipped (treated as error) : 0
Edge jitter error (maybe fixed) : 0
Atom jitter error (maybe fixed) : 0
Drift error (maybe fixed) : 0
Dropped bytes error (maybe fixed) : 0
Duplicated bytes error (maybe fixed) : 0
Inconsistency in error sectors : 0

Track 12
CRC32 hash : CB876D6B
CRC32 hash (skip zero) : 8DE3BF79
AccurateRip signature : CCDC334F
->Accurately ripped! (confidence 3)
Statistics
Read error : 0
Skipped (treated as error) : 0
Edge jitter error (maybe fixed) : 0
Atom jitter error (maybe fixed) : 0
Drift error (maybe fixed) : 0
Dropped bytes error (maybe fixed) : 0
Duplicated bytes error (maybe fixed) : 0
Inconsistency in error sectors : 0

No errors occurred

End of status report

[CUETools log; Date: 17.08.2017 4:10:01; Version: 2.1.4]
[CTDB TOCID: TvCSeOs67RZyjBphnMpTKSxPk2A-] found.
Track | CTDB Status
1 | ( 57/117) Accurately ripped
2 | ( 57/117) Accurately ripped
3 | ( 57/117) Accurately ripped
4 | ( 57/117) Accurately ripped
5 | ( 56/117) Accurately ripped
6 | ( 57/117) Accurately ripped
7 | ( 57/117) Accurately ripped
8 | ( 57/117) Accurately ripped
9 | ( 57/117) Accurately ripped
10 | ( 57/117) Accurately ripped
11 | ( 57/117) Accurately ripped
12 | ( 57/117) Accurately ripped
[AccurateRip ID: 000f87a5-0093ad9e-9e08570c] found.
Track [ CRC | V2 ] Status
01 [8941611e|e168c8be] (07+05/97) Accurately ripped
02 [66cee87b|75ab5fee] (07+05/99) Accurately ripped
03 [0475a242|1aad6165] (07+05/98) Accurately ripped
04 [372726f8|5d284222] (07+05/98) Accurately ripped
05 [903b72ac|186c5d0c] (07+05/97) Accurately ripped
06 [7dbcab46|606689b1] (07+05/96) Accurately ripped
07 [3cd11713|189c0eed] (07+05/96) Accurately ripped
08 [2ba8536f|de0efc40] (07+05/97) Accurately ripped
09 [84c0675e|7d1d9b3b] (07+05/95) Accurately ripped
10 [1540ef0f|22b356b6] (07+05/98) Accurately ripped
11 [a6edc539|bd0dae56] (07+05/97) Accurately ripped
12 [ccdc334f|63712b91] (07+05/96) Accurately ripped
Offsetted by 664:
01 [9b6c72a0] (19/97) Accurately ripped
02 [ad808165] (19/99) Accurately ripped
03 [871e08ef] (19/98) Accurately ripped
04 [0d038593] (19/98) Accurately ripped
05 [0462e730] (19/97) Accurately ripped
06 [5a3b853e] (19/96) Accurately ripped
07 [53820c8c] (19/96) Accurately ripped
08 [d8f92180] (19/97) Accurately ripped
09 [94ac9695] (19/95) Accurately ripped
10 [9d8d1fb5] (19/98) Accurately ripped
11 [72e61282] (19/97) Accurately ripped
12 [59a5fd37] (19/96) Accurately ripped
Offsetted by 50:
01 [8d15dbea] (00/97) No match (V2 was not tested)
02 [c94530c4] (00/99) No match (V2 was not tested)
03 [466c8eac] (00/98) No match (V2 was not tested)
04 [d79b7f6e] (00/98) No match (V2 was not tested)
05 [ae7c7de3] (00/97) No match (V2 was not tested)
06 [0372c3cc] (00/96) No match (V2 was not tested)
07 [f42cbc72] (00/96) No match (V2 was not tested)
08 [e8961144] (00/97) No match (V2 was not tested)
09 [581d5c8d] (00/95) No match (V2 was not tested)
10 [2fc5cac0] (00/98) No match (V2 was not tested)
11 [9a190d47] (00/97) No match (V2 was not tested)
12 [6dd2b87d] (00/96) No match (V2 was not tested)
Offsetted by 610:
01 [09e1554e] (02/97) Accurately ripped
02 [4d7075f4] (02/99) Accurately ripped
03 [b812c669] (02/98) Accurately ripped
04 [cb82e6da] (02/98) Accurately ripped
05 [7bbf391c] (02/97) Accurately ripped
06 [92c591d4] (02/96) Accurately ripped
07 [48cac1b7] (02/96) Accurately ripped
08 [130e425b] (02/97) Accurately ripped
09 [398e2ccd] (00/95) No match (V2 was not tested)
10 [262469fc] (02/98) Accurately ripped
11 [9eeb2e51] (02/97) Accurately ripped
12 [789bbf4d] (02/96) Accurately ripped
Offsetted by 674:
01 [d88e395a] (00/97) No match (V2 was not tested)
02 [0103a91e] (00/99) No match (V2 was not tested)
03 [0acc4409] (00/98) No match (V2 was not tested)
04 [8f406ed0] (00/98) No match (V2 was not tested)
05 [aa60375b] (00/97) No match (V2 was not tested)
06 [f716a80b] (00/96) No match (V2 was not tested)
07 [b2f65027] (00/96) No match (V2 was not tested)
08 [5963ff36] (00/97) No match (V2 was not tested)
09 [427e94c7] (00/95) No match (V2 was not tested)
10 [4600854d] (00/98) No match (V2 was not tested)
11 [319215e9] (00/97) No match (V2 was not tested)
12 [79d74b0d] (00/96) No match (V2 was not tested)

Track Peak [ CRC32 ] [W/O NULL]
– 100,0 [CF2DB907] [68D556C4]
01 99,9 [439D68D9] [C05D8A4B]
02 100,0 [C78C2EF5] [9DCC5FCA]
03 100,0 [77E5FDF1] [0A19DB28]
04 100,0 [0F6A445C] [6ED5F221]
05 99,9 [D6A7242A] [359C70C9]
06 100,0 [F5FA0544] [D8D2325B]
07 100,0 [F145F939] [8B912E8E]
08 100,0 [3CB1151E] [D55FE778]
09 100,0 [A730ACF5] [EDC5824C]
10 100,0 [56D9C819] [F17C1FC0]
11 100,0 [E0D1FBC3] [5569F70C]
12 100,0 [CB876D6B] [8DE3BF79]

foobar2000 1.2 / Dynamic Range Meter 1.1.1
log date: 2013-08-01 16:53:47

––––––––––––––––––––––––––––––––––––––––
Analyzed: Andrew W. K. / I Get Wet
––––––––––––––––––––––––––––––––––––––––

DR Peak RMS Duration Track
––––––––––––––––––––––––––––––––––––––––
DR6 -0.01 dB -6.75 dB 1:30 01-It's Time To Party
DR6 0.00 dB -6.71 dB 3:05 02-Party Hard
DR6 0.00 dB -6.71 dB 3:13 03-Girls Own Love
DR6 0.00 dB -6.40 dB 2:55 04-Ready To Die
DR6 -0.01 dB -6.74 dB 3:10 05-Take It Off
DR6 0.00 dB -7.28 dB 3:11 06-I Love NYC
DR6 0.00 dB -7.02 dB 3:34 07-She Is Beautiful
DR5 0.00 dB -5.68 dB 2:34 08-Party Til You Puke
DR6 0.00 dB -6.81 dB 3:23 09-Fun Night
DR5 0.00 dB -6.53 dB 3:55 10-Got To Do It
DR5 0.00 dB -6.10 dB 3:23 11-I Get Wet
DR5 0.00 dB -6.04 dB 1:41 12-Don't Stop Living In The Red
––––––––––––––––––––––––––––––––––––––––

Number of tracks: 12
Official DR value: DR6

Samplerate: 44100 Hz
Channels: 2
Bits per sample: 16
Bitrate: 1125 kbps
Codec: FLAC
================================================================================

Andrew W.K. - I Get Wet (2001) [Re-Up]

Andrew W.K. - I Get Wet (2001) [Re-Up]

All thanks to original releaser - pavligd

More interesting music in My Blog