Subcategories

Andrew Zolinsky - David Lang: This Was Written by Hand (2011) [Re-Up]

Posted By: Designol
Andrew Zolinsky - David Lang: This Was Written by Hand (2011) [Re-Up]

Andrew Zolinsky - David Lang: This Was Written by Hand (2011)
EAC | FLAC | Image (Cue&Log) ~ 221 Mb | Mp3 (CBR320) ~ 138 Mb | Scans included
Classical, Minimalism | Label: Cantaloupe Music | # CA21073 | Time: 00:45:17

As one-third of the composer-collective Bang on a Can, David Lang is something of a genial father figure of the indie-classical scene. Talk to any of the world's main players and you're likely to hear them tell you about their life-changing stint in Bang on a Can's summer festival, which has acted as a sort of feeder school and incubator for the group's try-anything mentality. Lang's music has undergone many stylistic shifts over the years: In the 80s, he wrote bristlier stuff, but in the last decade or so, he's shifted quietly into a more pensive register. The Little Match Girl Passion, his 2008 work that won him a Pulitzer, was written for only four voices and some hand bells. This Was Written By Hand, his most recent recording, is a collection of short solo piano works played by the British pianist Andrew Zolinsky.

The album holds the same, sustained melancholy mood: thoughtful, searching, elegiac, minimalist. Lang's way with repetitive phrasing doesn't feel like that of minimalists like Glass or Reich's, though. When his works linger over and repeat a figure, as on the title track, it feels uncannily like a puzzling notion being considered by an inquisitive, slightly neurotic mind. In that respect, Lang's music mimics the intellectual sensation of thinking and writing about music as much as it does the act of listening to music itself. To immerse yourself in this music is to hear a mind's churn. It can be perversely soothing.

Review by Jayson Greene, Pitchfork

Composer David Lang returns with a new recording of two separate works for solo piano: the title piece and a cycle of memorial works written for his friends titled memory pieces, both performed by Andrew Zolinsky.

this was written by hand was a piece Lang had written after realizing he had not physically hand-written a piece since purchasing a home computer in 1993. Lang had said in his liner notes that he wondered if “the means of writing had any effect on the writing itself”, and to these ears, it did indeed. The piece’s stark but colorful passages sound as if they are created with a more ragged, handwritten craftsmanship than a piece that one would expect to be put through any level of a new technology. Very high-ended, mostly childlike phrases are continued until the 7-minute mark when they are intervened by low-end chords that bring the piece to a much darker place and leave it there.

The sequencing and contrasts of the movements of memory pieces invoke those of Carnival of the Animals (Very slow, followed by fast, followed by thudding, etc.), but in the presentation of something far more dramatic than that work, starting with “Cage” (written for John Cage).

The concept of the cycle, which was suggested by one of its dedicatees, pianist Yvar Mikhashoff, is a series of snapshots of each friend embodied in musical thoughts. The movements convey very brilliantly an aspect of each person’s character through Lang’s eyes.

From “Spartan Arcs” (Mikhashoff’s tribute that invokes Philip Glass) to “Grind” (Jacob Druckman’s tribute) to “Wed”, written for installation artist Kate Ericson, the pieces are all a segment of these people that Lang has always had with him and has now forever made them public with this cycle of works.

The combination of the stark but sonorous recording and Zolinsky’s brilliant technique and familiar identity with the pieces provides a very humble and beautiful set of music. Without compromising his contemporary style, Lang has definitely made a great gesture towards rekindling a classical sensibility with this recording, and has simultaneously made a fitting set of memorials for fellow artists that left some wonderful impressions on him.

Review by Chris McGovern, The Glass Blog

Andrew Zolinsky - David Lang: This Was Written by Hand (2011) [Re-Up]



Andrew Zolinsky - David Lang: This Was Written by Hand (2011) [Re-Up]



Tracklist:

01. This was written by hand (10:13)

Memory pieces:

02. Cage (In Memory of John Cage) (05:53)
03. Spartan (In Memory of Yvar Mikhashoff) (03:10)
04. Wed (In Memory of Kate Ericson) (04:46)
05. Grind (In Memory of Jacob Druckman) (01:50)
06. Diet Coke (In Memory of Bette Snapp) (01:41)
07. Cello (In Memory of Anna Cholakian) (04:53)
08. Wiggle (In Memory of Frank Wigglesworth) (04:01)
09. Beach (In Memory of David Huntley) (08:46)


Exact Audio Copy V1.0 beta 1 from 15. November 2010

EAC extraction logfile from 13. December 2011, 22:45

David Lang / This was written by hand

Used drive : Optiarc DVD RW AD-7203A Adapter: 4 ID: 1

Read mode : Secure
Utilize accurate stream : Yes
Defeat audio cache : Yes
Make use of C2 pointers : No

Read offset correction : 48
Overread into Lead-In and Lead-Out : No
Fill up missing offset samples with silence : Yes
Delete leading and trailing silent blocks : No
Null samples used in CRC calculations : Yes
Used interface : Native Win32 interface for Win NT & 2000

Used output format : User Defined Encoder
Selected bitrate : 128 kBit/s
Quality : High
Add ID3 tag : No
Command line compressor : C:\Program Files\FLAC\flac.exe
Additional command line options : -T "COMMENT=Ripped by GFox" -8 -V %s


TOC of the extracted CD

Track | Start | Length | Start sector | End sector
––––––––––––––––––––––––––––-
1 | 0:00.00 | 10:13.51 | 0 | 46025
2 | 10:13.51 | 5:53.09 | 46026 | 72509
3 | 16:06.60 | 3:10.00 | 72510 | 86759
4 | 19:16.60 | 4:46.22 | 86760 | 108231
5 | 24:03.07 | 1:50.70 | 108232 | 116551
6 | 25:54.02 | 1:41.65 | 116552 | 124191
7 | 27:35.67 | 4:53.30 | 124192 | 146196
8 | 32:29.22 | 4:01.43 | 146197 | 164314
9 | 36:30.65 | 8:46.60 | 164315 | 203824


Range status and errors

Selected range

Filename D:\EAC\David Lang - This was written by hand.wav

Peak level 96.6 %
Extraction speed 0.7 X
Range quality 100.0 %
Test CRC BF5151C1
Copy CRC BF5151C1
Copy OK

No errors occurred


AccurateRip summary

Track 1 not present in database
Track 2 not present in database
Track 3 not present in database
Track 4 not present in database
Track 5 not present in database
Track 6 not present in database
Track 7 not present in database
Track 8 not present in database
Track 9 not present in database

None of the tracks are present in the AccurateRip database

End of status report

==== Log checksum 6E3CC205FEC54187C71A2E3E67FEDC9FAEFD80EC3ACABA9E3C61AE88764BF782 ====

foobar2000 1.3.8 / Dynamic Range Meter 1.1.1
log date: 2015-11-26 15:15:17

––––––––––––––––––––––––––––––––––––––––
Analyzed: David Lang / This was written by hand
––––––––––––––––––––––––––––––––––––––––

DR Peak RMS Duration Track
––––––––––––––––––––––––––––––––––––––––
DR16 -0.30 dB -20.34 dB 10:14 01-This was written by hand
DR12 -0.89 dB -17.50 dB 5:53 02-Cage (In Memory of John Cage)
DR13 -0.30 dB -15.25 dB 3:10 03-Spartan (In Memory of Yvar Mikhashoff)
DR16 -0.30 dB -21.29 dB 4:46 04-Wed (In Memory of Kate Ericson)
DR11 -0.39 dB -13.20 dB 1:51 05-Grind (In Memory of Jacob Druckman)
DR12 -0.30 dB -14.14 dB 1:42 06-Diet Coke (In Memory of Bette Snapp)
DR15 -4.48 dB -24.33 dB 4:53 07-Cello (In Memory of Anna Cholakian)
DR11 -1.09 dB -14.08 dB 4:02 08-Wiggle (In Memory of Frank Wigglesworth)
DR12 -4.82 dB -20.20 dB 8:47 09-Beach (In Memory of David Huntley)
––––––––––––––––––––––––––––––––––––––––

Number of tracks: 9
Official DR value: DR13

Samplerate: 44100 Hz
Channels: 2
Bits per sample: 16
Bitrate: 576 kbps
Codec: FLAC
================================================================================

Andrew Zolinsky - David Lang: This Was Written by Hand (2011) [Re-Up]

All thanks to original releaser - GFox

More interesting music in My Blog