Tags
Language
Tags
April 2024
Su Mo Tu We Th Fr Sa
31 1 2 3 4 5 6
7 8 9 10 11 12 13
14 15 16 17 18 19 20
21 22 23 24 25 26 27
28 29 30 1 2 3 4

Anna Prohaska, Robin Peter Müller, La Folia Barockorchester - Celebration of Life in Death (2021)

Posted By: ArlegZ
Anna Prohaska, Robin Peter Müller, La Folia Barockorchester -  Celebration of Life in Death (2021)

Anna Prohaska, Robin Peter Müller, La Folia Barockorchester - Celebration of Life in Death (2021)
EAC | FLAC | Image (Cue & Log) ~ 324 Mb | Total time: 71:29 | Scans included
Classical | Label: Alpha Classics | # ALPHA 745 | Recorded: 2020

Constantly in search of eclectic and meaningful programmes, the soprano Anna Prohaska here celebrates ‘life in death’. An ambitious programme, conceived with Robin Peter Müller and his ensemble La Folia, which takes us on a journey across the centuries and through many different countries, with French chansons of the Middle Ages (including one by Guillaume de Machaut), seventeenth-century Italian pieces by Luigi Rossi, Francesco Cavalli and Barbara Strozzi, German composers of the seventeenth and eighteenth centuries (Dietrich Buxtehude, Christoph Graupner, Franz Tunder) and the English luminaries Henry Purcell… plus John Lennon and Paul McCartney. A musical and spiritual quest that even takes in a detour to North America with a universally known song by Leonard Cohen.

Performer:
Anna Prohaska, soprano
La Folia Barockorchester
Robin Peter Müller, violin & direction

Tracklist:
01. Dies irae
Traditional
02. J'ai vu le loup
03. Es ist ein Schnitter, heißt der Tod
04. Morena, me Ilaman
Lorenzo da Firenze (fl.1350-1370)
05. Non so qual i' mi voglia
Salomone Rossi (c.1570-c.1630)
06. Sonata in dialogo
Francesco Cavalli (1602-1676)
Eliogabalo
07. Recitativo: Vanne ò scoglio animato
08. Aria: Servi e soffri
Nicolaus Bruhns (1655-1697)
09. Hemmt eure Tränenflut
Christoph Graupner (1683-1760)
Die Krankheit so mich drückt, GWV 1155/09b
10. I. Sonata
11. II. Recitative (Die Krankheit so mic Drükt)
12. III. Choral (Erbarm’ dich mein’, o Herre Gott)
13. IV. Accompagnato-recitative (Vor Schmerz kann meine Brust)
14. V. Aria (Brich, du stumme Tränensee)
15. VI. Recitative (Doch Jesus nimmt sich meiner an)
16. VII. Aria (Brich, du frohe Tränensee)
17. VIII. Recitative (Nun bin ich wieder rein)
18. IX. Aria (Entzückter Geist, du siehst den Himmel offen)
Franz Tunder (1614-1667)
Ach Herr, laß Deine lieben Engelein
19. I. Sinfonia
20. II. Aria .Ach Herr, laß Deine lieben Engelein
21. III. Sinfonia
22. IV. Aria. Alsdann vom Tod erwecke mich
Oswald von Wolkenstein (1376-1445)
23. Wer ist, die da durchleuchtet?
Guillaume de Machaut (c.1300-1377)
24. Douce dame jolie
Henry Purcell (1659-1695)
25. Since the Pox or the Plague, Z741
Traditional
26. Oh du lieber Augustin
Franz Tunder
27. Wend ab deinen Zorn, lieber Herr, mit Gnaden
John Lennon (1940-1980) / Paul McCartney (*1942)
28. Eleanor Rigby
Dietrich Buxtehude (1637-1707)
29. Klaglied
30. Herr, wenn ich nur Dich hab
Leonard Cohen (1934-2016)
31. Hallelujah


Exact Audio Copy V1.6 from 23. October 2020

EAC extraction logfile from 1. October 2023, 22:06

Anna Prohaska, La Folia Barockorchester, Robin Peter Müller / Celebration of Life in Death

Used drive : ASUS SDRW-08U7M-U Adapter: 1 ID: 0

Read mode : Secure
Utilize accurate stream : Yes
Defeat audio cache : Yes
Make use of C2 pointers : No

Read offset correction : 6
Overread into Lead-In and Lead-Out : No
Fill up missing offset samples with silence : Yes
Delete leading and trailing silent blocks : No
Null samples used in CRC calculations : Yes
Used interface : Native Win32 interface for Win NT & 2000

Used output format : User Defined Encoder
Selected bitrate : 1024 kBit/s
Quality : High
Add ID3 tag : No
Command line compressor : C:\Program Files (x86)\Exact Audio Copy\Flac\flac.exe
Additional command line options : -V -8 -T "Date=%year%" -T "Genre=%genre%" %source%


TOC of the extracted CD

Track | Start | Length | Start sector | End sector
––––––––––––––––––––––––––––-
1 | 0:00.00 | 1:11.68 | 0 | 5392
2 | 1:11.68 | 1:32.22 | 5393 | 12314
3 | 2:44.15 | 3:28.65 | 12315 | 27979
4 | 6:13.05 | 2:56.69 | 27980 | 41248
5 | 9:09.74 | 1:21.33 | 41249 | 47356
6 | 10:31.32 | 3:20.06 | 47357 | 62362
7 | 13:51.38 | 0:53.49 | 62363 | 66386
8 | 14:45.12 | 3:07.56 | 66387 | 80467
9 | 17:52.68 | 2:12.00 | 80468 | 90367
10 | 20:04.68 | 2:40.72 | 90368 | 102439
11 | 22:45.65 | 0:38.55 | 102440 | 105344
12 | 23:24.45 | 1:21.11 | 105345 | 111430
13 | 24:45.56 | 1:09.39 | 111431 | 116644
14 | 25:55.20 | 3:23.73 | 116645 | 131942
15 | 29:19.18 | 0:40.47 | 131943 | 134989
16 | 29:59.65 | 2:06.15 | 134990 | 144454
17 | 32:06.05 | 1:21.09 | 144455 | 150538
18 | 33:27.14 | 3:31.69 | 150539 | 166432
19 | 36:59.08 | 1:41.33 | 166433 | 174040
20 | 38:40.41 | 1:58.45 | 174041 | 182935
21 | 40:39.11 | 1:15.61 | 182936 | 188621
22 | 41:54.72 | 1:57.37 | 188622 | 197433
23 | 43:52.34 | 4:24.69 | 197434 | 217302
24 | 48:17.28 | 2:33.39 | 217303 | 228816
25 | 50:50.67 | 1:16.28 | 228817 | 234544
26 | 52:07.20 | 1:42.69 | 234545 | 242263
27 | 53:50.14 | 2:09.21 | 242264 | 251959
28 | 55:59.35 | 3:13.51 | 251960 | 266485
29 | 59:13.11 | 3:52.33 | 266486 | 283918
30 | 63:05.44 | 4:32.01 | 283919 | 304319
31 | 67:37.45 | 3:50.18 | 304320 | 321587


Range status and errors

Selected range

Filename C:\temp\Alpha 745 - Celebration of Life in Death - 2021\Celebration of Life in Death.wav

Peak level 98.3 %
Extraction speed 4.8 X
Range quality 100.0 %
Test CRC 5CD2C949
Copy CRC 5CD2C949
Copy OK

No errors occurred


AccurateRip summary

Track 1 accurately ripped (confidence 3) [BDB25EF6] (AR v2)
Track 2 accurately ripped (confidence 3) [D049BF1F] (AR v2)
Track 3 accurately ripped (confidence 3) [936A3138] (AR v2)
Track 4 accurately ripped (confidence 3) [8E5D8BF7] (AR v2)
Track 5 accurately ripped (confidence 3) [BC5A178E] (AR v2)
Track 6 accurately ripped (confidence 3) [AF8B8D80] (AR v2)
Track 7 accurately ripped (confidence 3) [2D945B6C] (AR v2)
Track 8 accurately ripped (confidence 3) [A4A6D946] (AR v2)
Track 9 accurately ripped (confidence 3) [CA01CEE4] (AR v2)
Track 10 accurately ripped (confidence 3) [1E68DFC5] (AR v2)
Track 11 accurately ripped (confidence 3) [8D6E36BE] (AR v2)
Track 12 accurately ripped (confidence 3) [EDC2F7B4] (AR v2)
Track 13 accurately ripped (confidence 3) [C087E353] (AR v2)
Track 14 accurately ripped (confidence 3) [8C21B95F] (AR v2)
Track 15 accurately ripped (confidence 3) [3F0DCFFE] (AR v2)
Track 16 accurately ripped (confidence 3) [0D3287B3] (AR v2)
Track 17 accurately ripped (confidence 3) [82644504] (AR v2)
Track 18 accurately ripped (confidence 3) [81295CEA] (AR v2)
Track 19 accurately ripped (confidence 3) [AFA5A048] (AR v2)
Track 20 accurately ripped (confidence 3) [BEAEC054] (AR v2)
Track 21 accurately ripped (confidence 3) [9B6571E9] (AR v2)
Track 22 accurately ripped (confidence 3) [2433F6B4] (AR v2)
Track 23 accurately ripped (confidence 3) [C638C82C] (AR v2)
Track 24 accurately ripped (confidence 3) [229152FA] (AR v2)
Track 25 accurately ripped (confidence 3) [DB7B52B3] (AR v2)
Track 26 accurately ripped (confidence 3) [E4B33E18] (AR v2)
Track 27 accurately ripped (confidence 3) [914A8642] (AR v2)
Track 28 accurately ripped (confidence 3) [9DA26032] (AR v2)
Track 29 accurately ripped (confidence 3) [9DFB30EC] (AR v2)
Track 30 accurately ripped (confidence 3) [9AC99C98] (AR v2)
Track 31 accurately ripped (confidence 3) [A163479F] (AR v2)

All tracks accurately ripped

End of status report

==== Log checksum 598AAAC6F61CC3ABDC6A5FDDE35BB5BB663FDE886A2D312C7F70842E5E2006F8 ====

Anna Prohaska, Robin Peter Müller, La Folia Barockorchester -  Celebration of Life in Death (2021)

Thanks to the original releaser