Subcategories
Tags
Language
Tags

Asleep At The Wheel - Asleep At The Wheel (1974)

Posted By: v3122
Asleep At The Wheel - Asleep At The Wheel (1974)

Asleep At The Wheel - Asleep At The Wheel (1974)
EAC | Flac(Image) + Cue + Log & MP3 CBR 320Kbps
1990 | Epic, EK 33097 | ~ 230 or 90 Mb | Artwork(jpg) -> 1.93 Mb
Jazz, Folk, World, Country, Swing

Forming in 1969, Asleep at the Wheel was one of the first bands (along with Commander Cody & His Lost Planet Airmen) of the long-haired hippie generation to look back to American roots music traditions like Western swing and boogie-woogie, but the world wasn't quite ready when they released their 1973 debut on United Artists. The following year, they switched over to Epic for their self-titled sophomore release, and began to really make a name for themselves. Their twanged-up version of the old Louis Jordan R&B tune "Choo Choo Ch'Boogie" became a minor country hit, giving the Wheel their first-ever chart placement, and making country fans start to stand up and take notice of these scruffy but sincere traditionalists. Over the years, the band has become best known for its Western swing revivalism, and that time-honored blend of country and jazz is undoubtedly prominent here, from a Nashville-ized take on Count Basie's "Jumpin' at the Woodside" to Cindy Walker's "Miss Molly" and Hank Penny's "Blood-Shot Eyes," but that's not the end of the story. The multitude of styles on the Wheel's second album is indicative of the path they would follow throughout their long career; besides Western swing there are straight-up ballads in the classic country style like "Our Names Aren't Even Mentioned (Together Anymore)" and "Last Letter," as well as honky tonk tunes like "Dead Man" and a countrified version of Fats Domino's "I'm Gonna Be a Wheel Someday." After this album, Epic wound up dropping the band, doubting their commercial potential, but time has obviously shown how far off the mark the label was in that assessment.

by James Allen, allmusic
Asleep At The Wheel - Asleep At The Wheel (1974):

Asleep At The Wheel - Asleep At The Wheel (1974)

Tracklist:

01. Chooo Choo Ch'Boogie (03:17)
02. You And Me Instead (03:24)
03. Jumpin' At The Woodside (03:51)
04. Last Letter (05:30)
05. Don't Ask Me Why (I'm Going To Texas) (02:52)
06. The Kind Of Love I Can't Forget (03:14)
07. I'm Gonna Be A Wheel Someday (02:00)
08. Our Names Aren't Mentioned (Together Anymore) (03:58)
09. Miss Molly (02:47)
10. Blood-Shot Eyes (03:49)
11. Dead Man (03:24)

EAC extraction logfile from 4. November 2008, 6:41 for CD
Asleep At The Wheel / Asleep At The Wheel

Used drive : ATAPI DVD A DH20A4P Adapter: 4 ID: 0
Read mode : Secure with NO C2, accurate stream, disable cache
Read offset correction : 6
Overread into Lead-In and Lead-Out : No

Used output format : C:\EAC\Flac\flac.exe (User Defined Encoder)
32 kBit/s
Additional command line options : -8 -V -T "ARTIST=%a" -T "TITLE=%t" -T "ALBUM=%g" -T "DATE=%y" -T "TRACKNUMBER=%n" -T "GENRE=%m" -T "COMMENT=EAC FLAC -8" %s

Other options :
Fill up missing offset samples with silence : Yes
Delete leading and trailing silent blocks : No
Installed external ASPI interface


Track 1
Filename O:\003\Asleep At The Wheel - Asleep At The Wheel (1974) [FLAC]\01 - Chooo Choo Ch'Boogie.wav

Pre-gap length 0:00:02.00

Peak level 100.0 %
Track quality 99.9 %
Test CRC AAFEE29A
Copy CRC AAFEE29A
Copy OK

Track 2
Filename O:\003\Asleep At The Wheel - Asleep At The Wheel (1974) [FLAC]\02 - You And Me Instead.wav

Pre-gap length 0:00:02.44

Peak level 85.3 %
Track quality 100.0 %
Test CRC 8D4EAC53
Copy CRC 8D4EAC53
Copy OK

Track 3
Filename O:\003\Asleep At The Wheel - Asleep At The Wheel (1974) [FLAC]\03 - Jumpin' At The Woodside.wav

Pre-gap length 0:00:02.53

Peak level 86.4 %
Track quality 99.9 %
Test CRC 8FC69F44
Copy CRC 8FC69F44
Copy OK

Track 4
Filename O:\003\Asleep At The Wheel - Asleep At The Wheel (1974) [FLAC]\04 - Last Letter.wav

Pre-gap length 0:00:02.60

Peak level 87.0 %
Track quality 100.0 %
Test CRC 7DD62E3D
Copy CRC 7DD62E3D
Copy OK

Track 5
Filename O:\003\Asleep At The Wheel - Asleep At The Wheel (1974) [FLAC]\05 - Don't Ask Me Why (I'm Going To Texas).wav

Pre-gap length 0:00:02.42

Peak level 83.1 %
Track quality 100.0 %
Test CRC 1F1821CF
Copy CRC 1F1821CF
Copy OK

Track 6
Filename O:\003\Asleep At The Wheel - Asleep At The Wheel (1974) [FLAC]\06 - The Kind Of Love I Can't Forget.wav

Pre-gap length 0:00:02.16

Peak level 86.5 %
Track quality 100.0 %
Test CRC C9477FA6
Copy CRC C9477FA6
Copy OK

Track 7
Filename O:\003\Asleep At The Wheel - Asleep At The Wheel (1974) [FLAC]\07 - I'm Gonna Be A Wheel Someday.wav

Pre-gap length 0:00:02.20

Peak level 84.1 %
Track quality 100.0 %
Test CRC D423BC8B
Copy CRC D423BC8B
Copy OK

Track 8
Filename O:\003\Asleep At The Wheel - Asleep At The Wheel (1974) [FLAC]\08 - Our Names Aren't Mentioned (Together Anymore).wav

Pre-gap length 0:00:01.30

Peak level 83.6 %
Track quality 99.9 %
Test CRC C66755D0
Copy CRC C66755D0
Copy OK

Track 9
Filename O:\003\Asleep At The Wheel - Asleep At The Wheel (1974) [FLAC]\09 - Miss Molly.wav

Pre-gap length 0:00:02.26

Peak level 94.7 %
Track quality 100.0 %
Test CRC 03848242
Copy CRC 03848242
Copy OK

Track 10
Filename O:\003\Asleep At The Wheel - Asleep At The Wheel (1974) [FLAC]\10 - Blood-Shot Eyes.wav

Pre-gap length 0:00:02.44

Peak level 91.1 %
Track quality 99.9 %
Test CRC 344F1BDA
Copy CRC 344F1BDA
Copy OK

Track 11
Filename O:\003\Asleep At The Wheel - Asleep At The Wheel (1974) [FLAC]\11 - Dead Man.wav

Pre-gap length 0:00:02.40

Peak level 91.5 %
Track quality 100.0 %
Test CRC A0603C64
Copy CRC A0603C64
Copy OK

No errors occured


End of status report


[CUETools log; Date: 23.06.2021 10:25:38; Version: 2.1.4]
[AccurateRip ID: 00100f61-008a5269-9508f20b] found.
Track [ CRC | V2 ] Status
01 [091d397c|0b196d68] (0+3/5) Accurately ripped
02 [7e86b8ce|95f6d3f4] (0+3/5) Accurately ripped
03 [8063783f|9cd76f62] (0+3/5) Accurately ripped
04 [25df5fd6|87f83432] (0+3/5) Accurately ripped
05 [1e13ff98|bef4ca4a] (0+3/5) Accurately ripped
06 [51f35d06|96240b3b] (0+3/5) Accurately ripped
07 [362cf7f9|62027cc8] (0+3/5) Accurately ripped
08 [6eb42246|0c55e5d4] (0+3/5) Accurately ripped
09 [a202c117|8dff2f9e] (0+3/5) Accurately ripped
10 [549b037d|ab623c24] (0+3/5) Accurately ripped
11 [65e50e47|7e4bcfca] (0+3/5) Accurately ripped
Offsetted by 494:
01 [575d3b8f] (0/5) No match (V2 was not tested)
02 [5023c941] (0/5) No match (V2 was not tested)
03 [39a280ee] (0/5) No match (V2 was not tested)
04 [44b964a4] (0/5) No match (V2 was not tested)
05 [cdc585cb] (0/5) No match (V2 was not tested)
06 [3d77341c] (0/5) No match (V2 was not tested)
07 [33389cf6] (0/5) No match (V2 was not tested)
08 [23324ded] (0/5) No match (V2 was not tested)
09 [bc754fc4] (0/5) No match (V2 was not tested)
10 [3de6186e] (0/5) No match (V2 was not tested)
11 [3b632481] (0/5) No match (V2 was not tested)

Track Peak [ CRC32 ] [W/O NULL] [ LOG ]
– 100,0 [E92F62D4] [E946FD7D]
01 100,0 [AAFEE29A] [08B36197] CRC32
02 85,3 [8D4EAC53] [72E130FF] CRC32
03 86,4 [8FC69F44] [2F601EC9] CRC32
04 87,0 [7DD62E3D] [3B2E3F2E] CRC32
05 83,1 [1F1821CF] [D639BDB4] CRC32
06 86,5 [C9477FA6] [23043D8E] CRC32
07 84,1 [D423BC8B] [FFE2A543] CRC32
08 83,6 [C66755D0] [227EA52F] CRC32
09 94,7 [03848242] [6E3C4A27] CRC32
10 91,1 [344F1BDA] [4EDDF864] CRC32
11 91,5 [A0603C64] [157F1EF7] CRC32


Asleep At The Wheel - Asleep At The Wheel (1974)

All thanks go to the original releaser

Asleep At The Wheel in my Blog

Download Asleep At The Wheel - Asleep At The Wheel (1974):