Tags
Language
Tags

Astor Piazzolla - Adios Nonino (2011) {Fuga Libera)

Posted By: tiburon
Astor Piazzolla - Adios Nonino (2011) {Fuga Libera)

Astor Piazzolla - Adios Nonino (2011) {Fuga Libera)
EAC 1.0b3 | FLAC tracks level 8 | Cue+Log+M3U | Full Scans 300dpi | 297MB + 5% Recovery
MP3 CBR 320 Kbps | 118MB + 5% Recovery
Genre: Tango, Jazz
Astor Piazzolla - Adios Nonino (2011) {Fuga Libera)

Adiós Nonino (Farewell, Granddaddy in Rioplatense Spanish) is a composition by tango Argentine composer Ástor Piazzolla, written in October 1959 while in New York, in memory of his father, Vicente "Nonino" Piazzolla, a few days after his father's death. The piece was based on Piazzolla's earlier tango Nonino, composed in Paris in 1954, of which he kept the rhythmic part and re-arranged the rest with some additions. It would prove to be one of Piazzolla's most well-known and popular compositions, and has been recorded many times with many different arrangements and with various instruments.
Track List
01. Michelangelo 70 02:40
02. Otoсo Porteсo 05:16
03. Tristeza de un doble A 05:28
04. Nuestro tiempo 03:58
05. Escualo 02:55
06. Milonga sin palabras 05:30
07. Regreso al amor 05:34
08. Oblivion 04:11
09. Libertango 03:01
10. Primavera Porteсa 04:36
11. Adios Noniсo 08:32


Exact Audio Copy V1.0 beta 3 from 29. August 2011

EAC extraction logfile from 11. December 2014, 5:58

Astor Piazzolla / Adios Nonino

Used drive : HL-DT-STDVD+-RW GT80N Adapter: 0 ID: 0

Read mode : Secure
Utilize accurate stream : Yes
Defeat audio cache : Yes
Make use of C2 pointers : No

Read offset correction : 102
Overread into Lead-In and Lead-Out : No
Fill up missing offset samples with silence : Yes
Delete leading and trailing silent blocks : No
Null samples used in CRC calculations : Yes
Used interface : Native Win32 interface for Win NT & 2000
Gap handling : Appended to previous track

Used output format : User Defined Encoder
Selected bitrate : 128 kBit/s
Quality : High
Add ID3 tag : No
Command line compressor : C:\Program Files (x86)\Exact Audio Copy\FLAC\FLAC.EXE
Additional command line options : -8 -V -T "ARTIST=%artist%" -T "TITLE=%title%" -T "ALBUM=%albumtitle%" -T "DATE=%year%" -T "TRACKNUMBER=%tracknr%" -T "TOTALTRACKS=%numtracks%" -T "GENRE=%genre%" -T "ALBUMARTIST=%albumartist%" -T "ALBUM ARTIST=%albumartist%" -T "COMMENT=EAC Secure Mode, Test & Copy, AccurateRip, FLAC -8" %source%


TOC of the extracted CD

Track | Start | Length | Start sector | End sector
––––––––––––––––––––––––––––-
1 | 0:00.00 | 2:40.51 | 0 | 12050
2 | 2:40.51 | 5:16.39 | 12051 | 35789
3 | 7:57.15 | 5:28.56 | 35790 | 60445
4 | 13:25.71 | 3:58.53 | 60446 | 78348
5 | 17:24.49 | 2:55.73 | 78349 | 91546
6 | 20:20.47 | 5:30.45 | 91547 | 116341
7 | 25:51.17 | 5:34.43 | 116342 | 141434
8 | 31:25.60 | 4:11.30 | 141435 | 160289
9 | 35:37.15 | 3:01.05 | 160290 | 173869
10 | 38:38.20 | 4:36.60 | 173870 | 194629
11 | 43:15.05 | 8:32.51 | 194630 | 233080


Track 1

Filename C:\Users\porcupine\Desktop\EAC\01 - Santo Scinta - Michelangelo 70, tango for bandoneon, violin, electric guitar, piano & double bass.wav

Pre-gap length 0:00:02.00

Peak level 96.7 %
Extraction speed 1.1 X
Track quality 99.9 %
Test CRC 84ED6B27
Copy CRC 84ED6B27
Accurately ripped (confidence 3) [6BE1C0B6] (AR v1)
Copy OK

Track 2

Filename C:\Users\porcupine\Desktop\EAC\02 - Santo Scinta - Otono porteno, tango incl. in Cuatro estaciones portenas [The Four Seasons].wav

Pre-gap length 0:00:01.00

Peak level 96.7 %
Extraction speed 1.6 X
Track quality 100.0 %
Test CRC B8396A47
Copy CRC B8396A47
Accurately ripped (confidence 3) [9C392CBD] (AR v1)
Copy OK

Track 3

Filename C:\Users\porcupine\Desktop\EAC\03 - Santo Scinta - Tristezas de un doble A, tango.wav

Pre-gap length 0:00:01.00

Peak level 96.7 %
Extraction speed 1.8 X
Track quality 100.0 %
Test CRC 6AB20B68
Copy CRC 6AB20B68
Accurately ripped (confidence 3) [C78B038B] (AR v1)
Copy OK

Track 4

Filename C:\Users\porcupine\Desktop\EAC\04 - Santo Scinta - Nuestro tiempo, tango.wav

Pre-gap length 0:00:01.00

Peak level 96.7 %
Extraction speed 1.6 X
Track quality 99.9 %
Test CRC B4CF7E2F
Copy CRC B4CF7E2F
Accurately ripped (confidence 3) [7D5F4EE2] (AR v1)
Copy OK

Track 5

Filename C:\Users\porcupine\Desktop\EAC\05 - Santo Scinta - Escualo, tango.wav

Pre-gap length 0:00:01.00

Peak level 96.7 %
Extraction speed 1.6 X
Track quality 99.9 %
Test CRC 91FA5693
Copy CRC 91FA5693
Accurately ripped (confidence 3) [80FC38E7] (AR v1)
Copy OK

Track 6

Filename C:\Users\porcupine\Desktop\EAC\06 - Santo Scinta - Milonga sin palabras, for bandoneon & piano.wav

Pre-gap length 0:00:03.00

Peak level 80.3 %
Extraction speed 2.1 X
Track quality 100.0 %
Test CRC E0A0C3F0
Copy CRC E0A0C3F0
Accurately ripped (confidence 3) [17C3AD68] (AR v1)
Copy OK

Track 7

Filename C:\Users\porcupine\Desktop\EAC\07 - Santo Scinta - Regreso al amor, tango from film, Sur.wav

Pre-gap length 0:00:01.00

Peak level 96.7 %
Extraction speed 2.3 X
Track quality 100.0 %
Test CRC E0A74B83
Copy CRC E0A74B83
Accurately ripped (confidence 3) [E648C67F] (AR v1)
Copy OK

Track 8

Filename C:\Users\porcupine\Desktop\EAC\08 - Santo Scinta - Oblivion, tango.wav

Pre-gap length 0:00:02.00

Peak level 79.6 %
Extraction speed 2.4 X
Track quality 100.0 %
Test CRC 495551BA
Copy CRC 495551BA
Accurately ripped (confidence 3) [37D3ABEC] (AR v1)
Copy OK

Track 9

Filename C:\Users\porcupine\Desktop\EAC\09 - Santo Scinta - Libertango, tango.wav

Pre-gap length 0:00:01.00

Peak level 96.7 %
Extraction speed 2.3 X
Track quality 100.0 %
Test CRC 07C7F233
Copy CRC 07C7F233
Accurately ripped (confidence 3) [F80200C8] (AR v1)
Copy OK

Track 10

Filename C:\Users\porcupine\Desktop\EAC\10 - Santo Scinta - Primavera portena, tango incl. in Cuatro estaciones portenas [The Four Seasons].wav

Pre-gap length 0:00:02.00

Peak level 96.7 %
Extraction speed 2.5 X
Track quality 100.0 %
Test CRC 193E51DC
Copy CRC 193E51DC
Accurately ripped (confidence 3) [CDC8CC87] (AR v1)
Copy OK

Track 11

Filename C:\Users\porcupine\Desktop\EAC\11 - Santo Scinta - Adios Nonino, tango.wav

Pre-gap length 0:00:03.00

Peak level 97.0 %
Extraction speed 2.8 X
Track quality 100.0 %
Test CRC 0843D702
Copy CRC 0843D702
Accurately ripped (confidence 3) [CD8E3527] (AR v1)
Copy OK


All tracks accurately ripped

No errors occurred

End of status report

==== Log checksum 916B75D6F3060984F9944DDE40AD3AD6C0D1B0EA6F1778F6A5A97F5FE9FB7E19 ====

Astor Piazzolla - Adios Nonino (2011) {Fuga Libera)


Thanks to the original ripper