Subcategories

B.B. King - Completely Well (1969) [Remastered]

Posted By: Designol
B.B. King - Completely Well (1969) [Remastered]

B.B. King - Completely Well (1969) [Remastered]
EAC | FLAC | Tracks (Cue&Log) ~ 340 Mb | Mp3 (CBR320) ~ 139 Mb | Scans included
Modern Electric Blues, Soul-Blues | Label: MCA | # MCAD-11768 | Time: 00:50:04

Completely Well was B.B. King's breakthrough album in 1969, which finally got him the long-deserved acclaim that was no less than his due. It contained his signature number, "The Thrill Is Gone," and eight other tunes, six of them emanating from King's pen, usually in a co-writing situation. Hardliners point to the horn charts and the overdubbed strings as the beginning of the end of King's old style that so identifiably earmarked his early sides for the Bihari Brothers and his later tracks for ABC, but this is truly the album that made the world sit up and take notice of B.B. King. The plus points include loose arrangements and a small combo behind him that never dwarfs the proceedings or gets in the way. King, for his part, sounds like he's having a ball, playing and singing at peak power. This is certainly not the place to start your B.B. King collection, but it's a nice stop along the way before you finish it.

Review by Cub Koda, Allmusic.com

B.B. King - Completely Well (1969) [Remastered]



Tracklist:

01. So Excited (05:37)
02. No Good (04:37)
03. You're Losin' Me (04:55)
04. What Happened (04:43)
05. Confessin' The Blues (04:57)
06. Key To My Kingdom (03:20)
07. Cryin' Won't Help You Now (06:27)
08. You're Mean (09:59)
09. The Thrill Is Gone (05:24)


Exact Audio Copy V0.99 prebeta 5 from 4. May 2009

EAC extraction logfile from 24. December 2009, 17:17

B.B. King / Completely Well

Used drive : MATSHITADVD-R UJ-857D Adapter: 0 ID: 0

Read mode : Secure
Utilize accurate stream : Yes
Defeat audio cache : Yes
Make use of C2 pointers : No

Read offset correction : 102
Overread into Lead-In and Lead-Out : No
Fill up missing offset samples with silence : Yes
Delete leading and trailing silent blocks : No
Null samples used in CRC calculations : Yes
Used interface : Native Win32 interface for Win NT & 2000
Gap handling : Appended to previous track

Used output format : User Defined Encoder
Selected bitrate : 320 kBit/s
Quality : High
Add ID3 tag : No
Command line compressor : C:\Program Files\Exact Audio Copy\FLAC\FLAC.EXE
Additional command line options : -V -8 -T "artist=%a" -T "title=%t" -T "album=%g" -T "date=%y" -T "tracknumber=%n" -T "genre=%m" %s


TOC of the extracted CD

Track | Start | Length | Start sector | End sector
––––––––––––––––––––––––––––-
1 | 0:00.00 | 5:37.00 | 0 | 25274
2 | 5:37.00 | 4:37.67 | 25275 | 46116
3 | 10:14.67 | 4:55.30 | 46117 | 68271
4 | 15:10.22 | 4:43.48 | 68272 | 89544
5 | 19:53.70 | 4:57.45 | 89545 | 111864
6 | 24:51.40 | 3:20.60 | 111865 | 126924
7 | 28:12.25 | 6:27.25 | 126925 | 155974
8 | 34:39.50 | 9:59.47 | 155975 | 200946
9 | 44:39.22 | 5:24.55 | 200947 | 225301


Track 1

Filename C:\EAC Rips\01 - So Excited.wav

Pre-gap length 0:00:02.00

Peak level 93.5 %
Track quality 100.0 %
Test CRC F19BEC26
Copy CRC F19BEC26
Accurately ripped (confidence 6) [BEF7819E]
Copy OK

Track 2

Filename C:\EAC Rips\02 - No Good.wav

Pre-gap length 0:02:43.61

Peak level 94.9 %
Track quality 100.0 %
Test CRC BD1F7F20
Copy CRC BD1F7F20
Accurately ripped (confidence 6) [7C05FBCD]
Copy OK

Track 3

Filename C:\EAC Rips\03 - You're Losin' Me.wav

Pre-gap length 0:02:13.86

Peak level 94.7 %
Track quality 100.0 %
Test CRC 2990146F
Copy CRC 2990146F
Accurately ripped (confidence 6) [E4051184]
Copy OK

Track 4

Filename C:\EAC Rips\04 - What Happened.wav

Peak level 97.4 %
Track quality 100.0 %
Test CRC 70F67217
Copy CRC 70F67217
Accurately ripped (confidence 6) [C7D227F6]
Copy OK

Track 5

Filename C:\EAC Rips\05 - Confessin' The Blues.wav

Pre-gap length 0:00:02.42

Peak level 96.9 %
Track quality 99.9 %
Test CRC D53EA588
Copy CRC D53EA588
Accurately ripped (confidence 6) [001821D6]
Copy OK

Track 6

Filename C:\EAC Rips\06 - Key To My Kingdom.wav

Pre-gap length 0:00:02.56

Peak level 93.4 %
Track quality 100.0 %
Test CRC B8E52C54
Copy CRC B8E52C54
Accurately ripped (confidence 6) [2F37F9F0]
Copy OK

Track 7

Filename C:\EAC Rips\07 - Cryin' Won't Help You Now.wav

Peak level 95.6 %
Track quality 100.0 %
Test CRC 11564345
Copy CRC 11564345
Accurately ripped (confidence 6) [6E01F2FB]
Copy OK

Track 8

Filename C:\EAC Rips\08 - You're Mean.wav

Peak level 95.4 %
Track quality 100.0 %
Test CRC 189AF13A
Copy CRC 189AF13A
Accurately ripped (confidence 6) [159F3DE3]
Copy OK

Track 9

Filename C:\EAC Rips\09 - The Thrill Is Gone.wav

Pre-gap length 0:00:02.52

Peak level 94.2 %
Track quality 100.0 %
Test CRC 0CC6A1A8
Copy CRC 0CC6A1A8
Accurately ripped (confidence 6) [82507AC9]
Copy OK


All tracks accurately ripped

No errors occurred

End of status report

foobar2000 1.3.8 / Dynamic Range Meter 1.1.1
log date: 2015-05-18 17:27:16

––––––––––––––––––––––––––––––––––––––––
Analyzed: B.B. King / Completely Well
––––––––––––––––––––––––––––––––––––––––

DR Peak RMS Duration Track
––––––––––––––––––––––––––––––––––––––––
DR8 -0.58 dB -10.84 dB 5:37 01-So Excited
DR8 -0.45 dB -10.82 dB 4:38 02-No Good
DR8 -0.47 dB -10.30 dB 4:55 03-You're Losin' Me
DR8 -0.23 dB -10.71 dB 4:44 04-What Happened
DR8 -0.27 dB -10.11 dB 4:58 05-Confessin' The Blues
DR8 -0.59 dB -11.06 dB 3:21 06-Key To My Kingdom
DR9 -0.39 dB -11.13 dB 6:27 07-Cryin' Won't Help You Now
DR8 -0.40 dB -10.21 dB 10:00 08-You're Mean
DR9 -0.52 dB -11.39 dB 5:25 09-The Thrill Is Gone
––––––––––––––––––––––––––––––––––––––––

Number of tracks: 9
Official DR value: DR8

Samplerate: 44100 Hz
Channels: 2
Bits per sample: 16
Bitrate: 857 kbps
Codec: FLAC
================================================================================

B.B. King - Completely Well (1969) [Remastered]

B.B. King - Completely Well (1969) [Remastered]