Subcategories

Bar-Kays - The Definitive Collection [3CD] (2019)

Posted By: BlondStyle
Bar-Kays - The Definitive Collection [3CD] (2019)

Bar-Kays - The Definitive Collection [3CD] (2019)
R&B, Soul/Funk, Electronic, Disco | EAC Rip | FLAC, Tracks+CUE+LOG+Scans (JPEG) | 03:34:19 | 1,39 Gb
Label: Robinsongs (EU) | Cat.# ROBIN37CDT | Released: 2019-03-15
Bar-Kays - The Definitive Collection [3CD] (2019)

For the very first time you can now get your hands on a definitive collection of the funk and soul sensation that is The Bar-Kays. Robinsongs are proud to be the first label to combine the Warner Brothers, Volt, Stax and Mercury repertoire to make this a unique compilation that covers the period from 1967 through 1989. The package features every single one of their Top 10 R&B Hits. Other tracks of note included in this package are 'Let's Have Some Fun', 'Dirty Dancer', 'Attitudes' and the full-length album version of 'Money Talks' plus the dance floor smash 'Sexomatic'. The history of the Bar-Kays is one of tragedy and triumph, plane crash to Gold Discs, Otis Redding to Isaac Hayes, which is all wonderfully summed up in a 24 page color booklet including an essay by Christian John Wikane, a New York based music journalist with contributions by the band's former front man Larry Dodson.
~Review by Amazon

Bar-Kays - The Definitive Collection [3CD] (2019)

Bar-Kays - The Definitive Collection [3CD] (2019)




Release of this 3CD-Set: 2019, March, 15 [CD Robinsongs (EU), Cat.# ROBIN37CDT / UPC: 5013929953727]
This compilation ℗&© 2019 Robinsongs, a Division of Cherry Red Records Ltd.
Made in the EU/MCPS

Credits:

Design – Big Tone
Liner Notes – Christian John Wikane
Mastered By – Alan Wilson


Tracklist:

Disc 1

01. Soul Finger (02:22)
02. Bar-Kays Boogaloo (02:18)
03. Don't Stop Dancing (To The Music) (Part 1) (02:56)
04. Sang And Dance (02:57)
05. Son Of Shaft (03:26)
06. Six O'Clock News Report (04:09)
07. Money Talks (06:52)
08. Holy Ghost (08:32)
09. Too Hot To Stop (06:26)
10. Shake Your Rump (03:47
11. Cozy (03:33)
12. Spellbound (04:58)
13. Whitehouseorgy (04:50)
14. Standing On The Outside (04:19)
15. Attitudes (03:28)
16. Shut The Funk Up (04:27)
17. Let's Have Some Fun (06:03)

Disc 2

01. Give It Up (04:32)
02. Get Up 'N Do It (03:41)
03. I Lean On You / You Lean On Me (03:13)
04. Shine (03:43)
05. I'll Dance (03:24)
06. Move Your Boogie Body (06:18)
07. Up In Here (05:13)
08. Today Is The Day (03:14)
09. Running In And Out Of My Life (04:50)
10. Boogie Body Land (05:51)
11. Body Fever (04:12)
12. Freaky Behavior (05:10)
13. Traffic Jammer (05:50)
14. Hit And Run (03:51)
15. Nightcruising (04:18)
16. (Busted) (02:05)

Disc 3

01. She Talks To Me With Her Body (06:09)
02. Do It (Let Me See You Shake) (06:05)
03. Anticipation (05:49)
04. Sexomatic (05:22)
05. Dirty Dancer (04:34)
06. Freakshow On The Dance Floor (06:33)
07. Your Place Or Mine (05:07)
08. Banging The Walls (04:40)
09. Contagious (05:03)
10. Certified True (04:57)
11. Don't Hang Up (04:18)
12. Animal (05:14)
13. Struck By You (05:42)

Exact Audio Copy V1.3 from 2. September 2016

EAC extraction logfile from 6. November 2020, 15:23

The Bar-Kays / The Definitive Collection

Used drive : PLEXTOR PX-891SAF Adapter: 1 ID: 0

Read mode : Secure
Utilize accurate stream : Yes
Defeat audio cache : Yes
Make use of C2 pointers : No

Read offset correction : 6
Overread into Lead-In and Lead-Out : No
Fill up missing offset samples with silence : Yes
Delete leading and trailing silent blocks : No
Null samples used in CRC calculations : Yes
Used interface : Native Win32 interface for Win NT & 2000
Gap handling : Appended to previous track

Used output format : User Defined Encoder
Selected bitrate : 1024 kBit/s
Quality : High
Add ID3 tag : No
Command line compressor : C:\Program Files (x86)\Exact Audio Copy\Flac\flac.exe
Additional command line options : -8 -V -T "ARTIST=%artist%" -T "TITLE=%title%" -T "ALBUM=%albumtitle%" -T "DATE=%year%" -T "TRACKNUMBER=%tracknr%" -T "GENRE=%genre%" -T "PERFORMER=%albuminterpret%" -T "COMPOSER=%composer%" %haslyrics%–tag-from-file=LYRICS="%lyricsfile%"%haslyrics% -T "ALBUMARTIST=%albumartist%" -T "DISCNUMBER=%cdnumber%" -T "TOTALDISCS=%totalcds%" -T "TOTALTRACKS=%numtracks%" -T "COMMENT=%comment%" %source% -o %dest%


TOC of the extracted CD

Track | Start | Length | Start sector | End sector
––––––––––––––––––––––––––––-
1 | 0:00.00 | 2:21.61 | 0 | 10635
2 | 2:21.61 | 2:17.53 | 10636 | 20963
3 | 4:39.39 | 2:55.38 | 20964 | 34126
4 | 7:35.02 | 2:56.46 | 34127 | 47372
5 | 10:31.48 | 3:25.66 | 47373 | 62813
6 | 13:57.39 | 4:09.09 | 62814 | 81497
7 | 18:06.48 | 6:51.52 | 81498 | 112374
8 | 24:58.25 | 8:32.00 | 112375 | 150774
9 | 33:30.25 | 6:26.33 | 150775 | 179757
10 | 39:56.58 | 3:46.65 | 179758 | 196772
11 | 43:43.48 | 3:32.42 | 196773 | 212714
12 | 47:16.15 | 4:58.07 | 212715 | 235071
13 | 52:14.22 | 4:50.02 | 235072 | 256823
14 | 57:04.24 | 4:18.74 | 256824 | 276247
15 | 61:23.23 | 3:28.15 | 276248 | 291862
16 | 64:51.38 | 4:27.13 | 291863 | 311900
17 | 69:18.51 | 6:02.50 | 311901 | 339100


Track 1

Filename D:\#EAC new\#wav+flac\#Trump\The Bar-Kays - The Definitive Collection\cd 1\01. The Bar-Kays - Soul Finger.wav

Pre-gap length 0:00:02.00

Peak level 100.0 %
Extraction speed 5.1 X
Track quality 100.0 %
Test CRC 697DA8D2
Copy CRC 697DA8D2
Accurately ripped (confidence 3) [36148AA2] (AR v2)
Copy OK

Track 2

Filename D:\#EAC new\#wav+flac\#Trump\The Bar-Kays - The Definitive Collection\cd 1\02. The Bar-Kays - Bar-Kays Boogaloo.wav

Pre-gap length 0:00:01.76

Peak level 100.0 %
Extraction speed 5.4 X
Track quality 100.0 %
Test CRC D9E11844
Copy CRC D9E11844
Accurately ripped (confidence 3) [ED3650CE] (AR v2)
Copy OK

Track 3

Filename D:\#EAC new\#wav+flac\#Trump\The Bar-Kays - The Definitive Collection\cd 1\03. The Bar-Kays - Don't Stop Dancing (To The Music).wav

Pre-gap length 0:00:01.76

Peak level 91.3 %
Extraction speed 5.9 X
Track quality 100.0 %
Test CRC ED7C9DFA
Copy CRC ED7C9DFA
Accurately ripped (confidence 3) [4D01DBCB] (AR v2)
Copy OK

Track 4

Filename D:\#EAC new\#wav+flac\#Trump\The Bar-Kays - The Definitive Collection\cd 1\04. The Bar-Kays - Sang And Dance.wav

Pre-gap length 0:00:01.76

Peak level 100.0 %
Extraction speed 5.1 X
Track quality 99.9 %
Test CRC 0A82CF1C
Copy CRC 0A82CF1C
Accurately ripped (confidence 3) [5D3A7EA9] (AR v2)
Copy OK

Track 5

Filename D:\#EAC new\#wav+flac\#Trump\The Bar-Kays - The Definitive Collection\cd 1\05. The Bar-Kays - Son Of Shaft.wav

Pre-gap length 0:00:01.76

Peak level 75.6 %
Extraction speed 6.8 X
Track quality 100.0 %
Test CRC 6786F57A
Copy CRC 6786F57A
Accurately ripped (confidence 3) [A073731A] (AR v2)
Copy OK

Track 6

Filename D:\#EAC new\#wav+flac\#Trump\The Bar-Kays - The Definitive Collection\cd 1\06. The Bar-Kays - Six O'Clock News Report.wav

Pre-gap length 0:00:01.76

Peak level 90.0 %
Extraction speed 7.3 X
Track quality 100.0 %
Test CRC 8616C621
Copy CRC 8616C621
Accurately ripped (confidence 3) [8E0B47FA] (AR v2)
Copy OK

Track 7

Filename D:\#EAC new\#wav+flac\#Trump\The Bar-Kays - The Definitive Collection\cd 1\07. The Bar-Kays - Money Talks.wav

Pre-gap length 0:00:01.76

Peak level 90.0 %
Extraction speed 7.4 X
Track quality 99.9 %
Test CRC 634C7750
Copy CRC 634C7750
Accurately ripped (confidence 3) [5B63D5CA] (AR v2)
Copy OK

Track 8

Filename D:\#EAC new\#wav+flac\#Trump\The Bar-Kays - The Definitive Collection\cd 1\08. The Bar-Kays - Holy Ghost.wav

Pre-gap length 0:00:01.76

Peak level 82.8 %
Extraction speed 9.1 X
Track quality 100.0 %
Test CRC 73EBE3F0
Copy CRC 73EBE3F0
Accurately ripped (confidence 3) [A24C483F] (AR v2)
Copy OK

Track 9

Filename D:\#EAC new\#wav+flac\#Trump\The Bar-Kays - The Definitive Collection\cd 1\09. The Bar-Kays - Too Hot To Stop.wav

Pre-gap length 0:00:01.76

Peak level 86.4 %
Extraction speed 8.5 X
Track quality 99.9 %
Test CRC 74F6316D
Copy CRC 74F6316D
Accurately ripped (confidence 3) [5E8119BF] (AR v2)
Copy OK

Track 10

Filename D:\#EAC new\#wav+flac\#Trump\The Bar-Kays - The Definitive Collection\cd 1\10. The Bar-Kays - Shake Your Rump To The Funk.wav

Pre-gap length 0:00:01.76

Peak level 91.3 %
Extraction speed 9.3 X
Track quality 100.0 %
Test CRC 1DB64E22
Copy CRC 1DB64E22
Accurately ripped (confidence 3) [B221CDDB] (AR v2)
Copy OK

Track 11

Filename D:\#EAC new\#wav+flac\#Trump\The Bar-Kays - The Definitive Collection\cd 1\11. The Bar-Kays - Cozy.wav

Pre-gap length 0:00:01.76

Peak level 91.3 %
Extraction speed 9.7 X
Track quality 100.0 %
Test CRC B285E5B3
Copy CRC B285E5B3
Accurately ripped (confidence 3) [3A90F106] (AR v2)
Copy OK

Track 12

Filename D:\#EAC new\#wav+flac\#Trump\The Bar-Kays - The Definitive Collection\cd 1\12. The Bar-Kays - Spellbound.wav

Pre-gap length 0:00:01.76

Peak level 86.9 %
Extraction speed 10.3 X
Track quality 100.0 %
Test CRC DCC317C1
Copy CRC DCC317C1
Accurately ripped (confidence 3) [730A6EAD] (AR v2)
Copy OK

Track 13

Filename D:\#EAC new\#wav+flac\#Trump\The Bar-Kays - The Definitive Collection\cd 1\13. The Bar-Kays - Whitehouseorgy.wav

Pre-gap length 0:00:01.76

Peak level 95.6 %
Extraction speed 10.5 X
Track quality 100.0 %
Test CRC 29553D76
Copy CRC 29553D76
Accurately ripped (confidence 3) [94A21A3D] (AR v2)
Copy OK

Track 14

Filename D:\#EAC new\#wav+flac\#Trump\The Bar-Kays - The Definitive Collection\cd 1\14. The Bar-Kays - Standing On The Outside.wav

Pre-gap length 0:00:01.76

Peak level 91.3 %
Extraction speed 10.8 X
Track quality 100.0 %
Test CRC 2925086E
Copy CRC 2925086E
Accurately ripped (confidence 3) [76BC62F4] (AR v2)
Copy OK

Track 15

Filename D:\#EAC new\#wav+flac\#Trump\The Bar-Kays - The Definitive Collection\cd 1\15. The Bar-Kays - Attitudes.wav

Pre-gap length 0:00:01.76

Peak level 91.3 %
Extraction speed 10.6 X
Track quality 100.0 %
Test CRC AEB20C1A
Copy CRC AEB20C1A
Accurately ripped (confidence 3) [DC75164A] (AR v2)
Copy OK

Track 16

Filename D:\#EAC new\#wav+flac\#Trump\The Bar-Kays - The Definitive Collection\cd 1\16. The Bar-Kays - Shut The Funk Up.wav

Pre-gap length 0:00:01.76

Peak level 91.3 %
Extraction speed 11.2 X
Track quality 100.0 %
Test CRC 1618CC7A
Copy CRC 1618CC7A
Accurately ripped (confidence 3) [CBF38837] (AR v2)
Copy OK

Track 17

Filename D:\#EAC new\#wav+flac\#Trump\The Bar-Kays - The Definitive Collection\cd 1\17. The Bar-Kays - Let's Have Some Fun.wav

Pre-gap length 0:00:01.76

Peak level 100.0 %
Extraction speed 11.7 X
Track quality 100.0 %
Test CRC 8CA0ACF1
Copy CRC 8CA0ACF1
Accurately ripped (confidence 3) [3DFC942C] (AR v2)
Copy OK


All tracks accurately ripped

No errors occurred

End of status report

–– CUETools DB Plugin V2.1.6

[CTDB TOCID: GGV_pIrrtuJbRx2VDKgjdMTOplM-] found
Submit result: GGV_pIrrtuJbRx2VDKgjdMTOplM- has been confirmed
Track | CTDB Status
1 | (5/5) Accurately ripped
2 | (5/5) Accurately ripped
3 | (5/5) Accurately ripped
4 | (5/5) Accurately ripped
5 | (5/5) Accurately ripped
6 | (5/5) Accurately ripped
7 | (5/5) Accurately ripped
8 | (5/5) Accurately ripped
9 | (5/5) Accurately ripped
10 | (5/5) Accurately ripped
11 | (5/5) Accurately ripped
12 | (5/5) Accurately ripped
13 | (5/5) Accurately ripped
14 | (5/5) Accurately ripped
15 | (5/5) Accurately ripped
16 | (5/5) Accurately ripped
17 | (5/5) Accurately ripped


==== Log checksum 73ADD4237F5065631B9805A95E2CA47AC853FD494F4AE66642DF6E6B5A231B59 ====

––––––––––––––––––––––––––––––

Exact Audio Copy V1.3 from 2. September 2016

EAC extraction logfile from 6. November 2020, 15:23

The Bar-Kays / The Definitive Collection

Used drive : PLEXTOR PX-891SAF Adapter: 1 ID: 0

Read mode : Secure
Utilize accurate stream : Yes
Defeat audio cache : Yes
Make use of C2 pointers : No

Read offset correction : 6
Overread into Lead-In and Lead-Out : No
Fill up missing offset samples with silence : Yes
Delete leading and trailing silent blocks : No
Null samples used in CRC calculations : Yes
Used interface : Native Win32 interface for Win NT & 2000
Gap handling : Appended to previous track

Used output format : User Defined Encoder
Selected bitrate : 1024 kBit/s
Quality : High
Add ID3 tag : No
Command line compressor : C:\Program Files (x86)\Exact Audio Copy\Flac\flac.exe
Additional command line options : -8 -V -T "ARTIST=%artist%" -T "TITLE=%title%" -T "ALBUM=%albumtitle%" -T "DATE=%year%" -T "TRACKNUMBER=%tracknr%" -T "GENRE=%genre%" -T "PERFORMER=%albuminterpret%" -T "COMPOSER=%composer%" %haslyrics%–tag-from-file=LYRICS="%lyricsfile%"%haslyrics% -T "ALBUMARTIST=%albumartist%" -T "DISCNUMBER=%cdnumber%" -T "TOTALDISCS=%totalcds%" -T "TOTALTRACKS=%numtracks%" -T "COMMENT=%comment%" %source% -o %dest%


TOC of the extracted CD

Track | Start | Length | Start sector | End sector
––––––––––––––––––––––––––––-
1 | 0:00.00 | 2:21.61 | 0 | 10635
2 | 2:21.61 | 2:17.53 | 10636 | 20963
3 | 4:39.39 | 2:55.38 | 20964 | 34126
4 | 7:35.02 | 2:56.46 | 34127 | 47372
5 | 10:31.48 | 3:25.66 | 47373 | 62813
6 | 13:57.39 | 4:09.09 | 62814 | 81497
7 | 18:06.48 | 6:51.52 | 81498 | 112374
8 | 24:58.25 | 8:32.00 | 112375 | 150774
9 | 33:30.25 | 6:26.33 | 150775 | 179757
10 | 39:56.58 | 3:46.65 | 179758 | 196772
11 | 43:43.48 | 3:32.42 | 196773 | 212714
12 | 47:16.15 | 4:58.07 | 212715 | 235071
13 | 52:14.22 | 4:50.02 | 235072 | 256823
14 | 57:04.24 | 4:18.74 | 256824 | 276247
15 | 61:23.23 | 3:28.15 | 276248 | 291862
16 | 64:51.38 | 4:27.13 | 291863 | 311900
17 | 69:18.51 | 6:02.50 | 311901 | 339100


Track 1

Filename D:\#EAC new\#wav+flac\#Trump\The Bar-Kays - The Definitive Collection\cd 1\01. The Bar-Kays - Soul Finger.wav

Pre-gap length 0:00:02.00

Peak level 100.0 %
Extraction speed 5.1 X
Track quality 100.0 %
Test CRC 697DA8D2
Copy CRC 697DA8D2
Accurately ripped (confidence 3) [36148AA2] (AR v2)
Copy OK

Track 2

Filename D:\#EAC new\#wav+flac\#Trump\The Bar-Kays - The Definitive Collection\cd 1\02. The Bar-Kays - Bar-Kays Boogaloo.wav

Pre-gap length 0:00:01.76

Peak level 100.0 %
Extraction speed 5.4 X
Track quality 100.0 %
Test CRC D9E11844
Copy CRC D9E11844
Accurately ripped (confidence 3) [ED3650CE] (AR v2)
Copy OK

Track 3

Filename D:\#EAC new\#wav+flac\#Trump\The Bar-Kays - The Definitive Collection\cd 1\03. The Bar-Kays - Don't Stop Dancing (To The Music).wav

Pre-gap length 0:00:01.76

Peak level 91.3 %
Extraction speed 5.9 X
Track quality 100.0 %
Test CRC ED7C9DFA
Copy CRC ED7C9DFA
Accurately ripped (confidence 3) [4D01DBCB] (AR v2)
Copy OK

Track 4

Filename D:\#EAC new\#wav+flac\#Trump\The Bar-Kays - The Definitive Collection\cd 1\04. The Bar-Kays - Sang And Dance.wav

Pre-gap length 0:00:01.76

Peak level 100.0 %
Extraction speed 5.1 X
Track quality 99.9 %
Test CRC 0A82CF1C
Copy CRC 0A82CF1C
Accurately ripped (confidence 3) [5D3A7EA9] (AR v2)
Copy OK

Track 5

Filename D:\#EAC new\#wav+flac\#Trump\The Bar-Kays - The Definitive Collection\cd 1\05. The Bar-Kays - Son Of Shaft.wav

Pre-gap length 0:00:01.76

Peak level 75.6 %
Extraction speed 6.8 X
Track quality 100.0 %
Test CRC 6786F57A
Copy CRC 6786F57A
Accurately ripped (confidence 3) [A073731A] (AR v2)
Copy OK

Track 6

Filename D:\#EAC new\#wav+flac\#Trump\The Bar-Kays - The Definitive Collection\cd 1\06. The Bar-Kays - Six O'Clock News Report.wav

Pre-gap length 0:00:01.76

Peak level 90.0 %
Extraction speed 7.3 X
Track quality 100.0 %
Test CRC 8616C621
Copy CRC 8616C621
Accurately ripped (confidence 3) [8E0B47FA] (AR v2)
Copy OK

Track 7

Filename D:\#EAC new\#wav+flac\#Trump\The Bar-Kays - The Definitive Collection\cd 1\07. The Bar-Kays - Money Talks.wav

Pre-gap length 0:00:01.76

Peak level 90.0 %
Extraction speed 7.4 X
Track quality 99.9 %
Test CRC 634C7750
Copy CRC 634C7750
Accurately ripped (confidence 3) [5B63D5CA] (AR v2)
Copy OK

Track 8

Filename D:\#EAC new\#wav+flac\#Trump\The Bar-Kays - The Definitive Collection\cd 1\08. The Bar-Kays - Holy Ghost.wav

Pre-gap length 0:00:01.76

Peak level 82.8 %
Extraction speed 9.1 X
Track quality 100.0 %
Test CRC 73EBE3F0
Copy CRC 73EBE3F0
Accurately ripped (confidence 3) [A24C483F] (AR v2)
Copy OK

Track 9

Filename D:\#EAC new\#wav+flac\#Trump\The Bar-Kays - The Definitive Collection\cd 1\09. The Bar-Kays - Too Hot To Stop.wav

Pre-gap length 0:00:01.76

Peak level 86.4 %
Extraction speed 8.5 X
Track quality 99.9 %
Test CRC 74F6316D
Copy CRC 74F6316D
Accurately ripped (confidence 3) [5E8119BF] (AR v2)
Copy OK

Track 10

Filename D:\#EAC new\#wav+flac\#Trump\The Bar-Kays - The Definitive Collection\cd 1\10. The Bar-Kays - Shake Your Rump To The Funk.wav

Pre-gap length 0:00:01.76

Peak level 91.3 %
Extraction speed 9.3 X
Track quality 100.0 %
Test CRC 1DB64E22
Copy CRC 1DB64E22
Accurately ripped (confidence 3) [B221CDDB] (AR v2)
Copy OK

Track 11

Filename D:\#EAC new\#wav+flac\#Trump\The Bar-Kays - The Definitive Collection\cd 1\11. The Bar-Kays - Cozy.wav

Pre-gap length 0:00:01.76

Peak level 91.3 %
Extraction speed 9.7 X
Track quality 100.0 %
Test CRC B285E5B3
Copy CRC B285E5B3
Accurately ripped (confidence 3) [3A90F106] (AR v2)
Copy OK

Track 12

Filename D:\#EAC new\#wav+flac\#Trump\The Bar-Kays - The Definitive Collection\cd 1\12. The Bar-Kays - Spellbound.wav

Pre-gap length 0:00:01.76

Peak level 86.9 %
Extraction speed 10.3 X
Track quality 100.0 %
Test CRC DCC317C1
Copy CRC DCC317C1
Accurately ripped (confidence 3) [730A6EAD] (AR v2)
Copy OK

Track 13

Filename D:\#EAC new\#wav+flac\#Trump\The Bar-Kays - The Definitive Collection\cd 1\13. The Bar-Kays - Whitehouseorgy.wav

Pre-gap length 0:00:01.76

Peak level 95.6 %
Extraction speed 10.5 X
Track quality 100.0 %
Test CRC 29553D76
Copy CRC 29553D76
Accurately ripped (confidence 3) [94A21A3D] (AR v2)
Copy OK

Track 14

Filename D:\#EAC new\#wav+flac\#Trump\The Bar-Kays - The Definitive Collection\cd 1\14. The Bar-Kays - Standing On The Outside.wav

Pre-gap length 0:00:01.76

Peak level 91.3 %
Extraction speed 10.8 X
Track quality 100.0 %
Test CRC 2925086E
Copy CRC 2925086E
Accurately ripped (confidence 3) [76BC62F4] (AR v2)
Copy OK

Track 15

Filename D:\#EAC new\#wav+flac\#Trump\The Bar-Kays - The Definitive Collection\cd 1\15. The Bar-Kays - Attitudes.wav

Pre-gap length 0:00:01.76

Peak level 91.3 %
Extraction speed 10.6 X
Track quality 100.0 %
Test CRC AEB20C1A
Copy CRC AEB20C1A
Accurately ripped (confidence 3) [DC75164A] (AR v2)
Copy OK

Track 16

Filename D:\#EAC new\#wav+flac\#Trump\The Bar-Kays - The Definitive Collection\cd 1\16. The Bar-Kays - Shut The Funk Up.wav

Pre-gap length 0:00:01.76

Peak level 91.3 %
Extraction speed 11.2 X
Track quality 100.0 %
Test CRC 1618CC7A
Copy CRC 1618CC7A
Accurately ripped (confidence 3) [CBF38837] (AR v2)
Copy OK

Track 17

Filename D:\#EAC new\#wav+flac\#Trump\The Bar-Kays - The Definitive Collection\cd 1\17. The Bar-Kays - Let's Have Some Fun.wav

Pre-gap length 0:00:01.76

Peak level 100.0 %
Extraction speed 11.7 X
Track quality 100.0 %
Test CRC 8CA0ACF1
Copy CRC 8CA0ACF1
Accurately ripped (confidence 3) [3DFC942C] (AR v2)
Copy OK


All tracks accurately ripped

No errors occurred

End of status report

–– CUETools DB Plugin V2.1.6

[CTDB TOCID: GGV_pIrrtuJbRx2VDKgjdMTOplM-] found
Submit result: GGV_pIrrtuJbRx2VDKgjdMTOplM- has been confirmed
Track | CTDB Status
1 | (5/5) Accurately ripped
2 | (5/5) Accurately ripped
3 | (5/5) Accurately ripped
4 | (5/5) Accurately ripped
5 | (5/5) Accurately ripped
6 | (5/5) Accurately ripped
7 | (5/5) Accurately ripped
8 | (5/5) Accurately ripped
9 | (5/5) Accurately ripped
10 | (5/5) Accurately ripped
11 | (5/5) Accurately ripped
12 | (5/5) Accurately ripped
13 | (5/5) Accurately ripped
14 | (5/5) Accurately ripped
15 | (5/5) Accurately ripped
16 | (5/5) Accurately ripped
17 | (5/5) Accurately ripped


==== Log checksum 73ADD4237F5065631B9805A95E2CA47AC853FD494F4AE66642DF6E6B5A231B59 ====

––––––––––––––––––––––––––––––––––––––––
Analyzed: The Bar-Kays / The Definitive Collection
––––––––––––––––––––––––––––––––––––––––

DR Peak RMS Duration Track
––––––––––––––––––––––––––––––––––––––––
DR13 0.00 dB -15.47 dB 2:22 01-Soul Finger
DR12 0.00 dB -13.82 dB 2:18 02-Bar-Kays Boogaloo
DR11 -0.79 dB -13.91 dB 2:56 03-Don't Stop Dancing (To The Music)
DR12 0.00 dB -14.44 dB 2:57 04-Sang And Dance
DR11 -2.42 dB -16.05 dB 3:26 05-Son Of Shaft
DR11 -0.91 dB -14.32 dB 4:09 06-Six O'Clock News Report
DR14 -0.91 dB -15.61 dB 6:52 07-Money Talks
DR12 -1.63 dB -14.89 dB 8:32 08-Holy Ghost
DR12 -1.26 dB -14.56 dB 6:26 09-Too Hot To Stop
DR12 -0.79 dB -14.96 dB 3:47 10-Shake Your Rump To The Funk
DR12 -0.79 dB -15.53 dB 3:33 11-Cozy
DR11 -1.21 dB -14.57 dB 4:58 12-Spellbound
DR11 -0.39 dB -14.84 dB 4:50 13-Whitehouseorgy
DR11 -0.79 dB -13.79 dB 4:19 14-Standing On The Outside
DR14 -0.79 dB -17.27 dB 3:28 15-Attitudes
DR13 -0.79 dB -14.63 dB 4:27 16-Shut The Funk Up
DR13 0.00 dB -15.33 dB 6:03 17-Let's Have Some Fun
––––––––––––––––––––––––––––––––––––––––

Number of tracks: 17
Official DR value: DR12

Samplerate: 44100 Hz
Channels: 2
Bits per sample: 16
Bitrate: 888 kbps
Codec: FLAC
================================================================================

Exact Audio Copy V1.3 from 2. September 2016

EAC extraction logfile from 6. November 2020, 15:48

The Bar-Kays / The Definitive Collection

Used drive : PLEXTOR PX-891SAF Adapter: 1 ID: 0

Read mode : Secure
Utilize accurate stream : Yes
Defeat audio cache : Yes
Make use of C2 pointers : No

Read offset correction : 6
Overread into Lead-In and Lead-Out : No
Fill up missing offset samples with silence : Yes
Delete leading and trailing silent blocks : No
Null samples used in CRC calculations : Yes
Used interface : Native Win32 interface for Win NT & 2000
Gap handling : Appended to previous track

Used output format : User Defined Encoder
Selected bitrate : 1024 kBit/s
Quality : High
Add ID3 tag : No
Command line compressor : C:\Program Files (x86)\Exact Audio Copy\Flac\flac.exe
Additional command line options : -8 -V -T "ARTIST=%artist%" -T "TITLE=%title%" -T "ALBUM=%albumtitle%" -T "DATE=%year%" -T "TRACKNUMBER=%tracknr%" -T "GENRE=%genre%" -T "PERFORMER=%albuminterpret%" -T "COMPOSER=%composer%" %haslyrics%–tag-from-file=LYRICS="%lyricsfile%"%haslyrics% -T "ALBUMARTIST=%albumartist%" -T "DISCNUMBER=%cdnumber%" -T "TOTALDISCS=%totalcds%" -T "TOTALTRACKS=%numtracks%" -T "COMMENT=%comment%" %source% -o %dest%


TOC of the extracted CD

Track | Start | Length | Start sector | End sector
––––––––––––––––––––––––––––-
1 | 0:00.00 | 4:32.24 | 0 | 20423
2 | 4:32.24 | 3:41.28 | 20424 | 37026
3 | 8:13.52 | 3:12.51 | 37027 | 51477
4 | 11:26.28 | 3:43.25 | 51478 | 68227
5 | 15:09.53 | 3:23.39 | 68228 | 83491
6 | 18:33.17 | 6:18.34 | 83492 | 111875
7 | 24:51.51 | 5:12.40 | 111876 | 135315
8 | 30:04.16 | 3:14.06 | 135316 | 149871
9 | 33:18.22 | 4:50.02 | 149872 | 171623
10 | 38:08.24 | 5:50.57 | 171624 | 197930
11 | 43:59.06 | 4:11.43 | 197931 | 216798
12 | 48:10.49 | 5:09.39 | 216799 | 240012
13 | 53:20.13 | 5:49.60 | 240013 | 266247
14 | 59:09.73 | 3:51.05 | 266248 | 283577
15 | 63:01.03 | 4:17.73 | 283578 | 302925
16 | 67:19.01 | 2:05.02 | 302926 | 312302


Track 1

Filename D:\#EAC new\#wav+flac\#Trump\The Bar-Kays - The Definitive Collection\cd 2\01. The Bar-Kays - Give It Up.wav

Pre-gap length 0:00:02.00

Peak level 95.6 %
Extraction speed 5.8 X
Track quality 100.0 %
Test CRC 61C01171
Copy CRC 61C01171
Accurately ripped (confidence 3) [238A1D58] (AR v2)
Copy OK

Track 2

Filename D:\#EAC new\#wav+flac\#Trump\The Bar-Kays - The Definitive Collection\cd 2\02. The Bar-Kays - Get Up 'n Do It.wav

Pre-gap length 0:00:01.76

Peak level 91.3 %
Extraction speed 6.2 X
Track quality 100.0 %
Test CRC DB1D5F2A
Copy CRC DB1D5F2A
Accurately ripped (confidence 3) [80DC15BB] (AR v2)
Copy OK

Track 3

Filename D:\#EAC new\#wav+flac\#Trump\The Bar-Kays - The Definitive Collection\cd 2\03. The Bar-Kays - I Lean On You,You Lean On Me.wav

Pre-gap length 0:00:01.76

Peak level 95.6 %
Extraction speed 6.5 X
Track quality 100.0 %
Test CRC 635E092D
Copy CRC 635E092D
Accurately ripped (confidence 3) [FDAD09CB] (AR v2)
Copy OK

Track 4

Filename D:\#EAC new\#wav+flac\#Trump\The Bar-Kays - The Definitive Collection\cd 2\04. The Bar-Kays - Shine.wav

Pre-gap length 0:00:01.76

Peak level 95.6 %
Extraction speed 7.0 X
Track quality 100.0 %
Test CRC CC81B7AD
Copy CRC CC81B7AD
Accurately ripped (confidence 3) [68381937] (AR v2)
Copy OK

Track 5

Filename D:\#EAC new\#wav+flac\#Trump\The Bar-Kays - The Definitive Collection\cd 2\05. The Bar-Kays - I'll Dance.wav

Pre-gap length 0:00:01.76

Peak level 91.3 %
Extraction speed 5.9 X
Track quality 99.9 %
Test CRC 86BEE4F3
Copy CRC 86BEE4F3
Accurately ripped (confidence 3) [07F2353C] (AR v2)
Copy OK

Track 6

Filename D:\#EAC new\#wav+flac\#Trump\The Bar-Kays - The Definitive Collection\cd 2\06. The Bar-Kays - Move Your Boogie Body.wav

Pre-gap length 0:00:01.76

Peak level 95.6 %
Extraction speed 7.4 X
Track quality 99.9 %
Test CRC E08E820A
Copy CRC E08E820A
Accurately ripped (confidence 3) [0C475040] (AR v2)
Copy OK

Track 7

Filename D:\#EAC new\#wav+flac\#Trump\The Bar-Kays - The Definitive Collection\cd 2\07. The Bar-Kays - Up In Here.wav

Pre-gap length 0:00:01.76

Peak level 95.6 %
Extraction speed 8.8 X
Track quality 100.0 %
Test CRC E8A6C838
Copy CRC E8A6C838
Accurately ripped (confidence 3) [D023ABF2] (AR v2)
Copy OK

Track 8

Filename D:\#EAC new\#wav+flac\#Trump\The Bar-Kays - The Definitive Collection\cd 2\08. The Bar-Kays - Today Is The Day.wav

Pre-gap length 0:00:01.76

Peak level 91.3 %
Extraction speed 8.6 X
Track quality 100.0 %
Test CRC BFF21B26
Copy CRC BFF21B26
Accurately ripped (confidence 3) [B684CE3A] (AR v2)
Copy OK

Track 9

Filename D:\#EAC new\#wav+flac\#Trump\The Bar-Kays - The Definitive Collection\cd 2\09. The Bar-Kays - Running In And Out Of My Life.wav

Pre-gap length 0:00:01.76

Peak level 95.6 %
Extraction speed 9.4 X
Track quality 100.0 %
Test CRC 6F5731A0
Copy CRC 6F5731A0
Accurately ripped (confidence 3) [619CE60D] (AR v2)
Copy OK

Track 10

Filename D:\#EAC new\#wav+flac\#Trump\The Bar-Kays - The Definitive Collection\cd 2\10. The Bar-Kays - Boogie Body Land.wav

Pre-gap length 0:00:01.76

Peak level 86.9 %
Extraction speed 10.1 X
Track quality 100.0 %
Test CRC 9F601429
Copy CRC 9F601429
Accurately ripped (confidence 3) [5645B268] (AR v2)
Copy OK

Track 11

Filename D:\#EAC new\#wav+flac\#Trump\The Bar-Kays - The Definitive Collection\cd 2\11. The Bar-Kays - Body Fever.wav

Pre-gap length 0:00:01.76

Peak level 86.9 %
Extraction speed 10.2 X
Track quality 100.0 %
Test CRC C2C3A5A9
Copy CRC C2C3A5A9
Accurately ripped (confidence 3) [889AA166] (AR v2)
Copy OK

Track 12

Filename D:\#EAC new\#wav+flac\#Trump\The Bar-Kays - The Definitive Collection\cd 2\12. The Bar-Kays - Freaky Behaviour.wav

Pre-gap length 0:00:01.76

Peak level 95.6 %
Extraction speed 10.7 X
Track quality 100.0 %
Test CRC 171086B5
Copy CRC 171086B5
Accurately ripped (confidence 3) [6226A572] (AR v2)
Copy OK

Track 13

Filename D:\#EAC new\#wav+flac\#Trump\The Bar-Kays - The Definitive Collection\cd 2\13. The Bar-Kays - Traffic Jammer.wav

Pre-gap length 0:00:01.76

Peak level 91.3 %
Extraction speed 11.2 X
Track quality 100.0 %
Test CRC 206522CD
Copy CRC 206522CD
Accurately ripped (confidence 3) [D601E389] (AR v2)
Copy OK

Track 14

Filename D:\#EAC new\#wav+flac\#Trump\The Bar-Kays - The Definitive Collection\cd 2\14. The Bar-Kays - Hit And Run.wav

Pre-gap length 0:00:01.76

Peak level 100.0 %
Extraction speed 8.8 X
Track quality 99.9 %
Test CRC A9EB380B
Copy CRC A9EB380B
Accurately ripped (confidence 3) [E6C952B8] (AR v2)
Copy OK

Track 15

Filename D:\#EAC new\#wav+flac\#Trump\The Bar-Kays - The Definitive Collection\cd 2\15. The Bar-Kays - Nightcruising.wav

Pre-gap length 0:00:01.76

Peak level 95.6 %
Extraction speed 9.2 X
Track quality 99.9 %
Test CRC 6D6E342F
Copy CRC 6D6E342F
Accurately ripped (confidence 3) [D5D97699] (AR v2)
Copy OK

Track 16

Filename D:\#EAC new\#wav+flac\#Trump\The Bar-Kays - The Definitive Collection\cd 2\16. The Bar-Kays - (Busted).wav

Pre-gap length 0:00:01.76

Peak level 91.3 %
Extraction speed 9.9 X
Track quality 100.0 %
Test CRC 96BA598E
Copy CRC 96BA598E
Accurately ripped (confidence 3) [5A4BF1D0] (AR v2)
Copy OK


All tracks accurately ripped

No errors occurred

End of status report

–– CUETools DB Plugin V2.1.6

[CTDB TOCID: bc1esKOH70.Y0nI9SJdlQ.aNskw-] found
Submit result: bc1esKOH70.Y0nI9SJdlQ.aNskw- has been confirmed
Track | CTDB Status
1 | (5/5) Accurately ripped
2 | (5/5) Accurately ripped
3 | (5/5) Accurately ripped
4 | (5/5) Accurately ripped
5 | (5/5) Accurately ripped
6 | (5/5) Accurately ripped
7 | (5/5) Accurately ripped
8 | (5/5) Accurately ripped
9 | (5/5) Accurately ripped
10 | (5/5) Accurately ripped
11 | (5/5) Accurately ripped
12 | (5/5) Accurately ripped
13 | (5/5) Accurately ripped
14 | (5/5) Accurately ripped
15 | (5/5) Accurately ripped
16 | (5/5) Accurately ripped


==== Log checksum 42CD64A12FEB30537C47690B21726C766D8AD55EB8840CC204A319BB1D554277 ====

––––––––––––––––––––––––––––––

Exact Audio Copy V1.3 from 2. September 2016

EAC extraction logfile from 6. November 2020, 15:48

The Bar-Kays / The Definitive Collection

Used drive : PLEXTOR PX-891SAF Adapter: 1 ID: 0

Read mode : Secure
Utilize accurate stream : Yes
Defeat audio cache : Yes
Make use of C2 pointers : No

Read offset correction : 6
Overread into Lead-In and Lead-Out : No
Fill up missing offset samples with silence : Yes
Delete leading and trailing silent blocks : No
Null samples used in CRC calculations : Yes
Used interface : Native Win32 interface for Win NT & 2000
Gap handling : Appended to previous track

Used output format : User Defined Encoder
Selected bitrate : 1024 kBit/s
Quality : High
Add ID3 tag : No
Command line compressor : C:\Program Files (x86)\Exact Audio Copy\Flac\flac.exe
Additional command line options : -8 -V -T "ARTIST=%artist%" -T "TITLE=%title%" -T "ALBUM=%albumtitle%" -T "DATE=%year%" -T "TRACKNUMBER=%tracknr%" -T "GENRE=%genre%" -T "PERFORMER=%albuminterpret%" -T "COMPOSER=%composer%" %haslyrics%–tag-from-file=LYRICS="%lyricsfile%"%haslyrics% -T "ALBUMARTIST=%albumartist%" -T "DISCNUMBER=%cdnumber%" -T "TOTALDISCS=%totalcds%" -T "TOTALTRACKS=%numtracks%" -T "COMMENT=%comment%" %source% -o %dest%


TOC of the extracted CD

Track | Start | Length | Start sector | End sector
––––––––––––––––––––––––––––-
1 | 0:00.00 | 4:32.24 | 0 | 20423
2 | 4:32.24 | 3:41.28 | 20424 | 37026
3 | 8:13.52 | 3:12.51 | 37027 | 51477
4 | 11:26.28 | 3:43.25 | 51478 | 68227
5 | 15:09.53 | 3:23.39 | 68228 | 83491
6 | 18:33.17 | 6:18.34 | 83492 | 111875
7 | 24:51.51 | 5:12.40 | 111876 | 135315
8 | 30:04.16 | 3:14.06 | 135316 | 149871
9 | 33:18.22 | 4:50.02 | 149872 | 171623
10 | 38:08.24 | 5:50.57 | 171624 | 197930
11 | 43:59.06 | 4:11.43 | 197931 | 216798
12 | 48:10.49 | 5:09.39 | 216799 | 240012
13 | 53:20.13 | 5:49.60 | 240013 | 266247
14 | 59:09.73 | 3:51.05 | 266248 | 283577
15 | 63:01.03 | 4:17.73 | 283578 | 302925
16 | 67:19.01 | 2:05.02 | 302926 | 312302


Track 1

Filename D:\#EAC new\#wav+flac\#Trump\The Bar-Kays - The Definitive Collection\cd 2\01. The Bar-Kays - Give It Up.wav

Pre-gap length 0:00:02.00

Peak level 95.6 %
Extraction speed 5.8 X
Track quality 100.0 %
Test CRC 61C01171
Copy CRC 61C01171
Accurately ripped (confidence 3) [238A1D58] (AR v2)
Copy OK

Track 2

Filename D:\#EAC new\#wav+flac\#Trump\The Bar-Kays - The Definitive Collection\cd 2\02. The Bar-Kays - Get Up 'n Do It.wav

Pre-gap length 0:00:01.76

Peak level 91.3 %
Extraction speed 6.2 X
Track quality 100.0 %
Test CRC DB1D5F2A
Copy CRC DB1D5F2A
Accurately ripped (confidence 3) [80DC15BB] (AR v2)
Copy OK

Track 3

Filename D:\#EAC new\#wav+flac\#Trump\The Bar-Kays - The Definitive Collection\cd 2\03. The Bar-Kays - I Lean On You,You Lean On Me.wav

Pre-gap length 0:00:01.76

Peak level 95.6 %
Extraction speed 6.5 X
Track quality 100.0 %
Test CRC 635E092D
Copy CRC 635E092D
Accurately ripped (confidence 3) [FDAD09CB] (AR v2)
Copy OK

Track 4

Filename D:\#EAC new\#wav+flac\#Trump\The Bar-Kays - The Definitive Collection\cd 2\04. The Bar-Kays - Shine.wav

Pre-gap length 0:00:01.76

Peak level 95.6 %
Extraction speed 7.0 X
Track quality 100.0 %
Test CRC CC81B7AD
Copy CRC CC81B7AD
Accurately ripped (confidence 3) [68381937] (AR v2)
Copy OK

Track 5

Filename D:\#EAC new\#wav+flac\#Trump\The Bar-Kays - The Definitive Collection\cd 2\05. The Bar-Kays - I'll Dance.wav

Pre-gap length 0:00:01.76

Peak level 91.3 %
Extraction speed 5.9 X
Track quality 99.9 %
Test CRC 86BEE4F3
Copy CRC 86BEE4F3
Accurately ripped (confidence 3) [07F2353C] (AR v2)
Copy OK

Track 6

Filename D:\#EAC new\#wav+flac\#Trump\The Bar-Kays - The Definitive Collection\cd 2\06. The Bar-Kays - Move Your Boogie Body.wav

Pre-gap length 0:00:01.76

Peak level 95.6 %
Extraction speed 7.4 X
Track quality 99.9 %
Test CRC E08E820A
Copy CRC E08E820A
Accurately ripped (confidence 3) [0C475040] (AR v2)
Copy OK

Track 7

Filename D:\#EAC new\#wav+flac\#Trump\The Bar-Kays - The Definitive Collection\cd 2\07. The Bar-Kays - Up In Here.wav

Pre-gap length 0:00:01.76

Peak level 95.6 %
Extraction speed 8.8 X
Track quality 100.0 %
Test CRC E8A6C838
Copy CRC E8A6C838
Accurately ripped (confidence 3) [D023ABF2] (AR v2)
Copy OK

Track 8

Filename D:\#EAC new\#wav+flac\#Trump\The Bar-Kays - The Definitive Collection\cd 2\08. The Bar-Kays - Today Is The Day.wav

Pre-gap length 0:00:01.76

Peak level 91.3 %
Extraction speed 8.6 X
Track quality 100.0 %
Test CRC BFF21B26
Copy CRC BFF21B26
Accurately ripped (confidence 3) [B684CE3A] (AR v2)
Copy OK

Track 9

Filename D:\#EAC new\#wav+flac\#Trump\The Bar-Kays - The Definitive Collection\cd 2\09. The Bar-Kays - Running In And Out Of My Life.wav

Pre-gap length 0:00:01.76

Peak level 95.6 %
Extraction speed 9.4 X
Track quality 100.0 %
Test CRC 6F5731A0
Copy CRC 6F5731A0
Accurately ripped (confidence 3) [619CE60D] (AR v2)
Copy OK

Track 10

Filename D:\#EAC new\#wav+flac\#Trump\The Bar-Kays - The Definitive Collection\cd 2\10. The Bar-Kays - Boogie Body Land.wav

Pre-gap length 0:00:01.76

Peak level 86.9 %
Extraction speed 10.1 X
Track quality 100.0 %
Test CRC 9F601429
Copy CRC 9F601429
Accurately ripped (confidence 3) [5645B268] (AR v2)
Copy OK

Track 11

Filename D:\#EAC new\#wav+flac\#Trump\The Bar-Kays - The Definitive Collection\cd 2\11. The Bar-Kays - Body Fever.wav

Pre-gap length 0:00:01.76

Peak level 86.9 %
Extraction speed 10.2 X
Track quality 100.0 %
Test CRC C2C3A5A9
Copy CRC C2C3A5A9
Accurately ripped (confidence 3) [889AA166] (AR v2)
Copy OK

Track 12

Filename D:\#EAC new\#wav+flac\#Trump\The Bar-Kays - The Definitive Collection\cd 2\12. The Bar-Kays - Freaky Behaviour.wav

Pre-gap length 0:00:01.76

Peak level 95.6 %
Extraction speed 10.7 X
Track quality 100.0 %
Test CRC 171086B5
Copy CRC 171086B5
Accurately ripped (confidence 3) [6226A572] (AR v2)
Copy OK

Track 13

Filename D:\#EAC new\#wav+flac\#Trump\The Bar-Kays - The Definitive Collection\cd 2\13. The Bar-Kays - Traffic Jammer.wav

Pre-gap length 0:00:01.76

Peak level 91.3 %
Extraction speed 11.2 X
Track quality 100.0 %
Test CRC 206522CD
Copy CRC 206522CD
Accurately ripped (confidence 3) [D601E389] (AR v2)
Copy OK

Track 14

Filename D:\#EAC new\#wav+flac\#Trump\The Bar-Kays - The Definitive Collection\cd 2\14. The Bar-Kays - Hit And Run.wav

Pre-gap length 0:00:01.76

Peak level 100.0 %
Extraction speed 8.8 X
Track quality 99.9 %
Test CRC A9EB380B
Copy CRC A9EB380B
Accurately ripped (confidence 3) [E6C952B8] (AR v2)
Copy OK

Track 15

Filename D:\#EAC new\#wav+flac\#Trump\The Bar-Kays - The Definitive Collection\cd 2\15. The Bar-Kays - Nightcruising.wav

Pre-gap length 0:00:01.76

Peak level 95.6 %
Extraction speed 9.2 X
Track quality 99.9 %
Test CRC 6D6E342F
Copy CRC 6D6E342F
Accurately ripped (confidence 3) [D5D97699] (AR v2)
Copy OK

Track 16

Filename D:\#EAC new\#wav+flac\#Trump\The Bar-Kays - The Definitive Collection\cd 2\16. The Bar-Kays - (Busted).wav

Pre-gap length 0:00:01.76

Peak level 91.3 %
Extraction speed 9.9 X
Track quality 100.0 %
Test CRC 96BA598E
Copy CRC 96BA598E
Accurately ripped (confidence 3) [5A4BF1D0] (AR v2)
Copy OK


All tracks accurately ripped

No errors occurred

End of status report

–– CUETools DB Plugin V2.1.6

[CTDB TOCID: bc1esKOH70.Y0nI9SJdlQ.aNskw-] found
Submit result: bc1esKOH70.Y0nI9SJdlQ.aNskw- has been confirmed
Track | CTDB Status
1 | (5/5) Accurately ripped
2 | (5/5) Accurately ripped
3 | (5/5) Accurately ripped
4 | (5/5) Accurately ripped
5 | (5/5) Accurately ripped
6 | (5/5) Accurately ripped
7 | (5/5) Accurately ripped
8 | (5/5) Accurately ripped
9 | (5/5) Accurately ripped
10 | (5/5) Accurately ripped
11 | (5/5) Accurately ripped
12 | (5/5) Accurately ripped
13 | (5/5) Accurately ripped
14 | (5/5) Accurately ripped
15 | (5/5) Accurately ripped
16 | (5/5) Accurately ripped


==== Log checksum 42CD64A12FEB30537C47690B21726C766D8AD55EB8840CC204A319BB1D554277 ====

––––––––––––––––––––––––––––––––––––––––
Analyzed: The Bar-Kays / The Definitive Collection
––––––––––––––––––––––––––––––––––––––––

DR Peak RMS Duration Track
––––––––––––––––––––––––––––––––––––––––
DR12 -0.39 dB -13.73 dB 4:32 01-Give It Up
DR11 -0.79 dB -13.63 dB 3:41 02-Get Up 'n Do It
DR12 -0.39 dB -14.56 dB 3:13 03-I Lean On You/You Lean On Me
DR12 -0.39 dB -13.86 dB 3:43 04-Shine
DR12 -0.79 dB -14.10 dB 3:24 05-I'll Dance
DR12 -0.39 dB -14.30 dB 6:18 06-Move Your Boogie Body
DR13 -0.39 dB -14.63 dB 5:13 07-Up In Here
DR13 -0.79 dB -16.62 dB 3:14 08-Today Is The Day
DR13 -0.39 dB -16.20 dB 4:50 09-Running In And Out Of My Life
DR9 -1.21 dB -11.51 dB 5:51 10-Boogie Body Land
DR9 -1.21 dB -11.35 dB 4:12 11-Body Fever
DR12 -0.39 dB -13.91 dB 5:10 12-Freaky Behaviour
DR12 -0.79 dB -14.11 dB 5:50 13-Traffic Jammer
DR13 0.00 dB -14.36 dB 3:51 14-Hit And Run
DR11 -0.39 dB -13.56 dB 4:18 15-Nightcruising
DR12 -0.79 dB -13.71 dB 2:05 16-(Busted)
––––––––––––––––––––––––––––––––––––––––

Number of tracks: 16
Official DR value: DR12

Samplerate: 44100 Hz
Channels: 2
Bits per sample: 16
Bitrate: 936 kbps
Codec: FLAC
================================================================================

Exact Audio Copy V1.3 from 2. September 2016

EAC extraction logfile from 6. November 2020, 16:06

The Bar-Kays / The Definitive Collection

Used drive : PLEXTOR PX-891SAF Adapter: 1 ID: 0

Read mode : Secure
Utilize accurate stream : Yes
Defeat audio cache : Yes
Make use of C2 pointers : No

Read offset correction : 6
Overread into Lead-In and Lead-Out : No
Fill up missing offset samples with silence : Yes
Delete leading and trailing silent blocks : No
Null samples used in CRC calculations : Yes
Used interface : Native Win32 interface for Win NT & 2000
Gap handling : Appended to previous track

Used output format : User Defined Encoder
Selected bitrate : 1024 kBit/s
Quality : High
Add ID3 tag : No
Command line compressor : C:\Program Files (x86)\Exact Audio Copy\Flac\flac.exe
Additional command line options : -8 -V -T "ARTIST=%artist%" -T "TITLE=%title%" -T "ALBUM=%albumtitle%" -T "DATE=%year%" -T "TRACKNUMBER=%tracknr%" -T "GENRE=%genre%" -T "PERFORMER=%albuminterpret%" -T "COMPOSER=%composer%" %haslyrics%–tag-from-file=LYRICS="%lyricsfile%"%haslyrics% -T "ALBUMARTIST=%albumartist%" -T "DISCNUMBER=%cdnumber%" -T "TOTALDISCS=%totalcds%" -T "TOTALTRACKS=%numtracks%" -T "COMMENT=%comment%" %source% -o %dest%


TOC of the extracted CD

Track | Start | Length | Start sector | End sector
––––––––––––––––––––––––––––-
1 | 0:00.00 | 6:09.28 | 0 | 27702
2 | 6:09.28 | 6:04.65 | 27703 | 55067
3 | 12:14.18 | 5:49.07 | 55068 | 81249
4 | 18:03.25 | 5:21.59 | 81250 | 105383
5 | 23:25.09 | 4:34.03 | 105384 | 125936
6 | 27:59.12 | 6:33.09 | 125937 | 155420
7 | 34:32.21 | 5:06.48 | 155421 | 178418
8 | 39:38.69 | 4:40.27 | 178419 | 199445
9 | 44:19.21 | 5:03.16 | 199446 | 222186
10 | 49:22.37 | 4:57.06 | 222187 | 244467
11 | 54:19.43 | 4:18.12 | 244468 | 263829
12 | 58:37.55 | 5:14.13 | 263830 | 287392
13 | 63:51.68 | 5:42.25 | 287393 | 313067


Track 1

Filename D:\#EAC new\#wav+flac\#Trump\The Bar-Kays - The Definitive Collection\cd 3\01. The Bar-Kays - She Talks To Me With Her Body.wav

Pre-gap length 0:00:02.00

Peak level 86.4 %
Extraction speed 6.2 X
Track quality 100.0 %
Test CRC 8DEDCA69
Copy CRC 8DEDCA69
Accurately ripped (confidence 3) [F87CCFD9] (AR v2)
Copy OK

Track 2

Filename D:\#EAC new\#wav+flac\#Trump\The Bar-Kays - The Definitive Collection\cd 3\02. The Bar-Kays - Do It (Let Me See You Shake).wav

Pre-gap length 0:00:01.76

Peak level 86.4 %
Extraction speed 6.3 X
Track quality 99.9 %
Test CRC E4C275C5
Copy CRC E4C275C5
Accurately ripped (confidence 3) [5B779177] (AR v2)
Copy OK

Track 3

Filename D:\#EAC new\#wav+flac\#Trump\The Bar-Kays - The Definitive Collection\cd 3\03. The Bar-Kays - Anticipation.wav

Pre-gap length 0:00:01.76

Peak level 86.4 %
Extraction speed 7.8 X
Track quality 100.0 %
Test CRC 7731EC81
Copy CRC 7731EC81
Accurately ripped (confidence 3) [3E037B5B] (AR v2)
Copy OK

Track 4

Filename D:\#EAC new\#wav+flac\#Trump\The Bar-Kays - The Definitive Collection\cd 3\04. The Bar-Kays - Sexomatic.wav

Pre-gap length 0:00:01.76

Peak level 86.4 %
Extraction speed 8.3 X
Track quality 100.0 %
Test CRC 24B90C3D
Copy CRC 24B90C3D
Accurately ripped (confidence 3) [79263840] (AR v2)
Copy OK

Track 5

Filename D:\#EAC new\#wav+flac\#Trump\The Bar-Kays - The Definitive Collection\cd 3\05. The Bar-Kays - Dirty Dancer.wav

Pre-gap length 0:00:01.76

Peak level 86.4 %
Extraction speed 8.6 X
Track quality 100.0 %
Test CRC 417520F9
Copy CRC 417520F9
Accurately ripped (confidence 3) [9A685CEB] (AR v2)
Copy OK

Track 6

Filename D:\#EAC new\#wav+flac\#Trump\The Bar-Kays - The Definitive Collection\cd 3\06. The Bar-Kays - Freakshow On The Dancefloor.wav

Pre-gap length 0:00:01.76

Peak level 86.4 %
Extraction speed 9.2 X
Track quality 100.0 %
Test CRC 34F43773
Copy CRC 34F43773
Accurately ripped (confidence 3) [F312D6F9] (AR v2)
Copy OK

Track 7

Filename D:\#EAC new\#wav+flac\#Trump\The Bar-Kays - The Definitive Collection\cd 3\07. The Bar-Kays - Your Place Or Mine.wav

Pre-gap length 0:00:01.76

Peak level 100.0 %
Extraction speed 9.5 X
Track quality 100.0 %
Test CRC 31A12ABC
Copy CRC 31A12ABC
Accurately ripped (confidence 3) [7A7EDB04] (AR v2)
Copy OK

Track 8

Filename D:\#EAC new\#wav+flac\#Trump\The Bar-Kays - The Definitive Collection\cd 3\08. The Bar-Kays - Banging The Walls.wav

Pre-gap length 0:00:01.76

Peak level 97.2 %
Extraction speed 9.8 X
Track quality 100.0 %
Test CRC 1463E417
Copy CRC 1463E417
Accurately ripped (confidence 3) [4E0AABD3] (AR v2)
Copy OK

Track 9

Filename D:\#EAC new\#wav+flac\#Trump\The Bar-Kays - The Definitive Collection\cd 3\09. The Bar-Kays - Contagious.wav

Pre-gap length 0:00:01.76

Peak level 97.2 %
Extraction speed 10.2 X
Track quality 100.0 %
Test CRC A91158CF
Copy CRC A91158CF
Accurately ripped (confidence 3) [B328A721] (AR v2)
Copy OK

Track 10

Filename D:\#EAC new\#wav+flac\#Trump\The Bar-Kays - The Definitive Collection\cd 3\10. The Bar-Kays - Certified True.wav

Pre-gap length 0:00:01.76

Peak level 86.4 %
Extraction speed 10.4 X
Track quality 100.0 %
Test CRC 07DB1EA1
Copy CRC 07DB1EA1
Accurately ripped (confidence 3) [8A4BF8FF] (AR v2)
Copy OK

Track 11

Filename D:\#EAC new\#wav+flac\#Trump\The Bar-Kays - The Definitive Collection\cd 3\11. The Bar-Kays - Don't Hang Up.wav

Pre-gap length 0:00:01.76

Peak level 86.4 %
Extraction speed 10.7 X
Track quality 100.0 %
Test CRC AE4C0F18
Copy CRC AE4C0F18
Accurately ripped (confidence 3) [480A386F] (AR v2)
Copy OK

Track 12

Filename D:\#EAC new\#wav+flac\#Trump\The Bar-Kays - The Definitive Collection\cd 3\12. The Bar-Kays - Animal.wav

Pre-gap length 0:00:01.76

Peak level 86.4 %
Extraction speed 11.5 X
Track quality 100.0 %
Test CRC 35C8C135
Copy CRC 35C8C135
Accurately ripped (confidence 3) [6FCDE258] (AR v2)
Copy OK

Track 13

Filename D:\#EAC new\#wav+flac\#Trump\The Bar-Kays - The Definitive Collection\cd 3\13. The Bar-Kays - Struck By You.wav

Pre-gap length 0:00:01.76

Peak level 86.4 %
Extraction speed 11.7 X
Track quality 100.0 %
Test CRC 809DDD8A
Copy CRC 809DDD8A
Accurately ripped (confidence 3) [3FF620F7] (AR v2)
Copy OK


All tracks accurately ripped

No errors occurred

End of status report

–– CUETools DB Plugin V2.1.6

[CTDB TOCID: iQkXEocqcjEMSnA89hwZcXIJieY-] found
Submit result: iQkXEocqcjEMSnA89hwZcXIJieY- has been confirmed
Track | CTDB Status
1 | (5/5) Accurately ripped
2 | (5/5) Accurately ripped
3 | (5/5) Accurately ripped
4 | (5/5) Accurately ripped
5 | (5/5) Accurately ripped
6 | (5/5) Accurately ripped
7 | (5/5) Accurately ripped
8 | (5/5) Accurately ripped
9 | (5/5) Accurately ripped
10 | (5/5) Accurately ripped
11 | (5/5) Accurately ripped
12 | (5/5) Accurately ripped
13 | (5/5) Accurately ripped


==== Log checksum B6EFF58C14284FD1FBDFB94292FC8E05A4F0E68DC6324F4E774C83FEB940548F ====

––––––––––––––––––––––––––––––

Exact Audio Copy V1.3 from 2. September 2016

EAC extraction logfile from 6. November 2020, 16:06

The Bar-Kays / The Definitive Collection

Used drive : PLEXTOR PX-891SAF Adapter: 1 ID: 0

Read mode : Secure
Utilize accurate stream : Yes
Defeat audio cache : Yes
Make use of C2 pointers : No

Read offset correction : 6
Overread into Lead-In and Lead-Out : No
Fill up missing offset samples with silence : Yes
Delete leading and trailing silent blocks : No
Null samples used in CRC calculations : Yes
Used interface : Native Win32 interface for Win NT & 2000
Gap handling : Appended to previous track

Used output format : User Defined Encoder
Selected bitrate : 1024 kBit/s
Quality : High
Add ID3 tag : No
Command line compressor : C:\Program Files (x86)\Exact Audio Copy\Flac\flac.exe
Additional command line options : -8 -V -T "ARTIST=%artist%" -T "TITLE=%title%" -T "ALBUM=%albumtitle%" -T "DATE=%year%" -T "TRACKNUMBER=%tracknr%" -T "GENRE=%genre%" -T "PERFORMER=%albuminterpret%" -T "COMPOSER=%composer%" %haslyrics%–tag-from-file=LYRICS="%lyricsfile%"%haslyrics% -T "ALBUMARTIST=%albumartist%" -T "DISCNUMBER=%cdnumber%" -T "TOTALDISCS=%totalcds%" -T "TOTALTRACKS=%numtracks%" -T "COMMENT=%comment%" %source% -o %dest%


TOC of the extracted CD

Track | Start | Length | Start sector | End sector
––––––––––––––––––––––––––––-
1 | 0:00.00 | 6:09.28 | 0 | 27702
2 | 6:09.28 | 6:04.65 | 27703 | 55067
3 | 12:14.18 | 5:49.07 | 55068 | 81249
4 | 18:03.25 | 5:21.59 | 81250 | 105383
5 | 23:25.09 | 4:34.03 | 105384 | 125936
6 | 27:59.12 | 6:33.09 | 125937 | 155420
7 | 34:32.21 | 5:06.48 | 155421 | 178418
8 | 39:38.69 | 4:40.27 | 178419 | 199445
9 | 44:19.21 | 5:03.16 | 199446 | 222186
10 | 49:22.37 | 4:57.06 | 222187 | 244467
11 | 54:19.43 | 4:18.12 | 244468 | 263829
12 | 58:37.55 | 5:14.13 | 263830 | 287392
13 | 63:51.68 | 5:42.25 | 287393 | 313067


Track 1

Filename D:\#EAC new\#wav+flac\#Trump\The Bar-Kays - The Definitive Collection\cd 3\01. The Bar-Kays - She Talks To Me With Her Body.wav

Pre-gap length 0:00:02.00

Peak level 86.4 %
Extraction speed 6.2 X
Track quality 100.0 %
Test CRC 8DEDCA69
Copy CRC 8DEDCA69
Accurately ripped (confidence 3) [F87CCFD9] (AR v2)
Copy OK

Track 2

Filename D:\#EAC new\#wav+flac\#Trump\The Bar-Kays - The Definitive Collection\cd 3\02. The Bar-Kays - Do It (Let Me See You Shake).wav

Pre-gap length 0:00:01.76

Peak level 86.4 %
Extraction speed 6.3 X
Track quality 99.9 %
Test CRC E4C275C5
Copy CRC E4C275C5
Accurately ripped (confidence 3) [5B779177] (AR v2)
Copy OK

Track 3

Filename D:\#EAC new\#wav+flac\#Trump\The Bar-Kays - The Definitive Collection\cd 3\03. The Bar-Kays - Anticipation.wav

Pre-gap length 0:00:01.76

Peak level 86.4 %
Extraction speed 7.8 X
Track quality 100.0 %
Test CRC 7731EC81
Copy CRC 7731EC81
Accurately ripped (confidence 3) [3E037B5B] (AR v2)
Copy OK

Track 4

Filename D:\#EAC new\#wav+flac\#Trump\The Bar-Kays - The Definitive Collection\cd 3\04. The Bar-Kays - Sexomatic.wav

Pre-gap length 0:00:01.76

Peak level 86.4 %
Extraction speed 8.3 X
Track quality 100.0 %
Test CRC 24B90C3D
Copy CRC 24B90C3D
Accurately ripped (confidence 3) [79263840] (AR v2)
Copy OK

Track 5

Filename D:\#EAC new\#wav+flac\#Trump\The Bar-Kays - The Definitive Collection\cd 3\05. The Bar-Kays - Dirty Dancer.wav

Pre-gap length 0:00:01.76

Peak level 86.4 %
Extraction speed 8.6 X
Track quality 100.0 %
Test CRC 417520F9
Copy CRC 417520F9
Accurately ripped (confidence 3) [9A685CEB] (AR v2)
Copy OK

Track 6

Filename D:\#EAC new\#wav+flac\#Trump\The Bar-Kays - The Definitive Collection\cd 3\06. The Bar-Kays - Freakshow On The Dancefloor.wav

Pre-gap length 0:00:01.76

Peak level 86.4 %
Extraction speed 9.2 X
Track quality 100.0 %
Test CRC 34F43773
Copy CRC 34F43773
Accurately ripped (confidence 3) [F312D6F9] (AR v2)
Copy OK

Track 7

Filename D:\#EAC new\#wav+flac\#Trump\The Bar-Kays - The Definitive Collection\cd 3\07. The Bar-Kays - Your Place Or Mine.wav

Pre-gap length 0:00:01.76

Peak level 100.0 %
Extraction speed 9.5 X
Track quality 100.0 %
Test CRC 31A12ABC
Copy CRC 31A12ABC
Accurately ripped (confidence 3) [7A7EDB04] (AR v2)
Copy OK

Track 8

Filename D:\#EAC new\#wav+flac\#Trump\The Bar-Kays - The Definitive Collection\cd 3\08. The Bar-Kays - Banging The Walls.wav

Pre-gap length 0:00:01.76

Peak level 97.2 %
Extraction speed 9.8 X
Track quality 100.0 %
Test CRC 1463E417
Copy CRC 1463E417
Accurately ripped (confidence 3) [4E0AABD3] (AR v2)
Copy OK

Track 9

Filename D:\#EAC new\#wav+flac\#Trump\The Bar-Kays - The Definitive Collection\cd 3\09. The Bar-Kays - Contagious.wav

Pre-gap length 0:00:01.76

Peak level 97.2 %
Extraction speed 10.2 X
Track quality 100.0 %
Test CRC A91158CF
Copy CRC A91158CF
Accurately ripped (confidence 3) [B328A721] (AR v2)
Copy OK

Track 10

Filename D:\#EAC new\#wav+flac\#Trump\The Bar-Kays - The Definitive Collection\cd 3\10. The Bar-Kays - Certified True.wav

Pre-gap length 0:00:01.76

Peak level 86.4 %
Extraction speed 10.4 X
Track quality 100.0 %
Test CRC 07DB1EA1
Copy CRC 07DB1EA1
Accurately ripped (confidence 3) [8A4BF8FF] (AR v2)
Copy OK

Track 11

Filename D:\#EAC new\#wav+flac\#Trump\The Bar-Kays - The Definitive Collection\cd 3\11. The Bar-Kays - Don't Hang Up.wav

Pre-gap length 0:00:01.76

Peak level 86.4 %
Extraction speed 10.7 X
Track quality 100.0 %
Test CRC AE4C0F18
Copy CRC AE4C0F18
Accurately ripped (confidence 3) [480A386F] (AR v2)
Copy OK

Track 12

Filename D:\#EAC new\#wav+flac\#Trump\The Bar-Kays - The Definitive Collection\cd 3\12. The Bar-Kays - Animal.wav

Pre-gap length 0:00:01.76

Peak level 86.4 %
Extraction speed 11.5 X
Track quality 100.0 %
Test CRC 35C8C135
Copy CRC 35C8C135
Accurately ripped (confidence 3) [6FCDE258] (AR v2)
Copy OK

Track 13

Filename D:\#EAC new\#wav+flac\#Trump\The Bar-Kays - The Definitive Collection\cd 3\13. The Bar-Kays - Struck By You.wav

Pre-gap length 0:00:01.76

Peak level 86.4 %
Extraction speed 11.7 X
Track quality 100.0 %
Test CRC 809DDD8A
Copy CRC 809DDD8A
Accurately ripped (confidence 3) [3FF620F7] (AR v2)
Copy OK


All tracks accurately ripped

No errors occurred

End of status report

–– CUETools DB Plugin V2.1.6

[CTDB TOCID: iQkXEocqcjEMSnA89hwZcXIJieY-] found
Submit result: iQkXEocqcjEMSnA89hwZcXIJieY- has been confirmed
Track | CTDB Status
1 | (5/5) Accurately ripped
2 | (5/5) Accurately ripped
3 | (5/5) Accurately ripped
4 | (5/5) Accurately ripped
5 | (5/5) Accurately ripped
6 | (5/5) Accurately ripped
7 | (5/5) Accurately ripped
8 | (5/5) Accurately ripped
9 | (5/5) Accurately ripped
10 | (5/5) Accurately ripped
11 | (5/5) Accurately ripped
12 | (5/5) Accurately ripped
13 | (5/5) Accurately ripped


==== Log checksum B6EFF58C14284FD1FBDFB94292FC8E05A4F0E68DC6324F4E774C83FEB940548F ====

––––––––––––––––––––––––––––––––––––––––
Analyzed: The Bar-Kays / The Definitive Collection
––––––––––––––––––––––––––––––––––––––––

DR Peak RMS Duration Track
––––––––––––––––––––––––––––––––––––––––
DR9 -1.26 dB -12.11 dB 6:09 01-She Talks To Me With Her Body
DR12 -1.26 dB -13.99 dB 6:05 02-Do It (Let Me See You Shake)
DR12 -1.26 dB -15.02 dB 5:49 03-Anticipation
DR9 -1.26 dB -11.77 dB 5:22 04-Sexomatic
DR10 -1.26 dB -12.25 dB 4:34 05-Dirty Dancer
DR10 -1.26 dB -11.80 dB 6:33 06-Freakshow On The Dancefloor
DR11 0.00 dB -13.21 dB 5:07 07-Your Place Or Mine
DR12 -0.24 dB -13.42 dB 4:40 08-Banging The Walls
DR14 -0.24 dB -15.29 dB 5:03 09-Contagious
DR13 -1.26 dB -15.40 dB 4:57 10-Certified True
DR11 -1.26 dB -14.10 dB 4:18 11-Don't Hang Up
DR12 -1.26 dB -14.82 dB 5:14 12-Animal
DR12 -1.26 dB -14.33 dB 5:42 13-Struck By You
––––––––––––––––––––––––––––––––––––––––

Number of tracks: 13
Official DR value: DR11

Samplerate: 44100 Hz
Channels: 2
Bits per sample: 16
Bitrate: 906 kbps
Codec: FLAC
================================================================================

Thanks to original releaser

See also:
Bar-Kays - Say It Through Love (1987) [Japan]

♫~Welcome To My Blog~♫

password: BlondStyle